<?xml version="1.0" standalone="no"?>
<!DOCTYPE svg PUBLIC "-//W3C//DTD SVG 1.1//EN" "http://www.w3.org/Graphics/SVG/1.1/DTD/svg11.dtd" >
<svg xmlns="http://www.w3.org/2000/svg" xmlns:xlink="http://www.w3.org/1999/xlink" version="1.1">
<metadata>
Created by FontForge 20201107 at Wed Oct 30 12:57:28 2024
 By 
Copyright (c) 2020 by Newlyn Works Limited. All rights reserved.
</metadata>
<defs>
<font id="NewSpirit-SemiBold" horiz-adv-x="1243" >
  <font-face 
    font-family="New Spirit SemiBold"
    font-weight="600"
    font-stretch="normal"
    units-per-em="2048"
    panose-1="0 0 0 0 0 0 0 0 0 0"
    ascent="1587"
    descent="-461"
    x-height="1028"
    cap-height="1462"
    bbox="-586 -535 2720 1995"
    underline-thickness="102"
    underline-position="-255"
    unicode-range="U+0020-FB02"
  />
<missing-glyph horiz-adv-x="782" 
d="M0 0v1458h782v-1458h-782zM74 158l274 573l-274 574v-1147zM123 84h536l-268 559zM123 1378l268 -559l268 559h-536zM434 731l273 -569v1138z" />
    <glyph glyph-name="f_l" unicode="fl" horiz-adv-x="1402" 
d="M141 -6q-36 0 -52.5 16.5t-16.5 40.5q0 22 12 36t29.5 23t35 21t29.5 39.5t12 69.5v630h-112q-24 0 -36 12.5t-17 39.5q-7 42 -7 59q0 43 52 43h114q-2 9 -7.5 38t-7.5 42.5t-4.5 39t-2.5 50.5q0 162 124.5 270.5t319.5 108.5q82 0 155 -17t118 -34t61 -17q24 0 110 29
t121 29q64 0 64 -99v-1224q0 -42 12.5 -69.5t30.5 -39.5t35.5 -21t30 -23t12.5 -36q0 -23 -17.5 -40t-50.5 -17q-18 0 -83.5 3t-123.5 3t-122 -3t-82 -3q-35 0 -52.5 16.5t-17.5 40.5q0 22 12.5 36t30.5 23t35.5 21t30 39.5t12.5 69.5v929q0 111 -56 172q-61 76 -206 76
q-60 0 -102.5 -20t-63 -53.5t-29 -67.5t-8.5 -72q0 -46 22 -180h240q51 0 51 -43q0 -23 -6 -59q-9 -52 -55 -52h-217v-630q0 -42 16 -68.5t39 -37.5t45.5 -19.5t38.5 -23.5t16 -40q0 -23 -17.5 -40t-51.5 -17q-20 0 -95.5 3t-140.5 3q-60 0 -125.5 -3t-81.5 -3z" />
    <glyph glyph-name=".notdef" horiz-adv-x="782" 
d="M0 0v1458h782v-1458h-782zM74 158l274 573l-274 574v-1147zM123 84h536l-268 559zM123 1378l268 -559l268 559h-536zM434 731l273 -569v1138z" />
    <glyph glyph-name=".null" horiz-adv-x="0" 
 />
    <glyph glyph-name="nonmarkingreturn" horiz-adv-x="682" 
 />
    <glyph glyph-name="space" unicode=" " horiz-adv-x="499" 
 />
    <glyph glyph-name="exclam" unicode="!" horiz-adv-x="563" 
d="M281 397q-56 0 -74 58q-10 77 -39 275.5t-47.5 347.5t-18.5 227q0 196 181 196q180 0 180 -196q0 -79 -19 -229t-48.5 -345.5t-39.5 -275.5q-14 -58 -75 -58zM98 121q0 -64 45 -101.5t119 -37.5q83 0 138 45.5t55 109.5t-46 101.5t-120 37.5q-83 0 -137 -45.5t-54 -109.5
z" />
    <glyph glyph-name="quotedbl" unicode="&#x22;" horiz-adv-x="800" 
d="M586 840q62 0 78 86l53 313q12 66 12 119q0 61 -39 98t-104 37t-105.5 -37t-40.5 -98q0 -36 15 -119l51 -313q16 -86 80 -86zM70 1358q0 -42 14 -119l51 -313q16 -86 80 -86q62 0 78 86l53 313q12 66 12 119q0 61 -39 98t-104 37t-105 -37t-40 -98z" />
    <glyph glyph-name="numbersign" unicode="#" horiz-adv-x="1388" 
d="M356 -8q-46 0 -68 20t-16 62l39 280q3 27 -22 27h-144q-47 0 -64 21.5t-11 72.5q7 52 29.5 73t68.5 21h143q27 0 33 27l35 266q3 27 -21 27h-143q-47 0 -64.5 22t-11.5 72q6 52 29.5 74t69.5 22h143q28 0 31 27l39 278q6 45 29.5 64.5t72.5 19.5q93 0 82 -84l-39 -278
q-3 -27 22 -27h244q28 0 31 27l39 278q6 45 29.5 64.5t72.5 19.5q93 0 82 -84l-39 -278q-3 -27 23 -27h143q47 0 64.5 -22t9.5 -72q-6 -52 -28 -74t-68 -22h-146q-25 0 -31 -27l-36 -266q-3 -27 22 -27h144q47 0 64 -21.5t11 -72.5q-6 -52 -28.5 -73t-69.5 -21h-143
q-28 0 -31 -27l-39 -280q-6 -44 -28.5 -63t-71.5 -19q-46 0 -68 20t-16 62l39 280q3 27 -23 27h-244q-27 0 -30 -27l-39 -280q-6 -43 -29 -62.5t-72 -19.5zM526 596q-3 -27 23 -27h244q29 0 32 27l35 266q3 27 -20 27h-246q-25 0 -31 -27z" />
    <glyph glyph-name="dollar" unicode="$" horiz-adv-x="1286" 
d="M291 -45q-51 0 -88 96l-74 195q-4 11 -14 36t-13 34t-10 27.5t-9 27t-5.5 21t-4.5 22t-1 18.5q0 34 17.5 53t41.5 19q17 0 34.5 -11.5t24 -19.5t21.5 -27q36 -49 67.5 -86.5t77.5 -80.5t90.5 -71t102.5 -46.5t119 -18.5q106 0 168.5 51t62.5 140q0 35 -10 65t-32.5 54
t-46 42t-64 37t-70.5 31t-82 31q-54 20 -93.5 37t-91 43t-88.5 52.5t-75.5 64t-62.5 78.5t-39 94.5t-15 113.5q0 175 117.5 291.5t292.5 124.5v139q0 44 19.5 65t64.5 21q43 0 61 -21t18 -65v-162q18 -4 43 -12t41 -12t27 -4q16 0 28 10t17.5 22.5t18 22.5t30.5 10
q33 0 56.5 -30.5t60.5 -104.5l47 -92q76 -146 76 -199q0 -24 -14.5 -39.5t-34.5 -15.5q-22 0 -40.5 13.5t-41.5 43.5q-76 102 -177.5 170t-217.5 68q-83 0 -135 -46.5t-52 -123.5q0 -78 61 -127.5t195 -99.5q66 -24 111 -42.5t103.5 -47.5t97.5 -56.5t80.5 -67t66 -83
t40 -101t15.5 -123.5q0 -135 -62.5 -233t-167 -147.5t-241.5 -55.5v-168q0 -88 -82 -88q-84 0 -84 88v183q-41 8 -96 25.5t-72 17.5q-28 0 -56 -35t-52 -35z" />
    <glyph glyph-name="percent" unicode="%" horiz-adv-x="1927" 
d="M442 -35q-37 0 -60.5 18.5t-23.5 45.5q0 8 2 17t8 21.5t10.5 20.5t15.5 25t16.5 24.5t20.5 29t20 28.5l843 1210q17 24 30.5 39.5t35.5 35.5t49.5 30t58.5 10q37 0 59.5 -18t22.5 -44q0 -7 -1.5 -14t-4.5 -15.5t-6 -16t-9.5 -18t-10.5 -18t-13 -20.5t-13.5 -20t-15.5 -23
t-16 -23l-844 -1210q-77 -115 -174 -115zM53 1087q0 197 108.5 313t282.5 116q176 0 284 -115.5t108 -313.5q0 -197 -108 -311t-284 -114q-174 0 -282.5 115t-108.5 310zM326 1087q0 -157 30.5 -223.5t87.5 -66.5q58 0 89.5 66t31.5 224q0 160 -31.5 226.5t-89.5 66.5
q-118 0 -118 -293zM1087 414q0 197 109 312.5t283 115.5q176 0 283.5 -115t107.5 -313q0 -197 -107.5 -311.5t-283.5 -114.5q-175 0 -283.5 115t-108.5 311zM1360 414q0 -293 119 -293q58 0 89 67t31 226t-31 226t-89 67q-119 0 -119 -293z" />
    <glyph glyph-name="ampersand" unicode="&#x26;" horiz-adv-x="1724" 
d="M1294 -6q-38 0 -59.5 10t-26 19t-10.5 28q-2 7 -4.5 13t-4 10.5t-4.5 9t-4.5 6.5t-6 7t-6 6.5t-8 7.5t-9.5 8l-66 57q-126 -100 -271 -153.5t-284 -53.5q-213 0 -344 113t-131 287q0 141 89 253t239 181q-158 165 -158 327q0 158 130 261.5t331 103.5q178 0 289.5 -84
t111.5 -213q0 -105 -78.5 -196.5t-230.5 -161.5l383 -338q176 249 176 545q0 75 -13.5 107.5t-47.5 53.5l-21 13.5t-14.5 16.5t-7.5 26q0 36 45 63q34 24 72 37.5t63 13.5q98 0 98 -260q0 -422 -223 -729l185 -162q41 -37 91.5 -64t82.5 -38t54.5 -30t22.5 -46
q0 -55 -75 -55q-8 0 -64.5 3t-111.5 3t-111.5 -3t-67.5 -3zM385 463q0 -132 77.5 -205.5t196.5 -73.5q146 0 295 109l-467 414q-102 -105 -102 -244zM514 1190q0 -106 154 -250q79 52 119 114.5t40 123.5q0 68 -43.5 114.5t-111.5 46.5q-65 0 -111.5 -40t-46.5 -109z" />
    <glyph glyph-name="quotesingle" unicode="'" horiz-adv-x="430" 
d="M215 840q62 0 78 86l53 313q12 66 12 119q0 61 -39 98t-104 37t-105 -37t-40 -98q0 -42 14 -119l51 -313q16 -86 80 -86z" />
    <glyph glyph-name="parenleft" unicode="(" horiz-adv-x="751" 
d="M422 686q0 -463 225 -711q5 -6 20.5 -22t22 -24t16 -21.5t13.5 -26.5t4 -26q0 -58 -66 -58q-50 0 -119.5 33t-138.5 92q-61 52 -117 122t-107.5 165t-82.5 219t-31 258q0 131 31.5 255.5t84 220.5t108 167t114.5 121q70 59 139 93t119 34q66 0 66 -59q0 -13 -4 -25.5
t-13.5 -27t-15.5 -22t-22.5 -24.5t-20.5 -22q-225 -248 -225 -711z" />
    <glyph glyph-name="parenright" unicode=")" horiz-adv-x="751" 
d="M330 686q0 461 -226 711q-3 3 -20.5 22t-22 25t-15 21t-14 27.5t-3.5 25.5q0 59 65 59q50 0 119 -34t139 -93q59 -50 114.5 -121t108 -167t84 -220.5t31.5 -255.5q0 -134 -31 -258t-82.5 -219t-107.5 -165t-117 -122q-69 -59 -138.5 -92t-119.5 -33q-65 0 -65 58
q0 13 3.5 25.5t13.5 26.5t15.5 21.5t22 24.5t20.5 22q226 250 226 711z" />
    <glyph glyph-name="asterisk" unicode="*" horiz-adv-x="1040" 
d="M330 635q-41 0 -87 38.5t-46 78.5q0 28 24 63q50 71 162 158q12 9 12 16t-9 10t-36 5q-124 7 -198 30q-70 24 -70 88q0 49 26.5 91t73.5 42q26 0 73.5 -20t78 -37.5t92.5 -54.5q9 -6 14 -6q9 0 9 10q0 3 -5 18q-38 132 -38 217q0 103 114 103q115 0 115 -103
q0 -81 -39 -217q-4 -12 -4 -18q0 -10 8 -10q5 0 14 6q167 112 244 112q47 0 73.5 -42t26.5 -91q0 -67 -69 -88q-74 -23 -199 -30q-27 -2 -36 -5t-9 -10t12 -16q112 -87 162 -158q23 -33 23 -63q0 -40 -45.5 -78.5t-85.5 -38.5q-41 0 -76 47q-50 69 -100 207q-6 16 -15 16
q-8 0 -14 -16q-42 -127 -103 -207q-30 -47 -73 -47z" />
    <glyph glyph-name="plus" unicode="+" horiz-adv-x="1202" 
d="M602 113q-104 0 -104 65v324q0 26 -27 26h-305q-64 0 -64 103q0 51 15 75.5t49 24.5h305q27 0 27 27v305q0 34 25.5 48.5t78.5 14.5q105 0 105 -63v-305q0 -27 26 -27h303q66 0 66 -100q0 -103 -66 -103h-303q-26 0 -26 -26v-324q0 -65 -105 -65z" />
    <glyph glyph-name="comma" unicode="," horiz-adv-x="544" 
d="M164 -297q-26 0 -42 14t-16 37q0 15 8.5 27.5t15 18.5t26.5 20q84 70 84 123q0 11 -3.5 19t-14 15.5t-16 11t-23 11.5t-21.5 10q-44 22 -68 49t-24 80q0 71 59.5 120.5t146.5 49.5q193 0 193 -196q0 -73 -32.5 -150t-79 -132.5t-99.5 -91.5t-94 -36z" />
    <glyph glyph-name="hyphen" unicode="-" horiz-adv-x="774" 
d="M182 412q-45 0 -64.5 20.5t-19.5 71.5v69q0 51 20 72t64 21h410q45 0 64.5 -21.5t19.5 -71.5v-69q0 -51 -20 -71.5t-64 -20.5h-410z" />
    <glyph glyph-name="period" unicode="." horiz-adv-x="526" 
d="M276 311q-90 0 -148 -51t-58 -123t48 -113.5t130 -41.5q91 0 150 51t59 123q0 71 -50 113t-131 42z" />
    <glyph glyph-name="slash" unicode="/" horiz-adv-x="841" 
d="M145 -63q-51 0 -74.5 13t-23.5 44q0 17 16 57l496 1333q18 48 48.5 65t86.5 17q52 0 75.5 -12.5t23.5 -44.5q0 -19 -15 -57l-495 -1334q-18 -47 -49.5 -64t-88.5 -17z" />
    <glyph glyph-name="zero" unicode="0" horiz-adv-x="1323" 
d="M662 -35q-261 0 -422.5 205.5t-161.5 560.5q0 352 161.5 557t422.5 205t422 -205t161 -557q0 -355 -161 -560.5t-422 -205.5zM416 731q0 -297 66 -444.5t180 -147.5q113 0 179 147.5t66 444.5q0 295 -66.5 442.5t-178.5 147.5q-114 0 -180 -147.5t-66 -442.5z" />
    <glyph glyph-name="one" unicode="1" horiz-adv-x="872" 
d="M197 -6q-37 0 -55.5 17t-18.5 42q0 27 19 44t46.5 26.5t55 22t46.5 40t19 70.5v819q0 99 -73 99q-25 0 -78.5 -8.5t-75.5 -8.5q-32 0 -52 17.5t-20 46.5q0 52 64 71q37 12 149.5 43.5t206.5 63.5q59 20 118.5 45t87.5 35t50 10q29 0 46.5 -19t17.5 -45q0 -29 -16 -53.5
t-34.5 -40t-34.5 -45.5t-16 -69v-961q0 -43 19.5 -70.5t47.5 -40t55.5 -22t47 -26.5t19.5 -44q0 -25 -19 -42t-55 -17q-26 0 -116.5 3t-168.5 3t-167 -3t-115 -3z" />
    <glyph glyph-name="two" unicode="2" horiz-adv-x="1261" 
d="M961 -49q-24 0 -64.5 24.5t-87.5 24.5h-496q-27 0 -96 -3t-104 -3q-42 0 -64 23t-22 53q0 23 11.5 44.5t43.5 61.5q82 99 243 279.5t195 220.5q91 107 139 195.5t48 177.5t-54.5 146.5t-150.5 57.5q-82 0 -143 -46t-119 -128q-41 -63 -86 -63q-30 0 -49 22.5t-19 55.5
q0 38 27 90q67 138 198.5 224.5t309.5 86.5q200 0 334.5 -112t134.5 -287q0 -67 -20 -130.5t-58 -120.5t-78.5 -103t-95.5 -97q-68 -63 -222 -184t-229 -195h385q94 0 153 32.5t148 129.5q25 30 44 43.5t42 13.5q24 0 41 -18.5t17 -48.5q0 -49 -56 -164l-94 -207
q-25 -53 -48 -74.5t-58 -21.5z" />
    <glyph glyph-name="three" unicode="3" horiz-adv-x="1239" 
d="M610 -33q-86 0 -164.5 18t-136 47t-105.5 67t-78 76t-48 77q-27 66 -27 102t21 58t51 22q24 0 42.5 -14.5t39.5 -44.5q52 -75 132.5 -123.5t184.5 -48.5q117 0 190.5 68t73.5 178q0 114 -69 185t-164 71q-22 0 -54.5 -6.5t-45.5 -6.5q-39 0 -60.5 24.5t-21.5 57.5
q0 26 17 44.5t52.5 40.5t51.5 36q142 136 315 328h-297q-60 0 -100 -14.5t-77.5 -46.5t-101.5 -103q-20 -22 -28.5 -31t-22.5 -16.5t-30 -7.5q-25 0 -43.5 18.5t-18.5 50.5q0 12 2 23.5t3.5 20t7.5 23.5l9 22.5t12 28t13 30.5l76 182q13 30 20 44t18.5 30.5t25 23t32.5 6.5
q24 0 67 -24.5t89 -24.5h393q28 0 99 3t85 3q58 0 81.5 -27t23.5 -61q0 -30 -17 -60t-61 -75q-132 -143 -328 -321q128 -17 226 -87t147 -166.5t49 -201.5q0 -135 -72 -249.5t-199 -181.5t-280 -67z" />
    <glyph glyph-name="four" unicode="4" horiz-adv-x="1232" 
d="M571 -6q-36 0 -54.5 17t-18.5 42t15 40.5t37 25t43.5 21t36.5 37t15 65.5v88h-526q-60 0 -87.5 25.5t-27.5 80.5q0 14 2 27.5t8.5 30.5t10.5 27t17 32.5t18.5 31.5t24.5 39.5t26 41.5l434 665q49 78 90 105.5t115 27.5h96q78 0 108.5 -23.5t30.5 -80.5v-776h111
q47 0 63.5 -17t16.5 -75v-70q0 -58 -16.5 -75t-63.5 -17h-111v-88q0 -40 13 -66.5t31.5 -38.5t36.5 -21.5t31 -24.5t13 -38q0 -25 -18.5 -42t-55.5 -17q-18 0 -87 3t-134 3q-66 0 -145 -3t-99 -3zM266 584h391v612z" />
    <glyph glyph-name="five" unicode="5" horiz-adv-x="1216" 
d="M565 -35q-164 0 -289 62.5t-186 142.5q-47 59 -47 106q0 33 22 54.5t52 21.5q5 0 9.5 -0.5t8.5 -1.5t9 -3t8 -3.5t8 -5t7.5 -5t8.5 -6.5t7.5 -6.5t8.5 -7.5t9 -8q115 -115 286 -115q124 0 199.5 65.5t75.5 178.5t-79 182.5t-206 69.5q-60 0 -114 -15t-93 -29.5t-61 -14.5
q-31 0 -53.5 24.5t-14.5 67.5l113 670q7 40 30 56.5t68 16.5h568q31 0 52 9t46 32q23 21 36.5 29t32.5 8q24 0 40 -16t16 -43q0 -37 -45 -140l-39 -84q-35 -75 -111 -75h-563l-47 -269q125 41 258 41q164 0 288 -63t188.5 -170.5t64.5 -241.5q0 -222 -162 -368t-410 -146z
" />
    <glyph glyph-name="six" unicode="6" horiz-adv-x="1265" 
d="M657 137q99 0 156 90.5t57 245.5q0 158 -59 239t-166 81q-97 0 -160 -70t-63 -221q0 -95 25.5 -176.5t80 -135t129.5 -53.5zM78 690q0 136 24.5 257t74.5 220.5t121.5 171.5t170 112t215.5 40q184 0 315 -84q86 -51 86 -115q0 -34 -20.5 -54.5t-52.5 -20.5q-26 0 -76 26
q-95 51 -191 51q-144 0 -221.5 -110t-89.5 -316q131 121 314 121q197 0 328.5 -131.5t131.5 -353.5q0 -240 -156.5 -387.5t-398.5 -147.5q-275 0 -425 189t-150 532z" />
    <glyph glyph-name="seven" unicode="7" horiz-adv-x="1077" 
d="M328 -2q-107 3 -107 76q0 21 11 48t21.5 44.5t36 55t34.5 52.5q106 181 171 294.5t159 290t165 329.5h-401q-76 0 -125.5 -33t-136.5 -131q-26 -29 -43.5 -41t-40.5 -12q-25 0 -42.5 17.5t-17.5 49.5q0 39 47 148l86 217q23 57 46 80.5t57 23.5q24 0 63.5 -24.5
t85.5 -24.5h379q27 0 98.5 3t83.5 3q59 0 82 -26t23 -60q0 -35 -37 -133q-238 -649 -446 -1157q-39 -90 -136 -90h-116z" />
    <glyph glyph-name="eight" unicode="8" horiz-adv-x="1294" 
d="M645 -33q-250 0 -413.5 118t-163.5 298q0 246 270 362q-201 129 -201 334q0 175 137 294.5t371 119.5q224 0 358 -98.5t134 -249.5q0 -100 -59 -180t-160 -125q155 -82 233 -182t78 -248q0 -199 -162.5 -321t-421.5 -122zM352 414q0 -122 81.5 -200.5t211.5 -78.5
q112 0 190 57t78 156q0 28 -7 53.5t-23.5 48t-32.5 40.5t-46 36.5t-51 31t-61 30t-62.5 27t-68.5 27t-67 26.5q-69 -42 -105.5 -108.5t-36.5 -145.5zM451 1163q0 -45 20 -80t63 -63.5t82.5 -47t106.5 -45.5q23 -9 35 -14q56 36 85 89.5t29 113.5q0 94 -61 155.5t-162 61.5
q-89 0 -143.5 -48.5t-54.5 -121.5z" />
    <glyph glyph-name="nine" unicode="9" horiz-adv-x="1284" 
d="M627 1323q-101 0 -160 -89.5t-59 -236.5q0 -166 59.5 -247.5t163.5 -81.5q100 0 163.5 69.5t63.5 214.5q0 100 -26 183t-79.5 135.5t-125.5 52.5zM72 971q0 222 153.5 371t399.5 149q271 0 425 -190t154 -558q0 -124 -21 -235t-69.5 -211t-121.5 -172.5t-183 -115
t-248 -42.5q-105 0 -199.5 27t-162.5 72q-42 29 -63 55t-21 61t20 59.5t53 24.5q27 0 78 -28q130 -72 244 -72q336 0 358 444q-130 -141 -333 -141q-94 0 -176.5 32t-147 92.5t-102 158t-37.5 219.5z" />
    <glyph glyph-name="colon" unicode=":" horiz-adv-x="577" 
d="M303 944q-90 0 -147.5 -49.5t-57.5 -120.5t47 -112t129 -41q90 0 148.5 50.5t58.5 121.5q0 70 -49 110.5t-129 40.5zM98 135q0 -71 47 -112t129 -41q91 0 149 50t58 122q0 70 -49 110.5t-129 40.5q-90 0 -147.5 -49.5t-57.5 -120.5z" />
    <glyph glyph-name="semicolon" unicode=";" horiz-adv-x="595" 
d="M195 -297q-26 0 -42 14t-16 37q0 15 8 27.5t15 18.5t26 20q84 70 84 123q0 11 -3.5 19t-14 16t-15.5 11t-23 11.5t-21 9.5q-45 22 -69 49t-24 80q0 71 60 120.5t147 49.5q193 0 193 -196q0 -73 -32.5 -150t-79 -132.5t-99.5 -91.5t-94 -36zM98 772q0 -70 48 -112t128 -42
q91 0 150 50.5t59 122.5q0 70 -49.5 110.5t-130.5 40.5q-89 0 -147 -50t-58 -120z" />
    <glyph glyph-name="less" unicode="&#x3c;" horiz-adv-x="1046" 
d="M901 168q-27 0 -63 18l-676 314q-46 22 -64 49.5t-18 79.5t18 79.5t64 49.5l676 313q42 21 63 21q47 0 47 -74q0 -69 -17.5 -102t-68.5 -54l-522 -219q-12 -6 -12 -14q0 -9 12 -15l522 -219q52 -21 69 -54t17 -101q0 -72 -47 -72z" />
    <glyph glyph-name="equal" unicode="=" horiz-adv-x="1224" 
d="M176 737q-34 0 -48.5 25t-14.5 76t14.5 75.5t48.5 24.5h873q34 0 48.5 -24.5t14.5 -75.5t-14.5 -76t-48.5 -25h-873zM113 424q0 100 63 100h873q63 0 63 -100q0 -52 -14.5 -77t-48.5 -25h-873q-34 0 -48.5 25t-14.5 77z" />
    <glyph glyph-name="greater" unicode="&#x3e;" horiz-adv-x="1046" 
d="M145 168q-47 0 -47 72q0 68 17 101t69 54l523 219q12 6 12 15q0 8 -12 14l-523 219q-51 21 -68.5 54t-17.5 102q0 74 47 74q22 0 64 -21l676 -313q46 -22 64 -49.5t18 -79.5t-18 -79.5t-64 -49.5l-676 -314q-36 -18 -64 -18z" />
    <glyph glyph-name="question" unicode="?" horiz-adv-x="1159" 
d="M520 397q-58 0 -76 49q-43 114 -43 256q0 83 42.5 143t152.5 150q13 10 40 32t37 30.5l30 25.5t28 26t20 24t16.5 26t8.5 25t4 28q0 53 -41 85t-108 32q-99 0 -168.5 -74t-100.5 -180q-23 -63 -77 -63q-37 0 -80 28q-144 94 -144 197q0 41 40 86t106.5 83t164.5 62.5
t203 24.5q137 0 249 -37t183.5 -117t71.5 -192q0 -52 -15 -99.5t-37 -82.5t-60 -72.5t-70 -62.5t-82 -60q-12 -9 -36 -28t-33.5 -26.5t-27.5 -22t-26 -22t-20.5 -19.5t-19 -20t-13.5 -18t-12 -20q-10 -23 -16 -48.5t-11 -57.5t-8 -46q-12 -45 -72 -45zM356 121
q0 -64 44.5 -101.5t119.5 -37.5q83 0 137 45.5t54 109.5t-45.5 101.5t-118.5 37.5q-83 0 -137 -45.5t-54 -109.5z" />
    <glyph glyph-name="at" unicode="@" horiz-adv-x="2131" 
d="M961 -383q-262 0 -466.5 90.5t-320 259t-115.5 389.5q0 208 84.5 388.5t231 307.5t350.5 199t436 72q263 0 469 -93t322 -264.5t116 -392.5q0 -137 -45 -255t-119 -197t-170 -123.5t-198 -44.5q-229 0 -268 215q-63 -84 -157.5 -135t-205.5 -51q-151 0 -252.5 110
t-101.5 293q0 156 65.5 283t183.5 199.5t265 72.5q71 0 133.5 -20t103.5 -40t62 -20q28 0 82 31t76 31q29 0 42.5 -19.5t8.5 -52.5l-57 -520q-2 -19 -4.5 -43.5t-4.5 -41.5t-2 -26q0 -41 18 -66.5t56 -25.5q96 0 166 121.5t70 304.5q0 285 -187.5 451.5t-497.5 166.5
q-163 0 -308.5 -57t-253 -158.5t-170 -251t-62.5 -325.5q0 -271 187 -435.5t505 -164.5q109 0 197 15t137.5 30.5t64.5 15.5q21 0 38.5 -13t17.5 -38q0 -31 -24 -54t-81 -48q-65 -28 -180.5 -49t-236.5 -21zM852 465q0 -131 58.5 -209t144.5 -78q80 0 140.5 69t72.5 181
q1 17 4 43.5t4.5 44t1.5 29.5q0 103 -57.5 179.5t-145.5 76.5q-72 0 -124.5 -52t-75.5 -126.5t-23 -157.5z" />
    <glyph glyph-name="A" unicode="A" horiz-adv-x="1550" 
d="M41 -4q-29 0 -46.5 14.5t-17.5 36.5q0 29 19.5 48t45.5 29t56.5 39t48.5 75l316 815q40 99 104 288q29 87 66 110.5t145 23.5q73 0 108.5 -11t54.5 -37t40 -88q59 -170 106 -286l316 -811q18 -46 47.5 -76t54 -41t42.5 -30t18 -48q0 -22 -16.5 -36.5t-43.5 -14.5
q-20 0 -95 3t-140 3q-64 0 -152.5 -3t-113.5 -3q-89 0 -89 59q0 27 22 44.5t48 24.5t48 25.5t22 47.5q0 30 -19 82l-57 147q-11 32 -26 44.5t-48 12.5h-422q-33 0 -46.5 -12t-26.5 -45l-58 -143q-22 -61 -22 -82q0 -31 22.5 -50t49 -26.5t49 -25t22.5 -44.5q0 -59 -88 -59
q-31 0 -92 3t-92 3t-83 -3t-77 -3zM508 686q-16 -45 31 -45h311q47 0 31 45l-187 485z" />
    <glyph glyph-name="B" unicode="B" horiz-adv-x="1531" 
d="M154 -4q-76 0 -76 59q0 23 13 38t31 24.5t36.5 21.5t31.5 37.5t13 65.5v975q0 40 -13 65.5t-31.5 37.5t-36.5 21t-31 24t-13 38q0 59 76 59q14 0 84 -3t135 -3q57 0 195 7t227 7q262 0 414.5 -100t152.5 -278q0 -99 -51.5 -177.5t-159.5 -123.5q149 -43 235.5 -138.5
t86.5 -232.5q0 -206 -156.5 -316t-456.5 -110q-96 0 -268.5 4t-218.5 4q-65 0 -135 -3t-84 -3zM543 285q0 -83 35.5 -107t142.5 -24h57q148 0 235 69.5t87 192.5q0 134 -93 209t-266 75h-135q-35 0 -49 -13.5t-14 -47.5v-354zM543 903q0 -29 13.5 -41t53.5 -12h133
q119 0 186.5 55t67.5 164q0 113 -73.5 177.5t-204.5 64.5h-29q-78 0 -112.5 -22t-34.5 -77v-309z" />
    <glyph glyph-name="C" unicode="C" horiz-adv-x="1460" 
d="M778 -33q-143 0 -271 50t-226 141.5t-155.5 232.5t-57.5 311q0 135 36.5 258.5t102 219t152 166t190.5 108t213 37.5q83 0 190.5 -24.5t120.5 -24.5q27 0 56 28.5t53 28.5q33 0 54 -27t42 -83l74 -197q4 -10 13 -32t12 -30t9.5 -24t8.5 -24t5 -19t4 -19.5t1 -17.5
q0 -32 -20 -51t-46 -19q-22 0 -39.5 13t-39.5 41q-63 82 -109 133.5t-98.5 96.5t-105 65t-111.5 20q-173 0 -288.5 -157.5t-115.5 -401.5q0 -257 128.5 -413t334.5 -156q117 0 212.5 53.5t162.5 144.5q13 17 20.5 25.5t24.5 18.5t35 10q29 0 47 -20t18 -50q0 -35 -31 -92
q-70 -134 -238 -227t-368 -93z" />
    <glyph glyph-name="D" unicode="D" horiz-adv-x="1648" 
d="M795 -6q-71 0 -212 4t-210 4q-65 0 -135 -3t-84 -3q-39 0 -58.5 16.5t-19.5 42.5q0 28 20 45.5t43.5 26.5t43.5 38t20 77v975q0 40 -13 65.5t-31.5 37.5t-37.5 21t-32 24t-13 38q0 26 19.5 42.5t58.5 16.5q14 0 84 -3t135 -3q59 0 177 7t177 7q180 0 337 -53
t272.5 -149.5t182 -240t66.5 -314.5q0 -157 -55.5 -289.5t-157 -227.5t-250 -148.5t-327.5 -53.5zM543 252q0 -53 30 -74.5t107 -21.5h59q229 0 350 145.5t121 421.5q0 274 -133 430t-358 156h-39q-78 0 -107.5 -22.5t-29.5 -74.5v-960z" />
    <glyph glyph-name="E" unicode="E" horiz-adv-x="1454" 
d="M1182 -49q-25 0 -66 24.5t-88 24.5h-655q-65 0 -135 -3t-84 -3q-76 0 -76 59q0 23 13 38t31 24.5t36.5 21.5t31.5 37.5t13 65.5v979q0 40 -13 65.5t-31.5 37.5t-36.5 21t-31 24t-13 38q0 59 76 59q12 0 82 -3t137 -3h575q45 0 84 24.5t62 24.5q34 0 58 -23.5t50 -80.5
l84 -182q31 -66 42 -95.5t11 -58.5q0 -31 -17.5 -48.5t-41.5 -17.5q-22 0 -39 12t-45 42q-39 41 -52 55t-45.5 46.5t-47 44t-43 33.5t-48 29.5t-47 18.5t-55 14.5t-59.5 3.5h-129q-76 0 -101.5 -21t-25.5 -75v-332q0 -30 12.5 -41.5t48.5 -11.5h119q41 0 71.5 23.5
t45.5 51.5t37 51.5t49 23.5q61 0 61 -80q0 -23 -3 -73t-3 -75q0 -26 3 -76t3 -73q0 -80 -61 -80q-27 0 -49 23.5t-37 51.5t-45.5 51.5t-71.5 23.5h-119q-36 0 -48.5 -11.5t-12.5 -40.5v-354q0 -55 26 -76.5t101 -21.5h200q64 0 117.5 16t106 55t92.5 78.5t104 110.5
q25 30 43 42.5t41 12.5t41.5 -18t18.5 -47q0 -20 -7 -44t-15.5 -43.5t-33.5 -72.5l-94 -201q-24 -51 -47 -73.5t-55 -22.5z" />
    <glyph glyph-name="F" unicode="F" horiz-adv-x="1333" 
d="M152 -6q-37 0 -55.5 17t-18.5 42q0 23 13 38t31 25t36.5 22t31.5 38t13 66v977q0 40 -13 65.5t-31.5 37.5t-36.5 21t-31 24t-13 38q0 59 76 59q14 0 84 -3t135 -3h569q46 0 84 24.5t61 24.5q34 0 58.5 -23.5t52.5 -80.5l82 -182q31 -66 42 -95.5t11 -58.5
q0 -31 -17 -48.5t-42 -17.5q-15 0 -29.5 8t-23.5 16t-31 30q-53 57 -80.5 85t-70 65.5t-73.5 53.5t-73 28.5t-88 12.5h-135q-76 0 -101.5 -21t-25.5 -75v-356q0 -29 12.5 -40t48.5 -11h178q41 0 71 24t45 53.5t37 53.5t48 24q64 0 64 -80q0 -24 -3.5 -76.5t-3.5 -78.5
t3.5 -80.5t3.5 -77.5q0 -80 -64 -80q-26 0 -48 25t-37 55t-45 55t-71 25h-178q-36 0 -48.5 -12t-12.5 -41v-344q0 -40 16 -66t38.5 -38t44.5 -22t38 -25t16 -38q0 -25 -18.5 -42t-54.5 -17q-20 0 -98 3t-148 3q-67 0 -137.5 -3t-87.5 -3z" />
    <glyph glyph-name="G" unicode="G" horiz-adv-x="1587" 
d="M881 -33q-177 0 -325.5 48t-257.5 138.5t-170.5 229.5t-61.5 313q0 172 60 323.5t157.5 253t223 160t255.5 58.5q105 0 219 -24.5t125 -24.5q22 0 52 28.5t54 28.5q60 0 99 -110l69 -197q9 -26 21.5 -58.5t18 -47.5t10 -32t4.5 -30q0 -32 -20 -51t-48 -19q-22 0 -38.5 12
t-41.5 42q-49 64 -80.5 102t-77.5 84.5t-85.5 71t-90.5 42t-106 17.5q-96 0 -174.5 -50t-128 -134.5t-76.5 -192t-27 -225.5q0 -117 28.5 -219t86.5 -184t155 -129.5t224 -47.5q77 0 117.5 23.5t40.5 58.5v260q0 39 -14 64.5t-33.5 37.5t-39 21.5t-33.5 24.5t-14 39
q0 25 19.5 42t58.5 17h437q39 0 58 -17t19 -42q0 -20 -9.5 -34t-23.5 -21.5t-30.5 -17.5t-30.5 -21.5t-23.5 -35.5t-9.5 -57v-219q0 -33 8.5 -56.5t19.5 -33t19.5 -24t8.5 -31.5q0 -25 -15.5 -40.5t-52.5 -29.5q-249 -84 -530 -84z" />
    <glyph glyph-name="H" unicode="H" horiz-adv-x="1703" 
d="M1110 -4q-37 0 -55.5 17t-18.5 42q0 23 13 38t31 24.5t36.5 21.5t31.5 37.5t13 65.5v368q0 29 -12.5 40.5t-48.5 11.5h-496q-36 0 -48.5 -11.5t-12.5 -40.5v-368q0 -48 20 -77t43.5 -38t43.5 -26.5t20 -45.5q0 -25 -19 -42t-55 -17q-19 0 -88.5 3t-134.5 3t-134 -3
t-87 -3q-37 0 -55.5 17t-18.5 42q0 23 13 38t31 24.5t36.5 21.5t31.5 37.5t13 65.5v975q0 40 -13 65.5t-31.5 37.5t-36.5 21.5t-31 24.5t-13 39q0 25 21 41t59 16q18 0 84 -3t131 -3t134.5 3t88.5 3q36 0 55 -16t19 -41q0 -24 -13 -39t-32 -24.5t-37.5 -21.5t-31.5 -37.5
t-13 -65.5v-345q0 -30 12.5 -41.5t48.5 -11.5h496q36 0 48.5 11.5t12.5 41.5v345q0 40 -13 65.5t-31.5 37.5t-36.5 21.5t-31 24.5t-13 39q0 25 18 41t56 16q18 0 87 -3t134 -3t135 3t88 3q36 0 55 -16t19 -41q0 -24 -13 -39t-32 -24.5t-37.5 -21.5t-31.5 -37.5t-13 -65.5
v-975q0 -48 20 -77t43.5 -38t43.5 -26.5t20 -45.5q0 -25 -19 -42t-55 -17q-18 0 -88 3t-135 3t-134 -3t-87 -3z" />
    <glyph glyph-name="I" unicode="I" horiz-adv-x="745" 
d="M152 -4q-37 0 -55.5 17t-18.5 42q0 23 13 38t31 24.5t36.5 21.5t31.5 37.5t13 65.5v975q0 40 -13 65.5t-31.5 37.5t-36.5 21.5t-31 24.5t-13 39q0 25 21 41t59 16q18 0 84 -3t131 -3t134.5 3t88.5 3q36 0 55 -16t19 -41q0 -24 -13 -39t-32 -24.5t-37.5 -21.5t-31.5 -37.5
t-13 -65.5v-975q0 -48 20 -77t43.5 -38t43.5 -26.5t20 -45.5q0 -25 -19 -42t-55 -17q-19 0 -88.5 3t-134.5 3t-134 -3t-87 -3z" />
    <glyph glyph-name="J" unicode="J" horiz-adv-x="1112" 
d="M469 -31q-116 0 -222.5 29.5t-171.5 79.5t-65 106q0 53 74 265q30 86 82 83q55 0 67 -69q31 -177 74 -252.5t131 -75.5q76 0 117 59.5t41 155.5l-2 867q0 40 -14.5 65.5t-36 37t-42.5 21t-35.5 25t-14.5 39.5q0 25 19.5 41t57.5 16q19 0 92 -3t142 -3q66 0 136 3t87 3
q38 0 56 -16t18 -41q0 -24 -13 -39t-31.5 -24.5t-36.5 -21.5t-31 -37.5t-13 -65.5v-865q0 -183 -119 -283t-346 -100z" />
    <glyph glyph-name="K" unicode="K" horiz-adv-x="1574" 
d="M152 -4q-37 0 -55.5 17t-18.5 42q0 23 13 38t31 24.5t36.5 21.5t31.5 37.5t13 65.5v975q0 40 -13 65.5t-31.5 37.5t-36.5 21.5t-31 24.5t-13 39q0 25 21 41t59 16q18 0 84 -3t131 -3t134.5 3t88.5 3q36 0 55 -16t19 -41q0 -24 -13 -39t-32 -24.5t-37.5 -21.5t-31.5 -37.5
t-13 -65.5v-443l465 445l10 10l9 9l7.5 7.5t7 7.5t5 7t4.5 7t3.5 6.5t3 8t1 7.5t0.5 9q0 16 -15 27t-33 17.5t-33 21.5t-15 39q0 29 24 44t66 15q31 0 103 -3t101 -3q31 0 112 3t106 3q28 0 44.5 -14.5t16.5 -40.5q0 -30 -24.5 -48.5t-58 -26.5t-80.5 -28.5t-79 -50.5
l-321 -299l461 -733q18 -30 42.5 -52t44 -33t37 -21.5t27.5 -25.5t10 -38q0 -24 -17.5 -39.5t-51.5 -15.5q-14 0 -98 3t-150 3q-63 0 -137 -3t-99 -3q-44 0 -65 16.5t-21 42.5t16 42.5t34.5 23.5t34.5 23.5t16 43.5t-29 80l-293 465l-192 -178v-313q0 -48 20 -77t43.5 -38
t43.5 -26.5t20 -45.5q0 -25 -19 -42t-55 -17q-19 0 -88.5 3t-134.5 3t-134 -3t-87 -3z" />
    <glyph glyph-name="L" unicode="L" horiz-adv-x="1341" 
d="M1090 -49q-25 0 -65.5 24.5t-88.5 24.5h-563q-65 0 -135 -3t-84 -3q-76 0 -76 59q0 23 13 38t31 24.5t36.5 21.5t31.5 37.5t13 65.5v977q0 40 -13 65.5t-31.5 37.5t-36.5 21.5t-31 24.5t-13 39q0 25 21 41t59 16q18 0 84 -3t131 -3t134.5 3t88.5 3q36 0 55 -16t19 -41
q0 -24 -13 -39t-32 -24.5t-37.5 -21.5t-31.5 -37.5t-13 -65.5v-971q0 -46 21.5 -67t70.5 -21h151q55 0 105.5 17.5t103.5 57.5t96 82t109 113q21 23 30.5 32t24.5 17t31 8q24 0 43 -18.5t19 -48.5t-12 -62t-46 -102l-94 -205q-25 -53 -49 -75.5t-57 -22.5z" />
    <glyph glyph-name="M" unicode="M" horiz-adv-x="2054" 
d="M88 -4q-37 0 -57.5 15.5t-20.5 43.5q0 27 23 46t51.5 29.5t56 38t35.5 69.5l148 827q12 76 12 143q0 37 -12.5 63t-30 39.5t-35.5 25.5t-30.5 29t-12.5 40q0 57 88 57q15 0 95 -3t132 -3q53 0 121 3t92 3q35 0 54.5 -16.5t19.5 -42.5q0 -25 -15.5 -44t-34.5 -29
t-34.5 -30t-15.5 -47q0 -18 10 -47.5t20.5 -52.5t34.5 -72l267 -544l241 544q51 115 51 166q0 31 -17 52.5t-37 30.5t-37 27t-17 44q0 28 20.5 44.5t55.5 16.5q22 0 96 -3t135 -3q49 0 115 3t86 3q37 0 56.5 -16t19.5 -41q0 -28 -17.5 -47t-38 -29t-38 -32.5t-17.5 -55.5
q0 -41 27 -176l155 -832q7 -33 26 -56.5t40.5 -35t42.5 -22t35 -26.5t14 -40q0 -25 -21.5 -41t-58.5 -16q-14 0 -86 3t-135 3q-58 0 -140 -3t-108 -3q-88 0 -88 59q0 27 21 44.5t46.5 25t46.5 26.5t21 48q0 18 -8 80l-117 649l-340 -756q-32 -66 -96 -66q-63 0 -98 66
l-389 768l-113 -661q-8 -62 -8 -80q0 -29 21 -47.5t46.5 -26t46.5 -25.5t21 -45q0 -29 -22.5 -44t-61.5 -15q-28 0 -88 3t-90 3q-31 0 -85 -3t-75 -3z" />
    <glyph glyph-name="N" unicode="N" horiz-adv-x="1601" 
d="M1331 -18q-39 0 -65.5 17.5t-57.5 53.5l-811 994v-805q0 -38 17 -62.5t41.5 -35t49 -19.5t41.5 -26t17 -44q0 -28 -21.5 -43.5t-60.5 -15.5q-29 0 -87.5 3t-84.5 3q-24 0 -79.5 -3t-82.5 -3q-36 0 -55.5 17t-19.5 42q0 23 14 38t33.5 24.5t39.5 21.5t34 37.5t14 65.5v975
q0 40 -14 65.5t-33.5 37.5t-39.5 21t-34 24t-14 38q0 27 22 43t62 16q22 0 69 -2t72 -2q28 0 68.5 2t58.5 2q62 0 111 -57l688 -850v662q0 39 -17 63.5t-41 35.5t-48 20t-41 25.5t-17 43.5q0 24 22.5 40.5t59.5 16.5q28 0 84.5 -3t87.5 -3q27 0 81 3t79 3q38 0 56.5 -16
t18.5 -41q0 -24 -13.5 -39t-33 -24.5t-39.5 -21.5t-33.5 -37.5t-13.5 -65.5v-1149q0 -42 -24.5 -64t-59.5 -22z" />
    <glyph glyph-name="O" unicode="O" horiz-adv-x="1693" 
d="M846 -35q-165 0 -307.5 50t-248.5 142.5t-166.5 232.5t-60.5 310t61 318.5t166 252t249.5 163t306.5 59.5q222 0 401 -99.5t281 -278t102 -402.5q0 -225 -99.5 -395.5t-277 -261.5t-407.5 -91zM438 721q0 -115 27 -219.5t77.5 -186t129.5 -130t176 -48.5q98 0 177 47.5
t128.5 128.5t75.5 186t26 224q0 116 -26.5 222.5t-76 192t-128.5 136.5t-176 51q-128 0 -223 -86.5t-141 -222t-46 -295.5z" />
    <glyph glyph-name="P" unicode="P" horiz-adv-x="1435" 
d="M152 -4q-37 0 -55.5 17t-18.5 42q0 23 13 38t31 24.5t36.5 21.5t31.5 37.5t13 65.5v977q0 40 -13 65.5t-31.5 37.5t-36.5 21t-31 24t-13 38q0 25 21 42t59 17q18 0 83 -3t128 -3q41 0 158.5 7.5t181.5 7.5q341 0 519.5 -138.5t178.5 -382.5q0 -107 -36 -193
t-114.5 -154.5t-215 -106t-324.5 -37.5q-33 0 -82 1q-64 2 -78 -3.5t-14 -34.5v-180q0 -40 16.5 -65t39.5 -36t46.5 -20.5t40 -25.5t16.5 -42q0 -25 -18.5 -42t-54.5 -17q-20 0 -102.5 3t-153.5 3q-65 0 -134 -3t-87 -3zM543 705q0 -46 34.5 -64t108.5 -18q348 0 348 333
q0 172 -90.5 262.5t-251.5 90.5q-43 0 -73 -7.5t-44.5 -16t-22 -24.5t-8.5 -25t-1 -24v-507z" />
    <glyph glyph-name="Q" unicode="Q" horiz-adv-x="1722" 
d="M1358 -285q-110 0 -193.5 76.5t-122.5 192.5q-97 -19 -196 -19q-165 0 -307.5 50t-248.5 142.5t-166.5 232.5t-60.5 310t61 318.5t166 252t249.5 163t306.5 59.5q222 0 401 -99.5t281 -278t102 -402.5q0 -219 -95 -386t-265 -261q55 -99 125 -99q30 0 64.5 23.5t66 47
t53.5 23.5q25 0 40 -16.5t15 -42.5q0 -29 -26 -73.5t-82 -118.5q-39 -52 -77.5 -73.5t-90.5 -21.5zM438 721q0 -115 27 -219.5t77.5 -186t129.5 -130t176 -48.5q84 0 156 29q-36 121 -80 176t-109 55q-31 0 -69.5 -19.5t-49.5 -19.5q-20 0 -32.5 13.5t-12.5 34.5
q0 44 64.5 89.5t148.5 45.5q190 0 293 -244q98 148 98 426q0 116 -26.5 222.5t-76 192t-128.5 136.5t-176 51q-128 0 -223 -86.5t-141 -222t-46 -295.5z" />
    <glyph glyph-name="R" unicode="R" horiz-adv-x="1568" 
d="M152 -4q-37 0 -55.5 17t-18.5 42q0 23 13 38t31 24.5t36.5 21.5t31.5 37.5t13 65.5v975q0 40 -13 65.5t-31.5 37.5t-36.5 21.5t-31 24.5t-13 39q0 25 20 41t64 16q12 0 79 -3t113 -3q37 0 164.5 7t192.5 7q350 0 532 -131t182 -356q0 -154 -83.5 -264t-233.5 -156
l213 -276q44 -56 93 -95.5t79 -54.5t50 -36t20 -52q0 -24 -17 -38.5t-47 -14.5q-19 0 -111 3t-155 3q-56 0 -137.5 -3t-102.5 -3q-86 0 -86 59q0 25 15.5 40t34 21t34 21.5t15.5 40.5q0 35 -56 103l-137 184q-25 32 -47 44.5t-53 12.5q-63 -3 -125 0q-24 0 -34.5 -11
t-10.5 -36v-233q0 -40 13.5 -65.5t32.5 -37.5t38.5 -21.5t33 -24.5t13.5 -38q0 -25 -19 -42t-55 -17q-19 0 -90.5 3t-136.5 3t-134 -3t-87 -3zM543 735q0 -42 33 -56.5t120 -14.5q176 0 266.5 72t90.5 243q0 164 -99 247t-262 83q-78 0 -113.5 -21.5t-35.5 -77.5v-475z" />
    <glyph glyph-name="S" unicode="S" horiz-adv-x="1411" 
d="M303 -45q-31 0 -50.5 23.5t-43.5 74.5l-88 189q-28 62 -39 86.5t-20 53t-9 48.5q0 32 17.5 51t42.5 19q17 0 34.5 -9.5t27 -18.5t26.5 -28q60 -63 113.5 -110t125.5 -94.5t155.5 -73t172.5 -25.5q137 0 211 56t74 149q0 26 -6.5 49t-15 41t-28.5 35.5t-34 29.5
t-46.5 26.5t-51.5 22.5t-62 22t-65 20.5t-74 21.5q-66 19 -113.5 34t-111 40.5t-108 51t-92 62.5t-76.5 78t-48 96t-19 118q0 171 131.5 284t327.5 113q73 0 137.5 -12.5t105 -24.5t56.5 -12q24 0 51.5 31.5t55.5 31.5q17 0 29.5 -4.5t25.5 -19.5t19.5 -24t24.5 -39.5
t26 -43.5l55 -94q88 -146 88 -197q0 -24 -15 -39.5t-36 -15.5q-16 0 -31.5 8t-26 17.5t-32.5 31.5q-234 238 -480 238q-94 0 -148 -40.5t-54 -111.5q0 -35 16.5 -63t36.5 -46.5t71.5 -39.5t87 -32.5t116.5 -35.5q13 -4 20 -6q76 -21 129 -38t121 -44t114.5 -54t94.5 -66.5
t77 -84.5t47.5 -105t18.5 -130q0 -212 -156.5 -335.5t-412.5 -123.5q-83 0 -163 15t-133.5 30t-72.5 15q-29 0 -62 -36t-59 -36z" />
    <glyph glyph-name="T" unicode="T" horiz-adv-x="1574" 
d="M532 -4q-36 0 -54.5 17t-18.5 42q0 26 16.5 42t39.5 25.5t46.5 20.5t40 36t16.5 65v962q0 50 -20.5 72t-67.5 22h-43q-86 0 -160 -55.5t-188 -185.5q-27 -30 -44 -42.5t-40 -12.5q-25 0 -42 18.5t-17 50.5q0 36 40 132q5 11 7 16l74 182q23 58 46 81t56 23q24 0 64 -24.5
t84 -24.5h841q44 0 84 24.5t64 24.5q33 0 56 -23t46 -81l74 -182q41 -98 45 -127q2 -10 2 -21q0 -32 -17 -50.5t-42 -18.5q-23 0 -40 12.5t-44 42.5q-113 129 -188 185t-161 56h-43q-47 0 -67.5 -22t-20.5 -72v-962q0 -40 16.5 -65t40 -36t47 -20.5t40 -25.5t16.5 -42
q0 -25 -19 -42t-55 -17q-23 0 -103.5 3t-150.5 3q-71 0 -153 -3t-103 -3z" />
    <glyph glyph-name="U" unicode="U" horiz-adv-x="1507" 
d="M756 -31q-136 0 -245.5 27t-195.5 84.5t-133 155t-47 229.5q0 67 6 137l47 547q7 54 7 88q0 24 -5 41t-19 29.5t-20 16.5t-26 15q-28 13 -41.5 26t-13.5 40q0 25 18 41t55 16q17 0 87 -3t135 -3t141 3t94 3q38 0 56 -16t18 -41q0 -28 -14 -42.5t-42 -27.5
q-19 -10 -28 -15.5t-23.5 -19.5t-22 -34.5t-9.5 -48.5l-52 -621q-6 -99 -6 -119q0 -149 89 -226t259 -79q77 0 139 16t111.5 50.5t77 94t27.5 140.5q0 26 -9 105l-55 639q-2 27 -10.5 46.5t-24.5 31.5t-28.5 18t-34.5 14q-19 8 -27.5 12.5t-20.5 13.5t-17 21.5t-5 30.5
q0 25 21 41t59 16q29 0 90 -3t86 -3q24 0 80.5 3t83.5 3q36 0 55 -16t19 -41q0 -18 -9 -31.5t-19 -19.5t-30 -15q-25 -12 -37.5 -20t-25 -29.5t-12.5 -52.5q0 -41 6 -88l49 -569q8 -106 8 -123q0 -104 -30.5 -186.5t-84.5 -138t-131.5 -92.5t-169 -53.5t-200.5 -17.5z" />
    <glyph glyph-name="V" unicode="V" horiz-adv-x="1607" 
d="M799 -23q-93 0 -130.5 21t-58.5 76l-448 1116q-17 43 -42.5 73.5t-48.5 46t-43.5 28.5t-33 29t-12.5 40t19.5 39.5t47.5 15.5q21 0 100.5 -3t145.5 -3q67 0 161.5 3t121.5 3q88 0 88 -59q0 -25 -15 -41.5t-36 -26.5l-42 -20t-36 -28t-15 -44q0 -31 33 -117l330 -831
l340 854q24 62 24 94q0 34 -25 55.5t-54.5 30t-54.5 27t-25 47.5q0 59 86 59q34 0 99 -3t99 -3q33 0 94 3t86 3q35 0 53.5 -14t18.5 -37q0 -25 -13 -41t-34 -28t-44.5 -26.5t-49.5 -45.5t-43 -76l-451 -1120q-23 -57 -59.5 -77t-132.5 -20z" />
    <glyph glyph-name="W" unicode="W" horiz-adv-x="2283" 
d="M1575 -23q-58 0 -92.5 11.5t-48.5 28t-27 49.5l-260 735l-262 -735q-15 -46 -51.5 -67.5t-120.5 -21.5q-58 0 -92.5 11.5t-48.5 28.5t-25 49l-412 1151q-13 38 -34.5 64t-42.5 39t-40 24.5t-31 27t-12 39.5q0 23 19.5 37t48.5 14q21 0 95.5 -3t140.5 -3q64 0 147.5 3
t108.5 3q81 0 81 -57q0 -27 -18.5 -44.5t-40.5 -25.5t-40.5 -27.5t-18.5 -50.5q0 -35 24 -106l277 -817l256 729l-56 154q-13 37 -34 63t-40.5 39t-38 24.5t-29.5 27.5t-11 40q0 23 19.5 37t47.5 14q20 0 91 -3t137 -3q64 0 149.5 3t110.5 3q80 0 80 -57q0 -27 -19.5 -44.5
t-43 -25.5t-43 -27.5t-19.5 -50.5q0 -36 24 -106l281 -815l256 799q29 88 29 122q0 31 -21 50.5t-47 27.5t-47 25.5t-21 44.5q0 57 82 57q31 0 94 -3t91 -3q32 0 87.5 3t78.5 3q30 0 47.5 -14t17.5 -37q0 -30 -19.5 -48.5t-45.5 -28.5t-55.5 -38.5t-45.5 -74.5l-395 -1155
q-16 -47 -52 -68t-120 -21z" />
    <glyph glyph-name="X" unicode="X" horiz-adv-x="1525" 
d="M928 -4q-80 0 -80 55q0 26 18.5 43t40 23.5t40 22t18.5 38.5q0 29 -52 103l-219 297l-245 -308q-48 -59 -48 -90q0 -25 20.5 -40.5t45 -21.5t45 -22t20.5 -43q0 -57 -79 -57q-19 0 -105 3t-117 3q-28 0 -94.5 -3t-85.5 -3q-31 0 -50 14.5t-19 40.5q0 28 20 46.5t50 32.5
t81.5 54t99.5 99l359 434l-369 504q-32 44 -70 74t-63 41t-42 28t-17 43t19.5 40.5t49.5 14.5q19 0 102 -3t148 -3q62 0 157.5 3t117.5 3q82 0 82 -55q0 -25 -17.5 -40.5t-38 -22t-38 -22t-17.5 -40.5q0 -27 49 -98l193 -262l206 266q46 60 46 88q0 25 -19 40.5t-41.5 22
t-41.5 23t-19 43.5q0 57 80 57q21 0 97 -3t107 -3q29 0 91.5 3t82.5 3q31 0 49.5 -13.5t18.5 -39.5q0 -27 -17 -45t-41.5 -28t-63 -37t-70.5 -66l-363 -449l397 -540q36 -48 77.5 -79t67.5 -41t44 -27t18 -44t-19 -42t-48 -15q-20 0 -108 3t-152 3t-165.5 -3t-123.5 -3z" />
    <glyph glyph-name="Y" unicode="Y" horiz-adv-x="1458" 
d="M471 -4q-36 0 -54 17t-18 42q0 26 16.5 42t39.5 25.5t46 20.5t39.5 36t16.5 65v303l-410 700q-19 33 -46.5 57t-47 34.5t-33.5 28t-14 42.5t16.5 39t45.5 14q19 0 94 -3t139 -3q59 0 143.5 3t108.5 3q86 0 86 -57q0 -27 -18 -43t-39.5 -22.5t-39.5 -23.5t-18 -46
q0 -30 39 -99l250 -444l258 438q37 67 37 99q0 30 -20.5 48.5t-45 25.5t-45 23.5t-20.5 43.5q0 57 82 57q29 0 88 -3t86 -3q26 0 84 3t86 3t43.5 -14t15.5 -37q0 -26 -15.5 -43.5t-37 -27.5t-50.5 -34.5t-50 -60.5l-412 -702v-299q0 -40 16.5 -65t39.5 -36t46 -20.5
t39.5 -25.5t16.5 -42q0 -25 -18 -42t-54 -17q-23 0 -104 3t-152 3t-153 -3t-103 -3z" />
    <glyph glyph-name="Z" unicode="Z" horiz-adv-x="1427" 
d="M1149 -49q-25 0 -65 24.5t-87 24.5h-682q-61 0 -128.5 -3t-82.5 -3q-37 0 -58 20.5t-21 44.5q0 29 18 56l848 1185h-270q-41 0 -76.5 -6.5t-70.5 -25t-60 -34t-63 -51.5t-59.5 -58.5t-68.5 -73.5q-19 -20 -29 -29.5t-24.5 -17t-30.5 -7.5q-23 0 -41 18.5t-18 47.5
q0 36 48 142q5 11 7 16l82 182q27 58 51 81t60 23q23 0 61 -24.5t84 -24.5h578q65 0 132 3t81 3q39 0 60.5 -19t21.5 -46q0 -28 -21 -58l-844 -1183h357q61 0 112 16.5t106 62t87.5 79t103.5 114.5q11 12 17 19q46 55 84 55q24 0 42.5 -18t18.5 -48q0 -32 -11.5 -64.5
t-51.5 -125.5l-93 -201q-24 -50 -46.5 -73t-57.5 -23z" />
    <glyph glyph-name="bracketleft" unicode="[" horiz-adv-x="778" 
d="M303 -172q-64 0 -103.5 39t-39.5 102v1432q0 63 39.5 102t103.5 39h348q105 0 105 -78q0 -82 -105 -82h-135q-47 0 -47 -41v-1312q0 -22 10.5 -32.5t36.5 -10.5h135q105 0 105 -80q0 -78 -105 -78h-348z" />
    <glyph glyph-name="backslash" unicode="\" horiz-adv-x="841" 
d="M696 -63q-57 0 -88 17t-49 64l-496 1334q-14 35 -14 57q0 32 23 44.5t75 12.5q57 0 87.5 -17t48.5 -65l495 -1333q17 -43 17 -57q0 -31 -24 -44t-75 -13z" />
    <glyph glyph-name="bracketright" unicode="]" horiz-adv-x="778" 
d="M127 -172q-104 0 -104 78q0 80 104 80h135q26 0 36.5 10.5t10.5 32.5v1312q0 41 -47 41h-135q-104 0 -104 82q0 78 104 78h348q64 0 103.5 -39t39.5 -102v-1432q0 -63 -39.5 -102t-103.5 -39h-348z" />
    <glyph glyph-name="asciicircum" unicode="^" horiz-adv-x="1034" 
d="M139 823q-36 0 -57 13t-21 36q0 20 23 58l305 463q32 50 57 66t70 16q46 0 71.5 -16t57.5 -66l303 -463q25 -36 25 -58q0 -23 -21 -36t-57 -13q-61 0 -103.5 20.5t-70.5 69.5l-189 324q-6 12 -16 12q-8 0 -14 -12l-189 -324q-28 -49 -70.5 -69.5t-103.5 -20.5z" />
    <glyph glyph-name="underscore" unicode="_" horiz-adv-x="929" 
d="M37 -299q-45 0 -62.5 16.5t-17.5 67.5v57q0 49 17.5 65.5t62.5 16.5h854q46 0 63 -16t17 -66l2 -57q1 -50 -17 -67t-65 -17h-854z" />
    <glyph glyph-name="grave" unicode="`" horiz-adv-x="872" 
d="M487 1169q-54 0 -100 41q-41 33 -113.5 100t-93.5 85q-44 43 -60 64t-16 44q0 29 25.5 40t101.5 11q61 0 89 -11.5t49 -41.5q92 -134 157 -241q19 -34 19 -54q0 -16 -15.5 -26.5t-42.5 -10.5z" />
    <glyph glyph-name="a" unicode="a" horiz-adv-x="1236" 
d="M1010 -16q-71 0 -130 36t-92 103q-66 -64 -163 -106t-215 -42q-167 0 -266 88t-99 228q0 145 114.5 239.5t315.5 94.5q122 0 234 -33l-4 24q-35 242 -220 242q-108 0 -231 -80q-54 -30 -78 -30q-20 0 -36.5 16t-16.5 41q0 45 65 102q65 65 168.5 104.5t227.5 39.5
q368 0 417 -355l48 -338q7 -50 19 -81.5t35.5 -51t50 -28.5t73.5 -19q39 -7 39 -41q0 -50 -72.5 -101.5t-183.5 -51.5zM362 326q0 -77 50.5 -124.5t128.5 -47.5q61 0 119.5 28t93.5 66l-29 215q-68 22 -152 22q-98 0 -154.5 -41t-56.5 -118z" />
    <glyph glyph-name="b" unicode="b" horiz-adv-x="1353" 
d="M741 -31q-76 0 -140 12.5t-97.5 27.5t-66 27.5t-52.5 12.5q-33 0 -97 -33.5t-89 -33.5q-66 0 -66 77v1131q0 36 -15.5 58t-37.5 30.5t-44.5 15.5t-38 21t-15.5 39q0 32 39.5 57.5t160.5 79.5q150 65 195 65q63 0 63 -90v-618q65 93 163.5 149t227.5 56
q204 0 334.5 -141.5t130.5 -383.5q0 -160 -74.5 -289t-201 -199.5t-279.5 -70.5zM440 467q0 -147 77.5 -244.5t203.5 -97.5q110 0 180 80.5t70 234.5q0 173 -81.5 285.5t-201.5 112.5q-104 0 -176 -81.5t-72 -211.5v-78z" />
    <glyph glyph-name="c" unicode="c" horiz-adv-x="1124" 
d="M606 -31q-239 0 -395 142.5t-156 382.5q0 125 47 231.5t125.5 177.5t181 110.5t214.5 39.5q89 0 171 -25t137 -63t87.5 -81t32.5 -79q0 -41 -33 -93.5t-100 -105.5q-42 -33 -66 -33q-55 0 -68 68q-27 121 -51 170q-52 109 -151 109q-94 0 -150.5 -83t-56.5 -221
q0 -190 105 -313t257 -123q140 0 264 115q27 27 52 27q19 0 32 -16t13 -36q0 -23 -17 -57q-21 -41 -61.5 -82t-99 -78.5t-141 -60.5t-173.5 -23z" />
    <glyph glyph-name="d" unicode="d" horiz-adv-x="1376" 
d="M522 -31q-199 0 -332 142.5t-133 382.5q0 244 156 402.5t389 158.5q178 0 297 -101v242q0 36 -16.5 57.5t-39.5 30t-46 15t-39.5 21.5t-16.5 42q0 31 42 57t169 78q147 59 191 59q63 0 63 -96v-1128q0 -43 22 -69.5t49 -35.5t49 -26t22 -45q0 -37 -41.5 -61t-165.5 -66
q-154 -52 -178 -52q-64 0 -64 101v92q-61 -91 -157 -146t-220 -55zM383 582q0 -176 85 -287t196 -111q98 0 166.5 79.5t68.5 207.5v68q0 153 -83 257.5t-195 104.5q-108 0 -173 -85.5t-65 -233.5z" />
    <glyph glyph-name="e" unicode="e" horiz-adv-x="1169" 
d="M606 -31q-240 0 -395.5 148t-155.5 387q0 161 79 288t207.5 194t279.5 67q105 0 195.5 -35.5t149 -92.5t91.5 -128.5t33 -145.5q0 -41 -12.5 -56.5t-43.5 -23.5l-610 -188q50 -95 134 -153t190 -58q136 0 264 100q45 35 69 35q21 0 35 -17.5t14 -33.5q0 -21 -20 -57
q-57 -87 -195 -158.5t-309 -71.5zM367 614q0 -51 8 -92l352 111q26 8 37.5 21t11.5 42q0 72 -57.5 135.5t-140.5 63.5q-93 0 -152 -76.5t-59 -204.5z" />
    <glyph glyph-name="f" unicode="f" horiz-adv-x="780" 
d="M162 -4q-36 0 -53 16.5t-17 40.5q0 22 12.5 36t30 23t34.5 21t29.5 39.5t12.5 69.5v628h-133q-24 0 -36 12.5t-17 39.5q-7 42 -7 59q0 43 52 43h123q-5 15 -19.5 51t-22.5 58t-15 59.5t-7 75.5q0 137 104 221t277 84q135 0 241.5 -53t106.5 -117q0 -60 -82 -176
q-34 -49 -74 -49q-48 0 -57 55q-9 46 -15 72.5t-16.5 56.5t-23 45.5t-31 26t-43.5 10.5q-51 0 -80.5 -38.5t-29.5 -100.5q0 -54 14 -100t40 -100t36 -81h239q49 0 49 -43q0 -23 -6 -59q-6 -52 -53 -52h-207v-628q0 -42 16 -68.5t39 -37.5t46 -19.5t39 -23.5t16 -40
q0 -23 -18 -40t-52 -17q-20 0 -95 3t-140 3q-60 0 -125.5 -3t-81.5 -3z" />
    <glyph glyph-name="g" unicode="g" horiz-adv-x="1245" 
d="M645 -397q-284 0 -446 70.5t-162 185.5q0 59 42 107t120 81q-113 58 -113 168q0 60 43 120.5t111 104.5q-168 82 -168 248q0 74 36.5 139.5t105 116t176 80t241.5 29.5q55 0 82 -2q11 140 89 234.5t150 94.5q79 0 189 -86q53 -43 53 -82q0 -26 -17 -43.5t-51 -17.5
q-60 -1 -102.5 -5.5t-85 -16.5t-68.5 -36t-34 -61q144 -34 222.5 -112t78.5 -187q0 -152 -146 -255t-411 -103q-109 0 -211 20q-45 -41 -45 -59q0 -48 131 -57q317 -27 471 -37q150 -13 242 -84.5t92 -198.5q0 -159 -167 -257.5t-448 -98.5zM283 -119q0 -149 364 -149
q154 0 237 36t83 87q0 81 -154 98q-68 9 -463 53q-67 -54 -67 -125zM375 721q0 -102 67.5 -158.5t167.5 -56.5q99 0 160 55.5t61 145.5q0 104 -67.5 159.5t-167.5 55.5q-99 0 -160 -55.5t-61 -145.5z" />
    <glyph glyph-name="h" unicode="h" horiz-adv-x="1337" 
d="M119 -4q-35 0 -52.5 16.5t-17.5 40.5q0 22 12.5 36t29.5 23t34.5 21t30 39.5t12.5 69.5v948q0 36 -14 58t-33.5 30.5t-39.5 15.5t-34 21t-14 39q0 32 38.5 57t157.5 80q149 65 187 65q59 0 59 -90v-620q51 89 139.5 146t202.5 57q77 0 137 -31t99.5 -87.5t64 -127
t35.5 -156.5l49 -381q7 -50 23.5 -83t35.5 -46.5t37 -23.5t29.5 -24t11.5 -38q0 -25 -19.5 -39t-53.5 -14q-20 0 -81.5 3t-121.5 3q-63 0 -125 -3t-82 -3q-76 0 -76 57q0 25 18.5 41t41 23.5t41 28t18.5 53.5q0 13 -6 67l-43 303q-32 244 -182 244q-78 0 -135.5 -66.5
t-57.5 -207.5v-299q0 -42 12.5 -69.5t30.5 -39.5t36.5 -21t31 -23t12.5 -36q0 -23 -18 -40t-52 -17q-16 0 -81.5 3t-124.5 3q-58 0 -121.5 -3t-81.5 -3z" />
    <glyph glyph-name="i" unicode="i" horiz-adv-x="665" 
d="M141 -4q-34 0 -51.5 16.5t-17.5 40.5q0 22 12.5 36t30.5 23t35.5 21t30 39.5t12.5 69.5v432q0 36 -14 58t-34 30.5t-40 15.5t-34 21t-14 39q0 32 39 57.5t158 79.5q149 65 182 65q64 0 64 -98v-700q0 -42 12.5 -69.5t30 -39.5t35.5 -21t30.5 -23t12.5 -36
q0 -23 -17.5 -40t-50.5 -17q-18 0 -83.5 3t-123.5 3t-122.5 -3t-82.5 -3zM123 1313q0 80 74 146.5t176 66.5q66 0 112.5 -38.5t46.5 -98.5q0 -77 -78 -141t-180 -64q-68 0 -109.5 35.5t-41.5 93.5z" />
    <glyph glyph-name="j" unicode="j" horiz-adv-x="612" 
d="M41 -397q-77 0 -108 29t-33 96q0 48 6 86.5t25.5 69t50.5 30.5t53 -43q32 -59 56 -86t50 -27q19 0 31 16t12 46q0 18 -5 76t-5 102v678q0 36 -14 57.5t-33.5 30t-39.5 15.5t-34 21.5t-14 39.5q0 31 41 57.5t156 77.5q148 67 182 67q63 0 63 -98v-913q0 -124 -64.5 -224
t-164 -152t-211.5 -52zM104 1313q0 80 74 146.5t176 66.5q67 0 113.5 -38.5t46.5 -98.5q0 -77 -78 -141t-180 -64q-68 0 -110 35.5t-42 93.5z" />
    <glyph glyph-name="k" unicode="k" horiz-adv-x="1318" 
d="M119 -4q-35 0 -52.5 16.5t-17.5 40.5q0 22 12.5 36t29.5 23t34.5 21t30 39.5t12.5 69.5v948q0 36 -14 58t-33.5 30.5t-39.5 15.5t-34 21t-14 39q0 32 38.5 57t157.5 80q149 65 187 65q59 0 59 -90v-927l299 264q21 19 28.5 26t14 18t6.5 23q0 16 -13.5 26.5t-30.5 15.5
t-30.5 20.5t-13.5 40.5q0 55 78 55q20 0 83 -3t91 -3q29 0 111 3t102 3q28 0 47 -14.5t19 -38.5q0 -28 -22 -46t-52.5 -26t-74 -27.5t-75.5 -46.5l-161 -135l319 -504q19 -30 46 -50.5t47 -28t35 -23t15 -39.5t-18.5 -38.5t-46.5 -14.5q-20 0 -92.5 3t-132.5 3
q-55 0 -121.5 -3t-87.5 -3q-78 0 -78 55q0 24 14 39t30 21t30 22t14 41q0 29 -33 82l-157 258l-189 -156v-116q0 -42 12.5 -69.5t30.5 -39.5t36.5 -21t31 -23t12.5 -36q0 -23 -18 -40t-52 -17q-16 0 -81.5 3t-124.5 3q-58 0 -121.5 -3t-81.5 -3z" />
    <glyph glyph-name="l" unicode="l" horiz-adv-x="645" 
d="M119 -4q-35 0 -52.5 16.5t-17.5 40.5q0 22 12.5 36t29.5 23t34.5 21t30 39.5t12.5 69.5v948q0 36 -14 58t-33.5 30.5t-39.5 15.5t-34 21t-14 39q0 32 38.5 57t157.5 80q149 65 183 65q63 0 63 -96v-1218q0 -42 12.5 -69.5t30.5 -39.5t36.5 -21t31 -23t12.5 -36
q0 -23 -18 -40t-52 -17q-16 0 -81.5 3t-124.5 3q-58 0 -121.5 -3t-81.5 -3z" />
    <glyph glyph-name="m" unicode="m" horiz-adv-x="1996" 
d="M1518 -2q-37 0 -57.5 15.5t-20.5 41.5q0 21 12.5 34.5t30 22.5t35.5 19t30.5 30.5t12.5 51.5q0 18 -9 92l-39 270q-3 28 -6.5 47t-11 51t-19 53.5t-28.5 43.5t-42.5 33.5t-57.5 11.5q-77 0 -128 -64t-51 -202v-307q0 -42 13.5 -69.5t32.5 -39.5t38.5 -21t33 -23t13.5 -36
t-18 -39.5t-51 -17.5q-18 0 -85.5 3t-129.5 3q-56 0 -120.5 -3t-82.5 -3q-33 0 -51.5 17t-18.5 40q0 22 12.5 36t29.5 23t34.5 21t30 39.5t12.5 69.5v333q0 240 -164 240q-80 0 -139 -65.5t-59 -206.5v-301q0 -42 12.5 -69.5t30 -39.5t35.5 -21t30.5 -23t12.5 -36
q0 -23 -17.5 -40t-50.5 -17q-18 0 -83.5 3t-123.5 3t-122.5 -3t-82.5 -3q-34 0 -51.5 16.5t-17.5 40.5q0 22 12.5 36t30.5 23t35.5 21t30 39.5t12.5 69.5v432q0 36 -14 58t-34 30.5t-40 15.5t-34 21t-14 39q0 32 38.5 57.5t156.5 79.5q146 65 184 65q64 0 64 -98v-96
q51 88 141 145.5t205 57.5q106 0 180 -55.5t111 -151.5q47 92 130.5 149.5t200.5 57.5q287 0 344 -402l52 -381q7 -50 24.5 -83t37 -46.5t37.5 -23.5t30 -24t12 -38t-21 -38.5t-55 -14.5q-21 0 -83.5 3t-121.5 3q-62 0 -124 -3t-82 -3z" />
    <glyph glyph-name="n" unicode="n" horiz-adv-x="1361" 
d="M881 -4q-38 0 -58 16t-20 41q0 21 12.5 34.5t29.5 22.5t34.5 19t30 30.5t12.5 51.5q0 19 -11 94l-37 266q-17 115 -59.5 179.5t-124.5 64.5q-77 0 -133.5 -66.5t-56.5 -207.5v-299q0 -42 12.5 -69.5t30 -39.5t35.5 -21t30.5 -23t12.5 -36q0 -23 -17.5 -40t-50.5 -17
q-18 0 -83.5 3t-123.5 3t-122.5 -3t-82.5 -3q-34 0 -51.5 16.5t-17.5 40.5q0 22 12.5 36t30.5 23t35.5 21t30 39.5t12.5 69.5v432q0 36 -14 58t-34 30.5t-40 15.5t-34 21t-14 39q0 32 39 57.5t158 79.5q149 65 182 65q64 0 64 -98v-96q51 89 139 146t201 57q77 0 137 -31
t99.5 -87.5t64 -127t35.5 -156.5l51 -383q6 -50 22.5 -83t35 -46.5t36.5 -23.5t29.5 -24t11.5 -38q0 -25 -20 -39t-54 -14q-20 0 -81.5 3t-121.5 3q-63 0 -124 -3t-80 -3z" />
    <glyph glyph-name="o" unicode="o" horiz-adv-x="1320" 
d="M639 -35q-133 0 -243.5 41t-184.5 112.5t-115 168.5t-41 209q0 244 176.5 402.5t450.5 158.5q133 0 243.5 -41t184.5 -112.5t115 -168.5t41 -209q0 -161 -81.5 -289.5t-225 -200t-320.5 -71.5zM387 575q0 -75 21.5 -153.5t60 -146t99 -111t130.5 -43.5q111 0 173.5 84.5
t62.5 240.5q0 75 -22 154.5t-60.5 147t-99 110.5t-129.5 43q-111 0 -173.5 -85t-62.5 -241z" />
    <glyph glyph-name="p" unicode="p" horiz-adv-x="1380" 
d="M125 -371q-34 0 -52 16.5t-18 39.5t12.5 37t29.5 23t34.5 21t30 39.5t12.5 69.5v799q0 36 -13.5 58t-33 30.5t-39.5 15.5t-33.5 21t-13.5 39q0 32 39 57.5t158 79.5q97 43 128 54t52 11q63 0 63 -98v-92q64 92 159.5 147.5t221.5 55.5q200 0 330.5 -146.5t130.5 -388.5
q0 -121 -40.5 -224t-110 -174t-166.5 -111t-207 -40q-196 0 -318 103v-197q0 -42 15 -68.5t36 -38t42 -20.5t36 -24t15 -39q0 -22 -18.5 -39t-51.5 -17q-18 0 -91 3t-136 3q-58 0 -121.5 -3t-81.5 -3zM481 469q0 -148 76.5 -246t198.5 -98q107 0 174 81t67 234
q0 173 -78.5 285.5t-195.5 112.5q-102 0 -172 -82t-70 -211v-76z" />
    <glyph glyph-name="q" unicode="q" horiz-adv-x="1329" 
d="M811 -371q-33 0 -50.5 17t-17.5 39q0 24 15 39t36 24t42 20.5t36 38t15 68.5v293q-62 -90 -156.5 -144.5t-216.5 -54.5q-95 0 -178 36.5t-145 103t-98 166.5t-36 221q0 245 154 401t385 156q87 0 159.5 -21t118.5 -42t70 -21q32 0 96 34.5t90 34.5q30 0 47 -20.5
t17 -56.5v-1086q0 -42 12.5 -69.5t30 -39.5t34.5 -21t29.5 -23t12.5 -37t-18 -39.5t-52 -16.5q-18 0 -81.5 3t-121.5 3q-64 0 -137 -3t-92 -3zM383 582q0 -177 82 -287.5t190 -110.5q98 0 165 79t67 208v66q0 154 -81 258t-192 104q-105 0 -168 -84.5t-63 -232.5z" />
    <glyph glyph-name="r" unicode="r" horiz-adv-x="1052" 
d="M141 -4q-34 0 -51.5 16.5t-17.5 40.5q0 22 12.5 36t30.5 23t35.5 21t30 39.5t12.5 69.5v432q0 36 -14 58t-34 30.5t-40 15.5t-34 21t-14 39q0 32 39 57.5t158 79.5q149 65 182 65q64 0 64 -98v-168q46 118 145.5 196.5t208.5 78.5q84 0 137 -40.5t53 -97.5
q0 -70 -69 -237q-26 -66 -74 -66q-40 0 -70 62q-30 58 -58.5 86t-67.5 28q-32 0 -66 -21.5t-66 -62.5t-52.5 -112.5t-20.5 -159.5v-186q0 -42 15 -68.5t37 -38t43.5 -20t36.5 -23.5t15 -39q0 -23 -17.5 -40t-51.5 -17q-19 0 -93 3t-139 3q-58 0 -122.5 -3t-82.5 -3z" />
    <glyph glyph-name="s" unicode="s" horiz-adv-x="1148" 
d="M258 -43q-29 0 -47.5 24t-36.5 66l-68 143q-5 10 -14.5 30t-13.5 28.5t-10 23t-8.5 22.5t-4.5 18.5t-2 19.5q0 28 15.5 42.5t37.5 14.5q33 0 78 -45q235 -227 447 -227q80 0 126 35.5t46 89.5q0 29 -15 49.5t-55.5 36.5t-69.5 23.5t-99 23.5q-29 7 -44 10
q-74 17 -132 35.5t-119 48t-101 65t-66 87.5t-26 114q0 136 111.5 226t279.5 90q68 0 152.5 -17.5t93.5 -17.5q20 0 42 20.5t46 20.5q21 0 39.5 -13t27 -24.5t27.5 -40.5l76 -121q53 -79 53 -117q0 -24 -13.5 -38.5t-33.5 -14.5q-14 0 -29.5 8t-23.5 14.5t-27 24.5
q-93 77 -195 125.5t-192 48.5q-61 0 -99 -27.5t-38 -70.5q0 -23 11.5 -40.5t30.5 -30t52 -24t67 -20.5t85 -21q20 -4 30 -7q56 -13 97 -25t91 -30t85.5 -36.5t71 -45.5t57.5 -58t35.5 -72t13.5 -88q0 -105 -63 -183.5t-168 -117.5t-236 -39q-85 0 -173 18.5t-95 18.5
q-25 0 -53 -26.5t-54 -26.5z" />
    <glyph glyph-name="t" unicode="t" horiz-adv-x="876" 
d="M487 -27q-129 0 -218 66t-89 158q0 9 4 134t4 208v331h-108q-34 0 -55 17.5t-21 46.5t17 48t53 38q96 43 157.5 109.5t118.5 189.5q23 46 41.5 66t46.5 20q25 0 41.5 -18t16.5 -54v-309h288q52 0 52 -49q0 -11 -7 -53q-9 -52 -55 -52h-278v-510q0 -111 31.5 -154.5
t90.5 -43.5q58 0 127 63q34 29 58 29q25 0 39 -16.5t14 -40.5q0 -48 -51 -99q-122 -125 -318 -125z" />
    <glyph glyph-name="u" unicode="u" horiz-adv-x="1376" 
d="M528 -31q-163 0 -258.5 104t-95.5 292v319q0 44 -23.5 70.5t-52 35t-52 25t-23.5 43.5q0 37 41.5 61.5t166.5 67.5q153 51 185 51q65 0 65 -100v-489q0 -248 185 -248q41 0 78 15t69 46t51 86.5t19 128.5v207q0 44 -27 70t-59 34t-59 25t-27 45q0 37 44 60.5t185 70.5
q154 49 186 49q64 0 64 -100v-625q0 -36 16.5 -62t40 -39.5t47 -24.5t40 -26t16.5 -36q0 -40 -44 -61.5t-178 -51.5q-139 -32 -180 -32q-33 0 -49 24.5t-16 61.5v108q-54 -91 -144 -148t-211 -57z" />
    <glyph glyph-name="v" unicode="v" horiz-adv-x="1236" 
d="M621 -16q-57 0 -89.5 11.5t-46.5 28.5t-30 52l-303 712q-16 38 -38.5 64t-42 38.5t-37 23.5t-28 24.5t-10.5 34.5q0 26 18 40.5t47 14.5q19 0 93 -3t137 -3q58 0 128.5 3t90.5 3q39 0 59.5 -15t20.5 -40q0 -21 -10.5 -36t-26 -24t-30.5 -18.5t-25.5 -27.5t-10.5 -44
q0 -43 35 -127l172 -444l172 444q35 93 35 131q0 27 -16.5 46t-35.5 28.5t-35.5 27.5t-16.5 44q0 55 75 55q20 0 70 -3t78 -3q29 0 82.5 3t73.5 3q28 0 46.5 -15.5t18.5 -39.5q0 -21 -11 -35t-29 -25t-38 -24t-41.5 -38.5t-36.5 -62.5l-292 -712q-14 -33 -26.5 -49.5
t-48.5 -29.5t-97 -13z" />
    <glyph glyph-name="w" unicode="w" horiz-adv-x="1931" 
d="M1319 -16q-46 0 -76.5 6.5t-48 22.5t-24.5 28t-17 37l-182 465l-183 -465q-7 -19 -11 -28.5t-16 -24.5t-28.5 -22t-46 -13t-70.5 -6q-57 0 -90.5 12.5t-46.5 29.5t-28 52l-301 704q-21 48 -51 78.5t-53 41t-39.5 27.5t-16.5 44q0 26 19.5 40.5t47.5 14.5q19 0 94 -3
t136 -3q60 0 130 3t89 3q38 0 60 -14.5t22 -40.5q0 -24 -14.5 -41.5t-32.5 -27t-32.5 -30.5t-14.5 -53q0 -33 28 -112l174 -445l191 494l-10 26q-15 39 -36 66t-39.5 39.5t-35 23t-26 24.5t-9.5 36q0 26 20 40.5t48 14.5q19 0 91 -3t136 -3q52 0 123 3t92 3q40 0 62 -14.5
t22 -40.5q0 -25 -17.5 -43t-39 -28t-39 -31t-17.5 -50t25 -112l152 -449l176 451q30 80 30 120q0 28 -17 47t-37 27.5t-37 25.5t-17 42q0 26 22 40.5t60 14.5q20 0 69.5 -3t79.5 -3q28 0 80.5 3t71.5 3q28 0 48.5 -15t20.5 -40q0 -26 -17.5 -43.5t-41 -28.5t-53.5 -42
t-49 -77l-287 -704q-15 -35 -28 -51.5t-48.5 -29.5t-95.5 -13z" />
    <glyph glyph-name="x" unicode="x" horiz-adv-x="1220" 
d="M715 -4q-80 0 -80 53q0 22 13 36t29 20t29 21t13 38q0 37 -49 90l-119 143l-131 -153q-47 -53 -47 -84q0 -19 13 -32.5t29 -20.5t29 -21.5t13 -34.5q0 -55 -78 -55q-20 0 -76.5 3t-85.5 3q-30 0 -84 -3t-74 -3q-28 0 -46.5 14.5t-18.5 38.5q0 25 17.5 43t42.5 29.5
t64 37.5t70 62l263 297l-238 281q-31 37 -68.5 64.5t-61.5 39t-41 29t-17 41.5q0 25 19 40t46 15q20 0 92 -3t133 -3q60 0 128.5 3t88.5 3q78 0 78 -55q0 -21 -11.5 -35t-26 -20.5t-26 -20.5t-11.5 -35q0 -31 47 -94l88 -106l104 116q49 55 49 88q0 18 -12 31.5t-27 20.5
t-27 21t-12 34q0 25 19.5 40t52.5 15q22 0 71 -3t79 -3q28 0 85.5 3t77.5 3q28 0 47 -15.5t19 -39.5q0 -25 -16.5 -42t-39.5 -26.5t-58.5 -31.5t-63.5 -52l-248 -278l268 -318q31 -37 69 -64.5t62 -39t41 -29t17 -41.5q0 -26 -18.5 -40.5t-47.5 -14.5q-19 0 -90 3t-133 3
q-60 0 -131.5 -3t-91.5 -3z" />
    <glyph glyph-name="y" unicode="y" 
d="M324 -397q-59 0 -105 14t-63 37q-29 35 -55.5 125t-26.5 149q0 32 16 54t41 22q32 0 57 -37q59 -83 103 -117t94 -34q45 0 82 43t74 125l-375 770q-22 46 -49 79.5t-47.5 49.5t-38.5 29t-27.5 27t-9.5 34q0 26 18 40.5t47 14.5q19 0 94 -3t138 -3q58 0 128.5 3t90.5 3
q39 0 59.5 -15t20.5 -40q0 -21 -10.5 -36t-26 -24t-30.5 -18.5t-25.5 -27.5t-10.5 -44q0 -43 35 -127l183 -407l165 407q35 85 35 131q0 27 -16.5 46t-35.5 28.5t-35.5 27.5t-16.5 44q0 25 19.5 40t56.5 15q20 0 69.5 -3t77.5 -3t80 3t72 3q28 0 46.5 -15.5t18.5 -39.5
t-17 -42t-40.5 -31.5t-56 -50.5t-56.5 -93l-346 -811q-148 -342 -401 -342z" />
    <glyph glyph-name="z" unicode="z" horiz-adv-x="1140" 
d="M930 -47q-22 0 -54 23.5t-61 23.5h-485q-57 0 -127 -4t-86 -4q-40 0 -61 17.5t-21 45.5q0 34 26 66l576 756h-145q-88 0 -154.5 -38.5t-136.5 -121.5q-37 -43 -72 -43q-21 0 -36 14.5t-15 40.5q0 31 33 111l61 157q6 16 9.5 23.5t12 21.5t20.5 20.5t28 6.5
q23 0 51.5 -22.5t54.5 -22.5h418q66 0 132.5 3t80.5 3q40 0 61 -16.5t21 -42.5q0 -30 -27 -64l-577 -762h170q111 0 191.5 47t160.5 148q40 47 76 47q22 0 38.5 -16.5t16.5 -44.5q0 -30 -33 -119l-69 -176q-7 -16 -10.5 -23.5t-13.5 -23.5t-23.5 -23.5t-30.5 -7.5z" />
    <glyph glyph-name="braceleft" unicode="{" horiz-adv-x="794" 
d="M508 -180q-160 0 -251 86.5t-91 216.5q0 68 36 178.5t36 155.5q0 34 -10.5 60t-30 42t-36 25t-38.5 16q-80 26 -80 84q0 27 15.5 47t29.5 27t35 14q115 38 115 143q0 44 -36 156.5t-36 179.5q0 129 91 215t251 86q104 0 164 -8q88 -9 88 -78q0 -77 -86 -77l-80 2
q-113 0 -113 -109q0 -50 36 -177.5t36 -182.5q0 -77 -47.5 -141t-140.5 -95q93 -31 140.5 -94.5t47.5 -140.5q0 -57 -36 -184t-36 -177q0 -110 113 -110q10 0 41 2t39 2q39 0 62.5 -19.5t23.5 -58.5q0 -38 -22.5 -55.5t-65.5 -22.5q-60 -8 -164 -8z" />
    <glyph glyph-name="bar" unicode="|" horiz-adv-x="565" 
d="M283 -301q-119 0 -119 94v1878q0 50 30 71t89 21t88.5 -21t29.5 -71v-1878q0 -50 -30 -72t-88 -22z" />
    <glyph glyph-name="braceright" unicode="}" horiz-adv-x="794" 
d="M287 -176q-104 0 -164 8q-43 5 -65.5 22.5t-22.5 55.5q0 39 23.5 58.5t62.5 19.5q7 0 38 -2t42 -2q112 0 112 110q0 50 -35.5 177t-35.5 184q0 77 47.5 140.5t140.5 94.5q-93 31 -140.5 95t-47.5 141q0 55 35.5 182.5t35.5 177.5q0 109 -112 109l-80 -2q-86 0 -86 77
q0 69 88 78q60 8 164 8q160 0 251 -86t91 -215q0 -67 -36 -179t-36 -156q0 -106 115 -144q21 -7 35 -14t29.5 -27t15.5 -47q0 -58 -80 -84q-22 -7 -38.5 -16t-36 -25t-30 -42t-10.5 -60q0 -45 36 -155.5t36 -178.5q0 -130 -91 -216.5t-251 -86.5z" />
    <glyph glyph-name="asciitilde" unicode="~" horiz-adv-x="1198" 
d="M203 471q-44 0 -74.5 29.5t-30.5 66.5q0 24 8 45q37 92 110.5 150.5t182.5 58.5q57 0 117.5 -23t103.5 -50.5t90.5 -50.5t80.5 -23q99 0 151 112q19 39 55 39q45 0 75 -30t30 -66q0 -26 -8 -45q-37 -93 -110 -151t-183 -58q-56 0 -117 23t-103.5 50t-90 50t-80.5 23
q-101 0 -152 -113q-16 -37 -55 -37z" />
    <glyph glyph-name="uni00A0" unicode="&#xa0;" horiz-adv-x="499" 
 />
    <glyph glyph-name="exclamdown" unicode="&#xa1;" horiz-adv-x="563" 
d="M283 649q55 0 73 -57q10 -77 39 -275.5t47.5 -347.5t18.5 -227q0 -197 -180 -197q-181 0 -181 197q0 79 19 229t48.5 345.5t39.5 275.5q14 57 76 57zM109 909q0 -64 45 -101.5t118 -37.5q83 0 137 46t54 110t-44.5 101.5t-119.5 37.5q-83 0 -136.5 -45.5t-53.5 -110.5z
" />
    <glyph glyph-name="cent" unicode="&#xa2;" horiz-adv-x="1232" 
d="M653 -289q-42 0 -60 22t-18 66v172q-217 22 -347 162t-130 359q0 118 39 220t104 172t148 113.5t172 53.5v147q0 88 80 88q42 0 60 -22t18 -66v-154q25 -5 58.5 -14t54.5 -13.5t34 -4.5q22 0 47 24.5t45 24.5q26 0 45 -21.5t39 -74.5l56 -166q8 -23 19 -50.5l16 -40
t8.5 -27t3.5 -26.5q0 -29 -14.5 -45t-36.5 -16q-33 0 -74 51q-115 147 -184 206.5t-146 59.5q-94 0 -163.5 -100.5t-69.5 -269.5q0 -176 85 -272.5t214 -96.5q86 0 158.5 34t117.5 85q12 15 19.5 23t22 16t30.5 8q24 0 40.5 -17.5t16.5 -39.5q0 -36 -31 -84q-22 -33 -56 -66
t-82.5 -66.5t-116 -58.5t-142.5 -35v-172q0 -88 -80 -88z" />
    <glyph glyph-name="sterling" unicode="&#xa3;" horiz-adv-x="1341" 
d="M954 -37q-76 0 -159 28t-173.5 71.5t-129.5 56.5q-59 -71 -118 -109.5t-130 -38.5q-68 0 -118 38.5t-50 103.5q0 89 88.5 155.5t218.5 67.5q16 46 16 96q0 78 -39 178h-149q-46 0 -80.5 33t-34.5 80q0 24 8.5 39t24.5 20.5t26 7t25 1.5h103q-40 89 -61 156.5t-21 135.5
q0 122 70 216.5t186.5 144t257.5 49.5q124 0 239.5 -39.5t182.5 -98.5t67 -116q0 -40 -37.5 -94t-109.5 -109q-29 -21 -43 -28t-31 -7q-58 0 -74 72q-2 7 -7 29.5t-8 33t-9 32.5t-11 34t-14 31t-17.5 29.5t-21 24t-26 20t-31 11.5t-37.5 5q-78 0 -129 -61.5t-51 -163.5
q0 -29 5.5 -70.5t9.5 -65.5t17.5 -90t16.5 -81h340q47 0 82 -32.5t35 -80.5q0 -24 -8.5 -39t-24.5 -20.5t-26 -7t-25 -1.5h-348q4 -50 4 -75q0 -132 -43 -226q29 -6 89 -19.5t95.5 -21t82.5 -14t83 -6.5q64 0 113.5 21t107.5 71q18 17 25 23t21 13t28 7q26 0 42.5 -24.5
t16.5 -71.5q0 -51 -21 -105.5t-60 -104.5t-105 -82t-146 -32z" />
    <glyph glyph-name="currency" unicode="&#xa4;" horiz-adv-x="1198" 
d="M602 182q-126 0 -240 70l-98 -98q-31 -31 -59 -31q-32 0 -72.5 39t-40.5 71q0 29 31 64l98 98q-69 107 -69 238q0 124 67 233l-96 97q-31 36 -31 61q0 32 41.5 72.5t73.5 40.5q27 0 61 -31l94 -94q112 69 240 69q132 0 236 -69l94 94q36 31 63 31q31 0 71 -39.5t40 -71.5
q0 -28 -33 -61l-92 -93q70 -114 70 -239q0 -126 -70 -240l94 -94q31 -31 31 -63t-42 -72.5t-73 -40.5q-21 0 -59 33l-96 94q-108 -68 -234 -68zM332 633q0 -110 80 -190.5t190 -80.5t189 80t79 191q0 110 -79 189t-189 79t-190 -79t-80 -189z" />
    <glyph glyph-name="yen" unicode="&#xa5;" horiz-adv-x="1521" 
d="M498 -6q-36 0 -54 17t-18 42q0 26 16.5 42t39.5 25.5t46 20.5t39.5 36t16.5 65v75h-244q-78 0 -78 74t78 74h244v151h-244q-78 0 -78 74t78 74h201l-348 493q-19 28 -47.5 49.5t-50 31.5t-37 28t-15.5 43q0 24 16 38.5t43 14.5q20 0 96 -3t140 -3q57 0 141 3t109 3
q86 0 86 -57q0 -26 -16 -42t-35.5 -22t-35.5 -23t-16 -44q0 -28 27 -72l248 -362l250 356q26 37 26 70q0 29 -17 47.5t-38 25t-38 23t-17 43.5q0 57 88 57q29 0 84.5 -3t81.5 -3q28 0 77 3t76 3q28 0 44 -14t16 -37q0 -27 -16 -44.5t-38 -27t-51.5 -30t-50.5 -49.5
l-352 -496h194q80 0 80 -74t-80 -74h-241v-151h241q80 0 80 -74t-80 -74h-241v-75q0 -40 16 -65t39.5 -36t46.5 -20.5t39 -25.5t16 -42q0 -25 -17.5 -42t-53.5 -17q-22 0 -104 3t-152 3q-71 0 -153 -3t-103 -3z" />
    <glyph glyph-name="brokenbar" unicode="&#xa6;" horiz-adv-x="565" 
d="M283 920q-59 0 -89 21t-30 71v659q0 50 30 71t89 21t88.5 -21t29.5 -71v-659q0 -50 -29.5 -71t-88.5 -21zM164 -207v658q0 52 30 73t89 21t88.5 -21t29.5 -73v-658q0 -50 -30 -72t-88 -22q-119 0 -119 94z" />
    <glyph glyph-name="section" unicode="&#xa7;" horiz-adv-x="1357" 
d="M295 -203q-11 0 -21.5 4.5t-17 9t-15 17t-11.5 18t-12 22.5t-11 21l-74 148q-7 13 -19.5 37.5t-17 34.5t-11 25.5t-9 26t-2.5 21.5q0 28 16 45t39 17q15 0 31 -8t24.5 -15t28.5 -26q272 -240 489 -240q94 0 150.5 38t56.5 93q0 16 -4 29.5t-15 25t-21.5 20.5t-32 17.5
t-37 14.5t-46 13.5t-49.5 12t-57.5 13.5t-60.5 14q-61 14 -104.5 25.5t-98 30t-92 37.5t-76.5 46.5t-62 59t-38 74t-15 91.5q0 110 65.5 188.5t178.5 116.5q-170 97 -170 252q0 142 120 233t302 91q77 0 170.5 -18.5t101.5 -18.5q20 0 44 21.5t51 21.5q29 0 50.5 -19.5
t47.5 -60.5l82 -125q57 -87 57 -121q0 -24 -15 -38.5t-36 -14.5q-6 0 -11.5 1t-10 2.5t-10.5 5t-9.5 5.5t-10.5 7.5t-9 7.5t-10.5 9t-10.5 9q-99 80 -213.5 132.5t-216.5 52.5q-73 0 -117.5 -28.5t-44.5 -74.5q0 -25 12 -44t33.5 -32.5t57 -25.5t75.5 -22t95 -23
q24 -5 36 -8q64 -15 109.5 -26.5t101.5 -30t94 -37.5t77.5 -46.5t62.5 -59t38 -74t15 -91.5q0 -112 -68 -187t-188 -112q180 -97 180 -268q0 -162 -140.5 -254t-360.5 -92q-92 0 -191.5 18t-105.5 18q-26 0 -55.5 -26.5t-57.5 -26.5zM401 713q0 -31 13.5 -54.5t34 -39.5
t64.5 -32t84 -27t114 -28q45 -10 135 -34q63 15 100 54t37 87q0 33 -18 57t-56.5 40.5t-80.5 28t-109 27.5q-37 8 -57 13q-88 21 -152 39q-50 -14 -79.5 -49t-29.5 -82z" />
    <glyph glyph-name="dieresis" unicode="&#xa8;" horiz-adv-x="872" 
d="M649 1200q-69 0 -114.5 40t-45.5 103q0 65 46 106.5t118 41.5q68 0 113 -39.5t45 -103.5t-45.5 -106t-116.5 -42zM59 1343q0 65 47 107.5t119 42.5q69 0 113.5 -40.5t44.5 -104.5q0 -65 -45 -106.5t-117 -41.5q-70 0 -116 40t-46 103z" />
    <glyph glyph-name="copyright" unicode="&#xa9;" horiz-adv-x="1714" 
d="M856 -33q-156 0 -297 60t-242.5 162t-161 244t-59.5 300t59.5 300t161 244t242.5 162t297 60q157 0 298.5 -60t243 -162t161 -244t59.5 -300t-59.5 -300t-161 -244t-243 -162t-298.5 -60zM242 733q0 -171 81.5 -314t223 -225.5t309.5 -82.5q169 0 311 82.5t224 225.5
t82 314t-82 314.5t-224 226t-311 82.5q-126 0 -240 -49t-196 -132t-130 -198.5t-48 -243.5zM455 715q0 94 33.5 176.5t88 137.5t124 86.5t141.5 31.5q45 0 106 -14.5t72 -14.5q13 0 31.5 15.5t33.5 15.5q34 0 56 -59l43 -117q28 -70 28 -92q0 -47 -36 -47q-29 0 -54 36
q-66 92 -118 131t-113 39q-73 0 -125.5 -77.5t-52.5 -208.5q0 -135 60.5 -209t156.5 -74q106 0 190 92q33 37 54 37q18 0 30.5 -12.5t12.5 -30.5q0 -19 -21 -59q-37 -66 -130 -120t-222 -54q-175 0 -282 105t-107 286z" />
    <glyph glyph-name="ordfeminine" unicode="&#xaa;" horiz-adv-x="892" 
d="M715 715q-105 0 -162 94q-46 -42 -114 -71t-150 -29q-120 0 -190 62.5t-70 162.5q0 101 81 168t222 67q82 0 160 -20l-3 22q-11 74 -48.5 114t-98.5 40q-82 0 -156 -45q-9 -4 -23 -11t-22 -9.5t-16 -2.5q-15 0 -28 12t-13 31q0 40 55 84q106 91 281 91q134 0 212 -62.5
t95 -181.5l33 -240q9 -63 34.5 -87t90.5 -36q30 -6 30 -32q0 -40 -56 -80.5t-144 -40.5zM281 961q0 -52 32 -82.5t82 -30.5q36 0 72.5 15.5t58.5 35.5l-20 154q-45 10 -90 10q-62 0 -98.5 -25t-36.5 -77z" />
    <glyph glyph-name="guillemotleft" unicode="&#xab;" horiz-adv-x="1191" 
d="M569 51q-16 0 -41 14t-41.5 27.5t-58.5 48.5l-254 217q-45 36 -69.5 68t-24.5 72q0 38 24 69t70 70l254 215q39 34 58 49.5t42.5 29t40.5 13.5q25 0 41.5 -18.5t16.5 -42.5q0 -28 -20.5 -63t-61.5 -89l-162 -211q-6 -12 -6 -22q0 -14 6 -23l162 -213q82 -104 82 -151
q0 -24 -16.5 -42t-41.5 -18zM555 498q0 38 24 69t70 70l254 215q39 34 58 49.5t42.5 29t40.5 13.5q25 0 41.5 -18.5t16.5 -42.5q0 -28 -20.5 -63t-61.5 -89l-162 -211q-6 -12 -6 -22q0 -14 6 -23l162 -213q82 -104 82 -151q0 -24 -16.5 -42t-41.5 -18q-16 0 -41 14
t-41.5 27.5t-58.5 48.5l-254 217q-45 36 -69.5 68t-24.5 72z" />
    <glyph glyph-name="logicalnot" unicode="&#xac;" horiz-adv-x="1130" 
d="M920 205q-105 0 -105 65v336q0 29 -27 29h-641q-34 0 -48.5 24.5t-14.5 75.5t14.5 76t48.5 25h805q72 0 72 -70v-496q0 -65 -104 -65z" />
    <glyph glyph-name="registered" unicode="&#xae;" horiz-adv-x="1419" 
d="M711 279q-166 0 -307 81.5t-222.5 221.5t-81.5 305t81.5 305t222.5 221.5t307 81.5q165 0 305 -81.5t221.5 -221.5t81.5 -305t-81.5 -305t-221.5 -221.5t-305 -81.5zM225 887q0 -99 38.5 -189t103.5 -155t155 -103.5t189 -38.5q131 0 242 65t176 177t65 244t-65 243
t-176 175.5t-242 64.5q-132 0 -244 -64.5t-177 -175.5t-65 -243zM395 623q0 12 8 20t17.5 12t17.5 16.5t8 33.5v385q0 20 -8 32.5t-17.5 16.5t-17.5 11.5t-8 18.5t11.5 21t27.5 10q9 0 37 -2t59 -2q15 0 68 3t102 3q137 0 215 -54t78 -144q0 -118 -133 -170l107 -134
q16 -20 38.5 -33.5t34 -22.5t11.5 -26q0 -11 -8.5 -18.5t-20.5 -7.5q-9 0 -51 2t-72 2q-26 0 -61 -2t-45 -2q-19 0 -31 8.5t-12 20.5q0 17 20.5 28t20.5 29t-27 45l-45 57q-9 12 -14.5 17t-14 8.5t-20.5 3.5h-33q-19 0 -19 -25v-79q0 -21 8.5 -33.5t18.5 -16.5t18.5 -12
t8.5 -20t-10 -21.5t-27 -9.5q-7 0 -39 2t-64 2q-31 0 -62 -2t-40 -2q-17 0 -26 9.5t-9 21.5zM618 913q0 -13 9 -20t17 -7.5t26 -0.5h18q56 0 88.5 29.5t32.5 91.5q0 59 -35.5 89.5t-89.5 30.5q-40 0 -53 -8.5t-13 -27.5v-177z" />
    <glyph glyph-name="macron" unicode="&#xaf;" horiz-adv-x="872" 
d="M180 1272q-36 0 -51.5 20.5t-15.5 63.5q0 82 67 82l254 -2q38 0 133 1t123 1q68 0 68 -82q0 -84 -68 -84q-31 0 -124.5 2t-129.5 2q-38 0 -133 -2t-123 -2z" />
    <glyph glyph-name="degree" unicode="&#xb0;" horiz-adv-x="823" 
d="M412 797q-152 0 -255.5 101t-103.5 249t103.5 248t255.5 100t255 -100t103 -248t-103 -249t-255 -101zM223 1147q0 -79 55.5 -134t133.5 -55q79 0 132.5 54.5t53.5 134.5q0 79 -54 133.5t-132 54.5q-79 0 -134 -55t-55 -133z" />
    <glyph glyph-name="plusminus" unicode="&#xb1;" horiz-adv-x="1150" 
d="M139 53q-34 0 -48.5 25.5t-14.5 77.5q0 100 63 100h873q65 0 65 -100q0 -103 -65 -103h-873zM76 651q0 101 65 101h303q27 0 27 26v285q0 63 104 63q53 0 79 -14.5t26 -48.5v-285q0 -26 27 -26h305q34 0 48.5 -25t14.5 -76q0 -52 -14.5 -77t-48.5 -25h-305q-27 0 -27 -27
v-155q0 -64 -105 -64q-104 0 -104 64v155q0 27 -27 27h-303q-65 0 -65 102z" />
    <glyph glyph-name="uni00B2" unicode="&#xb2;" horiz-adv-x="909" 
d="M686 504q-16 0 -46 17.5t-65 17.5h-339q-18 0 -68.5 -2t-77.5 -2q-32 0 -47.5 17t-15.5 38q0 35 36 74q55 63 147.5 156.5t156.5 162.5q120 123 120 234q0 52 -35 87t-94 35q-97 0 -170 -100q-38 -51 -69 -51q-22 0 -35.5 16.5t-13.5 38.5q0 27 18 68q49 93 142.5 150
t215.5 57q150 0 242 -78t92 -187q0 -144 -168 -282q-42 -34 -149 -109.5t-160 -124.5h268q94 0 193 99q33 38 61 38q18 0 31.5 -14.5t13.5 -36.5q0 -16 -5 -33t-11 -29l-23 -46l-67 -140q-16 -38 -33 -54.5t-45 -16.5z" />
    <glyph glyph-name="uni00B3" unicode="&#xb3;" horiz-adv-x="888" 
d="M432 516q-76 0 -141.5 18.5t-108.5 49.5t-71.5 62.5t-44.5 64.5q-19 46 -19 73q0 26 15 42t36 16q17 0 30 -10.5t34 -34.5q81 -103 211 -103q74 0 121 39.5t47 102.5q0 67 -45 108t-105 41q-14 0 -37 -4t-32 -4q-28 0 -44 18t-16 41q0 19 12 32.5t39.5 30.5t40.5 27
q105 88 203 191h-201q-49 0 -83 -18t-97 -85q-33 -36 -61 -36q-17 0 -30 14t-13 39t32 98l52 129q16 37 33 53.5t42 16.5q17 0 46.5 -16.5t62.5 -16.5h268q19 0 69.5 1t78.5 1q32 0 47.5 -21t15.5 -46q0 -22 -12 -42.5t-47 -54.5q-47 -45 -217 -192q131 -18 208.5 -104.5
t77.5 -190.5q0 -135 -114 -232.5t-283 -97.5z" />
    <glyph glyph-name="acute" unicode="&#xb4;" horiz-adv-x="872" 
d="M365 1169q-26 0 -42 11t-16 26q0 20 19 54q93 149 159 241q21 30 48.5 41.5t87.5 11.5q77 0 103 -11t26 -40q0 -23 -16 -43.5t-62 -64.5q-11 -10 -87.5 -80t-117.5 -105q-46 -41 -102 -41z" />
    <glyph glyph-name="uni00B5" unicode="&#xb5;" horiz-adv-x="1200" 
d="M250 -381q-61 0 -82 16.5t-21 63.5v1262q0 47 20.5 63t82.5 16q59 0 79.5 -16t20.5 -63v-586q0 -92 54 -144.5t151 -52.5q101 0 154 52.5t53 152.5v578q0 47 20.5 63t81.5 16q59 0 80 -16t21 -63v-697q0 -45 18.5 -64.5t60.5 -19.5q8 0 26.5 3t25.5 3q25 0 37 -21t12 -69
q1 -49 -14 -71t-52 -31q-47 -12 -88 -12q-139 0 -196 104q-89 -106 -242 -106q-118 0 -203 75v-356q0 -47 -20.5 -63.5t-79.5 -16.5z" />
    <glyph glyph-name="paragraph" unicode="&#xb6;" horiz-adv-x="1429" 
d="M709 -18q-60 0 -85.5 24t-25.5 76v432q-251 9 -387.5 140.5t-136.5 357.5q0 211 150 336t444 125q103 0 216.5 -7.5t145.5 -7.5q73 0 152.5 3t101.5 3q35 0 53.5 -16t18.5 -41q0 -31 -25 -49.5t-55 -27.5t-55 -36.5t-25 -74.5v-1137q0 -52 -24 -76t-82 -24q-59 0 -84 24
t-25 76v1124q0 99 -84 99q-82 0 -82 -99v-1124q0 -52 -24.5 -76t-81.5 -24z" />
    <glyph glyph-name="periodcentered" unicode="&#xb7;" horiz-adv-x="552" 
d="M291 633q-90 0 -148.5 -51t-58.5 -123t48 -114t130 -42q91 0 150 51t59 123q0 71 -50 113.5t-130 42.5z" />
    <glyph glyph-name="cedilla" unicode="&#xb8;" horiz-adv-x="872" 
d="M436 -410q-123 0 -196 45q-33 18 -33 50q0 19 11 32t28 13q10 0 49 -13q78 -28 127 -28q41 0 65.5 15t24.5 40q0 51 -80 51q-35 0 -92 -22q-18 5 -42 25.5t-30 37.5l60 207h112l-37 -137q27 8 66 8q89 0 146 -44t57 -112q0 -75 -66.5 -121.5t-169.5 -46.5z" />
    <glyph glyph-name="uni00B9" unicode="&#xb9;" horiz-adv-x="659" 
d="M150 535q-27 0 -41.5 13t-14.5 30q0 23 20 37t43.5 20t43.5 27t20 57v506q0 63 -51 63q-18 0 -52.5 -4t-49.5 -4q-23 0 -37.5 12.5t-14.5 32.5q0 39 47 53q22 7 106.5 30t152.5 44q44 14 86.5 31t62 23.5t35.5 6.5q21 0 34 -12.5t13 -30.5q0 -17 -11.5 -32.5t-24.5 -26
t-24.5 -30t-11.5 -44.5v-618q0 -36 20 -57t44.5 -27t44.5 -20t20 -37q0 -19 -13.5 -31t-41.5 -12q-18 0 -81 2t-122 2t-121.5 -2t-80.5 -2z" />
    <glyph glyph-name="ordmasculine" unicode="&#xba;" horiz-adv-x="948" 
d="M459 696q-194 0 -309 109t-115 272q0 173 128 287.5t326 114.5q195 0 309.5 -108.5t114.5 -274.5q0 -174 -129 -287t-325 -113zM301 1139q0 -68 22.5 -140.5t70 -127t108.5 -54.5q71 0 108 56t37 163q0 69 -22.5 141.5t-70 126.5t-108.5 54q-71 0 -108 -56t-37 -163z" />
    <glyph glyph-name="guillemotright" unicode="&#xbb;" horiz-adv-x="1191" 
d="M623 51q-25 0 -41.5 18t-16.5 42q0 47 82 151l162 213q6 9 6 23q0 10 -6 22l-162 211q-41 54 -61.5 89t-20.5 63q0 24 16.5 42.5t41.5 18.5q24 0 54 -21.5t87 -70.5l254 -215q30 -25 47.5 -42.5t32 -43.5t14.5 -53q0 -40 -24.5 -72t-69.5 -68l-254 -217
q-42 -35 -58.5 -48.5t-41.5 -27.5t-41 -14zM90 111q0 47 82 151l162 213q6 9 6 23q0 10 -6 22l-162 211q-41 54 -61.5 89t-20.5 63q0 24 16 42.5t41 18.5q24 0 55 -21.5t87 -70.5l254 -215q30 -25 47.5 -42.5t32 -43.5t14.5 -53q0 -40 -24.5 -72t-69.5 -68l-254 -217
q-40 -33 -58.5 -47.5t-43 -28.5t-40.5 -14q-25 0 -41 18t-16 42z" />
    <glyph glyph-name="onequarter" unicode="&#xbc;" horiz-adv-x="2076" 
d="M604 -35q-39 0 -69.5 28t-30.5 58q0 44 47 111l801 1202q5 8 17 25.5t17 25t14.5 20t16 18t16 12.5t18.5 9.5t19 2.5q39 0 70 -28t31 -58q0 -44 -47 -111l-801 -1202l-17 -25.5t-17.5 -25t-15 -19.5t-16.5 -19t-15.5 -12t-18.5 -9.5t-19 -2.5zM57 1296q0 40 47 54
q23 7 106.5 29.5t151.5 43.5q44 14 86.5 31t62.5 24t36 7q21 0 34 -12.5t13 -30.5q0 -17 -11 -32.5t-25 -26t-25 -30t-11 -44.5v-619q0 -36 20 -57t44.5 -27t44.5 -20t20 -37q0 -19 -13.5 -31t-41.5 -12q-18 0 -81 2t-122 2t-122 -2t-81 -2q-27 0 -41 13t-14 30q0 23 20 37
t43.5 20t43.5 27t20 57v506q0 64 -51 64q-18 0 -52.5 -4.5t-49.5 -4.5q-23 0 -37.5 12.5t-14.5 32.5zM1186 279q0 11 1.5 21t3.5 18.5t7.5 20t8.5 18.5t12 21.5t13.5 22t17 26.5t18.5 28l276 403q39 58 71 79t85 21h102q82 0 82 -63v-496h70q32 0 44.5 -11.5t12.5 -55.5v-56
q0 -40 -10 -53.5t-47 -13.5h-70v-41q0 -32 13 -52t29 -26.5t29 -19t13 -31.5q0 -17 -14 -30t-41 -13q-11 0 -61 2t-99 2q-50 0 -106.5 -2t-69.5 -2q-26 0 -39.5 13t-13.5 30q0 21 15.5 34t34.5 19t34.5 25t15.5 51v41h-352q-86 0 -86 70zM1372 399h262v387z" />
    <glyph glyph-name="onehalf" unicode="&#xbd;" horiz-adv-x="2203" 
d="M606 -35q-39 0 -69.5 28t-30.5 58q0 44 47 111l801 1202l17 25.5t17.5 25t15 19.5t16.5 19t15.5 12t18.5 9.5t19 2.5q39 0 69.5 -28t30.5 -58q0 -44 -47 -111l-801 -1202l-17 -25.5t-17.5 -25t-15 -19.5t-16.5 -19t-15.5 -12t-18.5 -9.5t-19 -2.5zM59 1296q0 40 47 54
q23 7 107 29.5t152 43.5q44 15 86.5 31.5t62 23.5t35.5 7q21 0 34 -12.5t13 -30.5q0 -17 -11 -32.5t-25 -26t-25 -30t-11 -44.5v-619q0 -36 20 -57t44.5 -27t44.5 -20t20 -37q0 -19 -13.5 -31t-41.5 -12q-18 0 -81 2t-122 2t-121.5 -2t-80.5 -2q-27 0 -41.5 13t-14.5 30
q0 23 20 37t43.5 20t43.5 27t20 57v506q0 64 -51 64q-18 0 -52.5 -4.5t-49.5 -4.5q-23 0 -37.5 12.5t-14.5 32.5zM1298 51q0 34 37 74q56 64 148 158t155 161q121 124 121 234q0 52 -35 87.5t-94 35.5q-96 0 -170 -101q-38 -51 -69 -51q-22 0 -36 17t-14 39q0 23 19 67
q49 93 142.5 150t215.5 57q150 0 242 -77.5t92 -186.5q0 -145 -168 -283q-42 -34 -149 -109t-160 -124h268q95 0 193 98q34 39 61 39q18 0 31.5 -14.5t13.5 -36.5q0 -23 -8 -43t-31 -66l-67 -139q-16 -38 -33 -55t-45 -17q-16 0 -46 17.5t-65 17.5h-340q-18 0 -68 -2t-77 -2
q-32 0 -48 17t-16 38z" />
    <glyph glyph-name="threequarters" unicode="&#xbe;" horiz-adv-x="2158" 
d="M721 -35q-39 0 -69.5 28t-30.5 58q0 44 47 111l800 1202l17 25.5t17.5 25t15 19.5t16.5 19t15.5 12t18.5 9.5t19 2.5q39 0 70 -28t31 -58q0 -42 -48 -111l-800 -1202l-17 -25.5t-17.5 -25t-15 -19.5t-16.5 -19t-15.5 -12t-18.5 -9.5t-19 -2.5zM66 756q0 25 15 41t36 16
q12 0 23 -6.5t18 -14t22 -24.5q80 -102 211 -102q74 0 121 39t47 102q0 67 -44.5 108t-104.5 41q-14 0 -37.5 -4t-32.5 -4q-28 0 -43.5 18t-15.5 42q0 19 12 32.5t39.5 30.5t40.5 27q105 88 202 190h-200q-50 0 -84 -17.5t-96 -84.5q-34 -37 -62 -37q-17 0 -30 14t-13 39
q0 23 33 98l51 130q29 69 76 69q17 0 46 -16.5t62 -16.5h269q19 0 69 1t78 1q32 0 48 -21t16 -46q0 -21 -12.5 -41.5t-47.5 -54.5q-57 -55 -217 -193q131 -18 209 -104.5t78 -190.5q0 -135 -114 -232.5t-283 -97.5q-76 0 -141.5 18.5t-109 49.5t-72 62.5t-44.5 64.5
q-18 44 -18 74zM1272 279q0 11 1.5 21t3.5 18.5t7.5 20t8.5 18.5t12 21.5t13.5 22t17 26.5t18.5 28l276 403q39 58 71 79t85 21h102q82 0 82 -63v-496h70q32 0 44.5 -11.5t12.5 -55.5v-56q0 -40 -10 -53.5t-47 -13.5h-70v-41q0 -32 13 -52t29 -26.5t29 -19t13 -31.5
q0 -17 -14 -30t-41 -13q-11 0 -61 2t-99 2q-50 0 -106.5 -2t-69.5 -2q-26 0 -39.5 13t-13.5 30q0 21 15.5 34t34.5 19t34.5 25t15.5 51v41h-352q-86 0 -86 70zM1458 399h262v387z" />
    <glyph glyph-name="questiondown" unicode="&#xbf;" horiz-adv-x="1159" 
d="M612 651q58 0 76 -49q43 -114 43 -256q0 -83 -42 -143.5t-152 -149.5q-14 -11 -40 -32t-37 -30t-30.5 -26t-28 -26t-20.5 -23.5t-16.5 -26t-8.5 -25.5t-4 -28q0 -53 41.5 -85t108.5 -32q99 0 168 74t100 180q23 64 78 64q36 0 80 -29q143 -93 143 -196q0 -41 -40 -86
t-106.5 -83t-164.5 -62.5t-203 -24.5q-137 0 -249 37t-183.5 117t-71.5 192q0 52 15 99.5t37 82.5t60 72.5t70 62.5t82 60q13 10 40.5 31.5t38 30t30 24.5t28.5 24.5t21 21t19 23t12 21.5q10 23 16 48t11 57.5t8 45.5q12 45 71 45zM420 911q0 -64 46 -101.5t120 -37.5
q83 0 136.5 45.5t53.5 110.5q0 64 -44.5 101.5t-119.5 37.5q-83 0 -137.5 -46t-54.5 -110z" />
    <glyph glyph-name="Agrave" unicode="&#xc0;" horiz-adv-x="1550" 
d="M41 -4q-29 0 -46.5 14.5t-17.5 36.5q0 29 19.5 48t45.5 29t56.5 39t48.5 75l316 815q40 99 104 288q29 87 66 110.5t145 23.5q73 0 108.5 -11t54.5 -37t40 -88q59 -170 106 -286l316 -811q18 -46 47.5 -76t54 -41t42.5 -30t18 -48q0 -22 -16.5 -36.5t-43.5 -14.5
q-20 0 -95 3t-140 3q-64 0 -152.5 -3t-113.5 -3q-89 0 -89 59q0 27 22 44.5t48 24.5t48 25.5t22 47.5q0 30 -19 82l-57 147q-11 32 -26 44.5t-48 12.5h-422q-33 0 -46.5 -12t-26.5 -45l-58 -143q-22 -61 -22 -82q0 -31 22.5 -50t49 -26.5t49 -25t22.5 -44.5q0 -59 -88 -59
q-31 0 -92 3t-92 3t-83 -3t-77 -3zM446 1882q0 29 25.5 40t101.5 11q61 0 89 -11.5t49 -41.5q88 -127 157 -242q19 -34 19 -53q0 -16 -15.5 -26.5t-42.5 -10.5q-54 0 -100 41q-41 33 -113.5 100t-93.5 85q-44 43 -60 64t-16 44zM508 686q-16 -45 31 -45h311q47 0 31 45
l-187 485z" />
    <glyph glyph-name="Aacute" unicode="&#xc1;" horiz-adv-x="1550" 
d="M41 -4q-29 0 -46.5 14.5t-17.5 36.5q0 29 19.5 48t45.5 29t56.5 39t48.5 75l316 815q40 99 104 288q29 87 66 110.5t145 23.5q73 0 108.5 -11t54.5 -37t40 -88q59 -170 106 -286l316 -811q18 -46 47.5 -76t54 -41t42.5 -30t18 -48q0 -22 -16.5 -36.5t-43.5 -14.5
q-20 0 -95 3t-140 3q-64 0 -152.5 -3t-113.5 -3q-89 0 -89 59q0 27 22 44.5t48 24.5t48 25.5t22 47.5q0 30 -19 82l-57 147q-11 32 -26 44.5t-48 12.5h-422q-33 0 -46.5 -12t-26.5 -45l-58 -143q-22 -61 -22 -82q0 -31 22.5 -50t49 -26.5t49 -25t22.5 -44.5q0 -59 -88 -59
q-31 0 -92 3t-92 3t-83 -3t-77 -3zM508 686q-16 -45 31 -45h311q47 0 31 45l-187 485zM649 1585q0 19 19 53q98 157 159 242q21 30 48.5 41.5t87.5 11.5q77 0 103 -11t26 -40q0 -23 -16 -43.5t-62 -64.5q-11 -10 -87.5 -80t-117.5 -105q-46 -41 -102 -41q-26 0 -42 11
t-16 26z" />
    <glyph glyph-name="Acircumflex" unicode="&#xc2;" horiz-adv-x="1550" 
d="M41 -4q-29 0 -46.5 14.5t-17.5 36.5q0 29 19.5 48t45.5 29t56.5 39t48.5 75l316 815q40 99 104 288q29 87 66 110.5t145 23.5q73 0 108.5 -11t54.5 -37t40 -88q59 -170 106 -286l316 -811q18 -46 47.5 -76t54 -41t42.5 -30t18 -48q0 -22 -16.5 -36.5t-43.5 -14.5
q-20 0 -95 3t-140 3q-64 0 -152.5 -3t-113.5 -3q-89 0 -89 59q0 27 22 44.5t48 24.5t48 25.5t22 47.5q0 30 -19 82l-57 147q-11 32 -26 44.5t-48 12.5h-422q-33 0 -46.5 -12t-26.5 -45l-58 -143q-22 -61 -22 -82q0 -31 22.5 -50t49 -26.5t49 -25t22.5 -44.5q0 -59 -88 -59
q-31 0 -92 3t-92 3t-83 -3t-77 -3zM459 1614q0 24 24 61q65 91 160 205q31 34 58 45.5t83 11.5q55 0 82.5 -11.5t57.5 -45.5q90 -104 159 -205q27 -37 27 -61q0 -19 -18.5 -35t-47.5 -16q-43 0 -90 45l-170 159l-170 -159q-47 -45 -92 -45q-28 0 -45.5 16t-17.5 35zM508 686
q-16 -45 31 -45h311q47 0 31 45l-187 485z" />
    <glyph glyph-name="Atilde" unicode="&#xc3;" horiz-adv-x="1550" 
d="M41 -4q-29 0 -46.5 14.5t-17.5 36.5q0 29 19.5 48t45.5 29t56.5 39t48.5 75l316 815q40 99 104 288q29 87 66 110.5t145 23.5q73 0 108.5 -11t54.5 -37t40 -88q59 -170 106 -286l316 -811q18 -46 47.5 -76t54 -41t42.5 -30t18 -48q0 -22 -16.5 -36.5t-43.5 -14.5
q-20 0 -95 3t-140 3q-64 0 -152.5 -3t-113.5 -3q-89 0 -89 59q0 27 22 44.5t48 24.5t48 25.5t22 47.5q0 30 -19 82l-57 147q-11 32 -26 44.5t-48 12.5h-422q-33 0 -46.5 -12t-26.5 -45l-58 -143q-22 -61 -22 -82q0 -31 22.5 -50t49 -26.5t49 -25t22.5 -44.5q0 -59 -88 -59
q-31 0 -92 3t-92 3t-83 -3t-77 -3zM453 1661q0 37 14 76q24 73 72 118.5t110 45.5q44 0 87.5 -23.5t71 -51.5t57 -51.5t48.5 -23.5q27 0 64 64q13 22 17 28t14.5 19t20.5 16.5t24 3.5q26 0 40.5 -15.5t14.5 -43.5q0 -30 -14 -76q-26 -75 -74 -119.5t-111 -44.5
q-44 0 -88 23.5t-72.5 51.5t-56.5 51.5t-45 23.5q-28 0 -65 -64q-28 -47 -42 -57t-32 -10q-26 0 -40.5 15.5t-14.5 43.5zM508 686q-16 -45 31 -45h311q47 0 31 45l-187 485z" />
    <glyph glyph-name="Adieresis" unicode="&#xc4;" horiz-adv-x="1550" 
d="M41 -4q-29 0 -46.5 14.5t-17.5 36.5q0 29 19.5 48t45.5 29t56.5 39t48.5 75l316 815q40 99 104 288q29 87 66 110.5t145 23.5q73 0 108.5 -11t54.5 -37t40 -88q59 -170 106 -286l316 -811q18 -46 47.5 -76t54 -41t42.5 -30t18 -48q0 -22 -16.5 -36.5t-43.5 -14.5
q-20 0 -95 3t-140 3q-64 0 -152.5 -3t-113.5 -3q-89 0 -89 59q0 27 22 44.5t48 24.5t48 25.5t22 47.5q0 30 -19 82l-57 147q-11 32 -26 44.5t-48 12.5h-422q-33 0 -46.5 -12t-26.5 -45l-58 -143q-22 -61 -22 -82q0 -31 22.5 -50t49 -26.5t49 -25t22.5 -44.5q0 -59 -88 -59
q-31 0 -92 3t-92 3t-83 -3t-77 -3zM401 1722q0 65 47 107.5t119 42.5q69 0 113.5 -41t44.5 -105q0 -65 -45 -106t-117 -41q-70 0 -116 40t-46 103zM508 686q-16 -45 31 -45h311q47 0 31 45l-187 485zM831 1722q0 65 46 106.5t118 41.5q68 0 113 -40t45 -104t-45.5 -105.5
t-116.5 -41.5q-69 0 -114.5 40t-45.5 103z" />
    <glyph glyph-name="Aring" unicode="&#xc5;" horiz-adv-x="1550" 
d="M41 -4q-29 0 -46.5 14.5t-17.5 36.5q0 29 19.5 48t45.5 29t56.5 39t48.5 75l316 815q40 99 104 288q29 87 66 110.5t145 23.5q73 0 108.5 -11t54.5 -37t40 -88q59 -170 106 -286l316 -811q18 -46 47.5 -76t54 -41t42.5 -30t18 -48q0 -22 -16.5 -36.5t-43.5 -14.5
q-20 0 -95 3t-140 3q-64 0 -152.5 -3t-113.5 -3q-89 0 -89 59q0 27 22 44.5t48 24.5t48 25.5t22 47.5q0 30 -19 82l-57 147q-11 32 -26 44.5t-48 12.5h-422q-33 0 -46.5 -12t-26.5 -45l-58 -143q-22 -61 -22 -82q0 -31 22.5 -50t49 -26.5t49 -25t22.5 -44.5q0 -59 -88 -59
q-31 0 -92 3t-92 3t-83 -3t-77 -3zM508 686q-16 -45 31 -45h311q47 0 31 45l-187 485zM526 1745q0 104 68.5 158.5t193.5 54.5q120 0 185 -53t65 -152q0 -107 -67 -165t-193 -58q-124 0 -188 55t-64 160zM686 1739q0 -54 25.5 -83.5t70.5 -29.5q97 0 97 123q0 56 -25.5 84.5
t-69.5 28.5q-98 0 -98 -123z" />
    <glyph glyph-name="AE" unicode="&#xc6;" horiz-adv-x="2254" 
d="M1982 -49q-25 0 -65.5 24.5t-87.5 24.5h-627q-65 0 -135 -3t-84 -3q-76 0 -76 59q0 23 13 38t31.5 24.5t36.5 21.5t31 37.5t13 65.5v194q0 47 -41 47h-387q-34 0 -53 -13t-39 -46l-98 -139q-49 -74 -49 -109q0 -21 20.5 -35t45 -20.5t45 -23.5t20.5 -42q0 -59 -90 -59
q-36 0 -100 3t-95 3q-41 0 -111.5 -3t-89.5 -3q-27 0 -44 14.5t-17 36.5q0 27 13 42t37 24.5t51.5 20t62.5 37.5t63 69l606 880q4 6 19 27.5t22.5 33t15 30.5t7.5 34q0 34 -21 55.5t-45.5 30t-45.5 27.5t-21 49q0 26 22 42.5t62 16.5q14 0 83.5 -3t135.5 -3h749
q46 0 84.5 24.5t61.5 24.5q33 0 57.5 -23t52.5 -81l82 -182q23 -48 31.5 -67.5t15.5 -43t7 -43.5q0 -31 -17.5 -48.5t-42.5 -17.5q-15 0 -29.5 8t-23.5 16t-31 30q-35 37 -46.5 49t-41 42.5t-41.5 40.5t-38.5 32t-41.5 29.5t-40 21t-45.5 18t-46.5 8.5t-54 4h-117
q-77 0 -103 -21.5t-26 -74.5v-332q0 -30 13 -41.5t49 -11.5h116q41 0 72 23.5t47 51.5t39.5 51.5t50.5 23.5q23 0 39.5 -20t16.5 -60q0 -23 -3.5 -73t-3.5 -75q0 -26 3.5 -76t3.5 -73q0 -40 -16.5 -60t-39.5 -20q-27 0 -50.5 23.5t-39.5 51.5t-47 51.5t-72 23.5h-116
q-36 0 -49 -11.5t-13 -40.5v-354q0 -55 26 -76.5t103 -21.5h170q64 0 118 16t106 53.5t93.5 79t102.5 111.5q25 30 43 42.5t41 12.5q24 0 41.5 -17.5t17.5 -47.5q0 -29 -11 -59t-44 -101l-92 -201q-25 -51 -49 -73.5t-56 -22.5zM692 692q-33 -51 17 -51h282q41 0 41 47v510z
" />
    <glyph glyph-name="Ccedilla" unicode="&#xc7;" horiz-adv-x="1460" 
d="M778 -33h-18l-17 -61q27 8 66 8q89 0 146 -44t57 -112q0 -75 -66.5 -121.5t-169.5 -46.5q-123 0 -196 45q-33 18 -33 50q0 19 11 32t28 13q10 0 49 -13q78 -28 127 -28q41 0 65.5 15t24.5 40q0 51 -80 51q-35 0 -92 -22q-18 5 -42 25.5t-30 37.5l41 141q-122 21 -227 79
t-184 148t-124.5 218.5t-45.5 279.5q0 135 36.5 258.5t102 219t152 166t190.5 108t213 37.5q83 0 190.5 -24.5t120.5 -24.5q27 0 56 28.5t53 28.5q33 0 54 -27t42 -83l74 -197q4 -10 13 -32t12 -30t9.5 -24t8.5 -24t5 -19t4 -19.5t1 -17.5q0 -32 -20 -51t-46 -19
q-22 0 -39.5 13t-39.5 41q-63 82 -109 133.5t-98.5 96.5t-105 65t-111.5 20q-173 0 -288.5 -157.5t-115.5 -401.5q0 -257 128.5 -413t334.5 -156q117 0 212.5 53.5t162.5 144.5q13 17 20.5 25.5t24.5 18.5t35 10q29 0 47 -20t18 -50q0 -35 -31 -92q-70 -134 -238 -227
t-368 -93z" />
    <glyph glyph-name="Egrave" unicode="&#xc8;" horiz-adv-x="1454" 
d="M1182 -49q-25 0 -66 24.5t-88 24.5h-655q-65 0 -135 -3t-84 -3q-76 0 -76 59q0 23 13 38t31 24.5t36.5 21.5t31.5 37.5t13 65.5v979q0 40 -13 65.5t-31.5 37.5t-36.5 21t-31 24t-13 38q0 59 76 59q12 0 82 -3t137 -3h575q45 0 84 24.5t62 24.5q34 0 58 -23.5t50 -80.5
l84 -182q31 -66 42 -95.5t11 -58.5q0 -31 -17.5 -48.5t-41.5 -17.5q-22 0 -39 12t-45 42q-39 41 -52 55t-45.5 46.5t-47 44t-43 33.5t-48 29.5t-47 18.5t-55 14.5t-59.5 3.5h-129q-76 0 -101.5 -21t-25.5 -75v-332q0 -30 12.5 -41.5t48.5 -11.5h119q41 0 71.5 23.5
t45.5 51.5t37 51.5t49 23.5q61 0 61 -80q0 -23 -3 -73t-3 -75q0 -26 3 -76t3 -73q0 -80 -61 -80q-27 0 -49 23.5t-37 51.5t-45.5 51.5t-71.5 23.5h-119q-36 0 -48.5 -11.5t-12.5 -40.5v-354q0 -55 26 -76.5t101 -21.5h200q64 0 117.5 16t106 55t92.5 78.5t104 110.5
q25 30 43 42.5t41 12.5t41.5 -18t18.5 -47q0 -20 -7 -44t-15.5 -43.5t-33.5 -72.5l-94 -201q-24 -51 -47 -73.5t-55 -22.5zM375 1882q0 29 25.5 40t101.5 11q61 0 88.5 -11.5t48.5 -41.5q95 -138 158 -242q18 -32 18 -53q0 -16 -15 -26.5t-42 -10.5q-55 0 -101 41
q-40 33 -112.5 100t-93.5 85q-44 43 -60 64t-16 44z" />
    <glyph glyph-name="Eacute" unicode="&#xc9;" horiz-adv-x="1454" 
d="M1182 -49q-25 0 -66 24.5t-88 24.5h-655q-65 0 -135 -3t-84 -3q-76 0 -76 59q0 23 13 38t31 24.5t36.5 21.5t31.5 37.5t13 65.5v979q0 40 -13 65.5t-31.5 37.5t-36.5 21t-31 24t-13 38q0 59 76 59q12 0 82 -3t137 -3h575q45 0 84 24.5t62 24.5q34 0 58 -23.5t50 -80.5
l84 -182q31 -66 42 -95.5t11 -58.5q0 -31 -17.5 -48.5t-41.5 -17.5q-22 0 -39 12t-45 42q-39 41 -52 55t-45.5 46.5t-47 44t-43 33.5t-48 29.5t-47 18.5t-55 14.5t-59.5 3.5h-129q-76 0 -101.5 -21t-25.5 -75v-332q0 -30 12.5 -41.5t48.5 -11.5h119q41 0 71.5 23.5
t45.5 51.5t37 51.5t49 23.5q61 0 61 -80q0 -23 -3 -73t-3 -75q0 -26 3 -76t3 -73q0 -80 -61 -80q-27 0 -49 23.5t-37 51.5t-45.5 51.5t-71.5 23.5h-119q-36 0 -48.5 -11.5t-12.5 -40.5v-354q0 -55 26 -76.5t101 -21.5h200q64 0 117.5 16t106 55t92.5 78.5t104 110.5
q25 30 43 42.5t41 12.5t41.5 -18t18.5 -47q0 -20 -7 -44t-15.5 -43.5t-33.5 -72.5l-94 -201q-24 -51 -47 -73.5t-55 -22.5zM578 1585q0 21 18 53q91 147 160 242q21 30 48 41.5t87 11.5q77 0 103 -11t26 -40q0 -23 -16 -43.5t-62 -64.5q-11 -10 -87.5 -80t-117.5 -105
q-46 -41 -102 -41q-26 0 -41.5 11t-15.5 26z" />
    <glyph glyph-name="Ecircumflex" unicode="&#xca;" horiz-adv-x="1454" 
d="M1182 -49q-25 0 -66 24.5t-88 24.5h-655q-65 0 -135 -3t-84 -3q-76 0 -76 59q0 23 13 38t31 24.5t36.5 21.5t31.5 37.5t13 65.5v979q0 40 -13 65.5t-31.5 37.5t-36.5 21t-31 24t-13 38q0 59 76 59q12 0 82 -3t137 -3h575q45 0 84 24.5t62 24.5q34 0 58 -23.5t50 -80.5
l84 -182q31 -66 42 -95.5t11 -58.5q0 -31 -17.5 -48.5t-41.5 -17.5q-22 0 -39 12t-45 42q-39 41 -52 55t-45.5 46.5t-47 44t-43 33.5t-48 29.5t-47 18.5t-55 14.5t-59.5 3.5h-129q-76 0 -101.5 -21t-25.5 -75v-332q0 -30 12.5 -41.5t48.5 -11.5h119q41 0 71.5 23.5
t45.5 51.5t37 51.5t49 23.5q61 0 61 -80q0 -23 -3 -73t-3 -75q0 -26 3 -76t3 -73q0 -80 -61 -80q-27 0 -49 23.5t-37 51.5t-45.5 51.5t-71.5 23.5h-119q-36 0 -48.5 -11.5t-12.5 -40.5v-354q0 -55 26 -76.5t101 -21.5h200q64 0 117.5 16t106 55t92.5 78.5t104 110.5
q25 30 43 42.5t41 12.5t41.5 -18t18.5 -47q0 -20 -7 -44t-15.5 -43.5t-33.5 -72.5l-94 -201q-24 -51 -47 -73.5t-55 -22.5zM387 1614q0 22 25 61q70 99 159 205q30 34 57.5 45.5t84.5 11.5q55 0 81.5 -11.5t57.5 -45.5q95 -109 160 -205q26 -36 26 -61q0 -19 -18 -35
t-47 -16q-43 0 -90 45l-170 159l-170 -159q-47 -45 -92 -45q-28 0 -46 16t-18 35z" />
    <glyph glyph-name="Edieresis" unicode="&#xcb;" horiz-adv-x="1454" 
d="M1182 -49q-25 0 -66 24.5t-88 24.5h-655q-65 0 -135 -3t-84 -3q-76 0 -76 59q0 23 13 38t31 24.5t36.5 21.5t31.5 37.5t13 65.5v979q0 40 -13 65.5t-31.5 37.5t-36.5 21t-31 24t-13 38q0 59 76 59q12 0 82 -3t137 -3h575q45 0 84 24.5t62 24.5q34 0 58 -23.5t50 -80.5
l84 -182q31 -66 42 -95.5t11 -58.5q0 -31 -17.5 -48.5t-41.5 -17.5q-22 0 -39 12t-45 42q-39 41 -52 55t-45.5 46.5t-47 44t-43 33.5t-48 29.5t-47 18.5t-55 14.5t-59.5 3.5h-129q-76 0 -101.5 -21t-25.5 -75v-332q0 -30 12.5 -41.5t48.5 -11.5h119q41 0 71.5 23.5
t45.5 51.5t37 51.5t49 23.5q61 0 61 -80q0 -23 -3 -73t-3 -75q0 -26 3 -76t3 -73q0 -80 -61 -80q-27 0 -49 23.5t-37 51.5t-45.5 51.5t-71.5 23.5h-119q-36 0 -48.5 -11.5t-12.5 -40.5v-354q0 -55 26 -76.5t101 -21.5h200q64 0 117.5 16t106 55t92.5 78.5t104 110.5
q25 30 43 42.5t41 12.5t41.5 -18t18.5 -47q0 -20 -7 -44t-15.5 -43.5t-33.5 -72.5l-94 -201q-24 -51 -47 -73.5t-55 -22.5zM330 1722q0 65 47 107.5t119 42.5q69 0 113 -41t44 -105q0 -65 -44.5 -106t-116.5 -41q-70 0 -116 40t-46 103zM760 1722q0 65 46 106.5t118 41.5
q68 0 112.5 -40t44.5 -104t-45 -105.5t-116 -41.5q-69 0 -114.5 40t-45.5 103z" />
    <glyph glyph-name="Igrave" unicode="&#xcc;" horiz-adv-x="745" 
d="M152 -4q-37 0 -55.5 17t-18.5 42q0 23 13 38t31 24.5t36.5 21.5t31.5 37.5t13 65.5v975q0 40 -13 65.5t-31.5 37.5t-36.5 21.5t-31 24.5t-13 39q0 25 21 41t59 16q18 0 84 -3t131 -3t134.5 3t88.5 3q36 0 55 -16t19 -41q0 -24 -13 -39t-32 -24.5t-37.5 -21.5t-31.5 -37.5
t-13 -65.5v-975q0 -48 20 -77t43.5 -38t43.5 -26.5t20 -45.5q0 -25 -19 -42t-55 -17q-19 0 -88.5 3t-134.5 3t-134 -3t-87 -3zM33 1882q0 29 25.5 40t101.5 11q61 0 88.5 -11.5t48.5 -41.5q95 -138 158 -242q18 -32 18 -53q0 -16 -15 -26.5t-42 -10.5q-55 0 -101 41
q-40 33 -112.5 100t-93.5 85q-44 43 -60 64t-16 44z" />
    <glyph glyph-name="Iacute" unicode="&#xcd;" horiz-adv-x="745" 
d="M152 -4q-37 0 -55.5 17t-18.5 42q0 23 13 38t31 24.5t36.5 21.5t31.5 37.5t13 65.5v975q0 40 -13 65.5t-31.5 37.5t-36.5 21.5t-31 24.5t-13 39q0 25 21 41t59 16q18 0 84 -3t131 -3t134.5 3t88.5 3q36 0 55 -16t19 -41q0 -24 -13 -39t-32 -24.5t-37.5 -21.5t-31.5 -37.5
t-13 -65.5v-975q0 -48 20 -77t43.5 -38t43.5 -26.5t20 -45.5q0 -25 -19 -42t-55 -17q-19 0 -88.5 3t-134.5 3t-134 -3t-87 -3zM236 1585q0 21 18 53q91 147 160 242q21 30 48 41.5t87 11.5q77 0 103 -11t26 -40q0 -23 -16 -43.5t-62 -64.5q-11 -10 -87.5 -80t-117.5 -105
q-46 -41 -102 -41q-26 0 -41.5 11t-15.5 26z" />
    <glyph glyph-name="Icircumflex" unicode="&#xce;" horiz-adv-x="745" 
d="M152 -4q-37 0 -55.5 17t-18.5 42q0 23 13 38t31 24.5t36.5 21.5t31.5 37.5t13 65.5v975q0 40 -13 65.5t-31.5 37.5t-36.5 21.5t-31 24.5t-13 39q0 25 21 41t59 16q18 0 84 -3t131 -3t134.5 3t88.5 3q36 0 55 -16t19 -41q0 -24 -13 -39t-32 -24.5t-37.5 -21.5t-31.5 -37.5
t-13 -65.5v-975q0 -48 20 -77t43.5 -38t43.5 -26.5t20 -45.5q0 -25 -19 -42t-55 -17q-19 0 -88.5 3t-134.5 3t-134 -3t-87 -3zM45 1614q0 22 25 61q70 99 159 205q30 34 57.5 45.5t84.5 11.5q55 0 81.5 -11.5t57.5 -45.5q95 -109 160 -205q26 -36 26 -61q0 -19 -18 -35
t-47 -16q-43 0 -90 45l-170 159l-170 -159q-47 -45 -92 -45q-28 0 -46 16t-18 35z" />
    <glyph glyph-name="Idieresis" unicode="&#xcf;" horiz-adv-x="745" 
d="M152 -4q-37 0 -55.5 17t-18.5 42q0 23 13 38t31 24.5t36.5 21.5t31.5 37.5t13 65.5v975q0 40 -13 65.5t-31.5 37.5t-36.5 21.5t-31 24.5t-13 39q0 25 21 41t59 16q18 0 84 -3t131 -3t134.5 3t88.5 3q36 0 55 -16t19 -41q0 -24 -13 -39t-32 -24.5t-37.5 -21.5t-31.5 -37.5
t-13 -65.5v-975q0 -48 20 -77t43.5 -38t43.5 -26.5t20 -45.5q0 -25 -19 -42t-55 -17q-19 0 -88.5 3t-134.5 3t-134 -3t-87 -3zM-12 1722q0 65 47 107.5t119 42.5q69 0 113 -41t44 -105q0 -65 -44.5 -106t-116.5 -41q-70 0 -116 40t-46 103zM418 1722q0 65 46 106.5t118 41.5
q68 0 112.5 -40t44.5 -104t-45 -105.5t-116 -41.5q-69 0 -114.5 40t-45.5 103z" />
    <glyph glyph-name="Eth" unicode="&#xd0;" horiz-adv-x="1656" 
d="M121 670q-44 0 -62 18.5t-18 59.5q0 40 18 59.5t62 19.5h86v390q0 40 -13 65.5t-31.5 37.5t-37.5 21t-32 24t-13 38q0 26 19.5 42.5t58.5 16.5q14 0 84 -3t135 -3q59 0 177 7t177 7q180 0 337 -53t272.5 -149.5t182 -240t66.5 -314.5q0 -157 -55.5 -289.5t-157 -227.5
t-250 -148.5t-327.5 -53.5q-71 0 -212 4t-210 4q-65 0 -135 -3t-84 -3q-39 0 -58.5 16.5t-19.5 42.5q0 28 20 45.5t43.5 26.5t43.5 38t20 77v428h-86zM547 252q0 -53 30 -74.5t107 -21.5h59q229 0 350 145.5t121 421.5q0 274 -133 430t-358 156h-39q-78 0 -107.5 -22.5
t-29.5 -74.5v-385h266q43 0 61.5 -19.5t18.5 -59.5q0 -41 -18.5 -59.5t-61.5 -18.5h-266v-418z" />
    <glyph glyph-name="Ntilde" unicode="&#xd1;" horiz-adv-x="1601" 
d="M1331 -18q-39 0 -65.5 17.5t-57.5 53.5l-811 994v-805q0 -38 17 -62.5t41.5 -35t49 -19.5t41.5 -26t17 -44q0 -28 -21.5 -43.5t-60.5 -15.5q-29 0 -87.5 3t-84.5 3q-24 0 -79.5 -3t-82.5 -3q-36 0 -55.5 17t-19.5 42q0 23 14 38t33.5 24.5t39.5 21.5t34 37.5t14 65.5v975
q0 40 -14 65.5t-33.5 37.5t-39.5 21t-34 24t-14 38q0 27 22 43t62 16q22 0 69 -2t72 -2q28 0 68.5 2t58.5 2q62 0 111 -57l688 -850v662q0 39 -17 63.5t-41 35.5t-48 20t-41 25.5t-17 43.5q0 24 22.5 40.5t59.5 16.5q28 0 84.5 -3t87.5 -3q27 0 81 3t79 3q38 0 56.5 -16
t18.5 -41q0 -24 -13.5 -39t-33 -24.5t-39.5 -21.5t-33.5 -37.5t-13.5 -65.5v-1149q0 -42 -24.5 -64t-59.5 -22zM485 1661q0 35 15 76q24 73 72 118.5t110 45.5q44 0 87.5 -23.5t71 -51.5t57 -51.5t48.5 -23.5q27 0 64 64q27 46 40 56q15 11 35 11q26 0 41 -15.5t15 -43.5
q0 -27 -15 -76q-26 -75 -73.5 -119.5t-110.5 -44.5q-44 0 -88 23.5t-72.5 51.5t-56.5 51.5t-45 23.5q-29 0 -66 -64q-28 -47 -40 -56q-14 -11 -33 -11q-26 0 -41 15.5t-15 43.5z" />
    <glyph glyph-name="Ograve" unicode="&#xd2;" horiz-adv-x="1693" 
d="M846 -35q-165 0 -307.5 50t-248.5 142.5t-166.5 232.5t-60.5 310t61 318.5t166 252t249.5 163t306.5 59.5q222 0 401 -99.5t281 -278t102 -402.5q0 -225 -99.5 -395.5t-277 -261.5t-407.5 -91zM438 721q0 -115 27 -219.5t77.5 -186t129.5 -130t176 -48.5q98 0 177 47.5
t128.5 128.5t75.5 186t26 224q0 116 -26.5 222.5t-76 192t-128.5 136.5t-176 51q-128 0 -223 -86.5t-141 -222t-46 -295.5zM514 1894q0 29 26 40.5t101 11.5q61 0 88.5 -11.5t48.5 -42.5q100 -145 158 -241q18 -32 18 -54q0 -16 -15 -26t-42 -10q-54 0 -100 41
q-41 33 -114 100t-93 84q-44 43 -60 64t-16 44z" />
    <glyph glyph-name="Oacute" unicode="&#xd3;" horiz-adv-x="1693" 
d="M846 -35q-165 0 -307.5 50t-248.5 142.5t-166.5 232.5t-60.5 310t61 318.5t166 252t249.5 163t306.5 59.5q222 0 401 -99.5t281 -278t102 -402.5q0 -225 -99.5 -395.5t-277 -261.5t-407.5 -91zM438 721q0 -115 27 -219.5t77.5 -186t129.5 -130t176 -48.5q98 0 177 47.5
t128.5 128.5t75.5 186t26 224q0 116 -26.5 222.5t-76 192t-128.5 136.5t-176 51q-128 0 -223 -86.5t-141 -222t-46 -295.5zM717 1597q0 22 18 54q87 139 160 241q21 31 48.5 42.5t86.5 11.5q77 0 103 -11.5t26 -40.5q0 -23 -16 -43.5t-62 -64.5q-11 -9 -87 -79t-117 -105
q-46 -41 -103 -41q-26 0 -41.5 10.5t-15.5 25.5z" />
    <glyph glyph-name="Ocircumflex" unicode="&#xd4;" horiz-adv-x="1693" 
d="M846 -35q-165 0 -307.5 50t-248.5 142.5t-166.5 232.5t-60.5 310t61 318.5t166 252t249.5 163t306.5 59.5q222 0 401 -99.5t281 -278t102 -402.5q0 -225 -99.5 -395.5t-277 -261.5t-407.5 -91zM438 721q0 -115 27 -219.5t77.5 -186t129.5 -130t176 -48.5q98 0 177 47.5
t128.5 128.5t75.5 186t26 224q0 116 -26.5 222.5t-76 192t-128.5 136.5t-176 51q-128 0 -223 -86.5t-141 -222t-46 -295.5zM526 1626q0 23 25 62q60 85 160 204q31 34 58 46t83 12q55 0 81.5 -12t57.5 -46q98 -113 160 -204q27 -38 27 -62q0 -19 -18.5 -35t-47.5 -16
q-43 0 -90 45l-170 160l-170 -160q-47 -45 -92 -45q-28 0 -46 16t-18 35z" />
    <glyph glyph-name="Otilde" unicode="&#xd5;" horiz-adv-x="1693" 
d="M846 -35q-165 0 -307.5 50t-248.5 142.5t-166.5 232.5t-60.5 310t61 318.5t166 252t249.5 163t306.5 59.5q222 0 401 -99.5t281 -278t102 -402.5q0 -225 -99.5 -395.5t-277 -261.5t-407.5 -91zM438 721q0 -115 27 -219.5t77.5 -186t129.5 -130t176 -48.5q98 0 177 47.5
t128.5 128.5t75.5 186t26 224q0 116 -26.5 222.5t-76 192t-128.5 136.5t-176 51q-128 0 -223 -86.5t-141 -222t-46 -295.5zM520 1673q0 35 15 76q24 73 72 118.5t110 45.5q44 0 87.5 -23.5t71 -51.5t57 -51.5t48.5 -23.5q26 0 63 64q13 22 17 28t14.5 19t20.5 16.5t24 3.5
q26 0 41 -15.5t15 -43.5q0 -27 -15 -76q-26 -75 -73.5 -119.5t-110.5 -44.5q-44 0 -88 23.5t-72.5 51.5t-56.5 51.5t-45 23.5q-29 0 -66 -64q-28 -47 -42 -57t-32 -10q-26 0 -40.5 15.5t-14.5 43.5z" />
    <glyph glyph-name="Odieresis" unicode="&#xd6;" horiz-adv-x="1693" 
d="M846 -35q-165 0 -307.5 50t-248.5 142.5t-166.5 232.5t-60.5 310t61 318.5t166 252t249.5 163t306.5 59.5q222 0 401 -99.5t281 -278t102 -402.5q0 -225 -99.5 -395.5t-277 -261.5t-407.5 -91zM438 721q0 -115 27 -219.5t77.5 -186t129.5 -130t176 -48.5q98 0 177 47.5
t128.5 128.5t75.5 186t26 224q0 116 -26.5 222.5t-76 192t-128.5 136.5t-176 51q-128 0 -223 -86.5t-141 -222t-46 -295.5zM469 1735q0 65 47 107t119 42q69 0 113.5 -40.5t44.5 -104.5q0 -65 -45 -106.5t-117 -41.5q-69 0 -115.5 40.5t-46.5 103.5zM899 1735q0 65 46 106
t118 41q68 0 113 -39.5t45 -103.5t-45.5 -106t-116.5 -42q-69 0 -114.5 40.5t-45.5 103.5z" />
    <glyph glyph-name="multiply" unicode="&#xd7;" horiz-adv-x="1038" 
d="M203 195q-34 0 -77.5 41t-43.5 79q0 21 18 39l256 256q11 11 11 21q0 9 -11 20l-256 254q-18 21 -18 41q0 36 42.5 78.5t78.5 42.5q26 0 41 -18l256 -254q9 -13 20 -13q10 0 19 13l256 254q18 18 41 18q33 0 76.5 -42t43.5 -79q0 -20 -18 -41l-256 -254q-10 -15 -10 -20
q0 -6 10 -21l256 -256q18 -18 18 -39q0 -36 -42 -78t-78 -42q-23 0 -41 18l-256 254q-7 10 -19 10q-13 0 -20 -10l-256 -254q-15 -18 -41 -18z" />
    <glyph glyph-name="Oslash" unicode="&#xd8;" horiz-adv-x="1734" 
d="M162 -25q-24 0 -53 26.5t-29 57.5t29 60l118 112q-155 191 -155 469q0 170 61 318.5t165.5 252t249 163t306.5 59.5q297 0 504 -170l135 131q32 29 57 29q22 0 52 -26t30 -58q0 -28 -30 -58l-134 -129q170 -204 170 -499q0 -225 -99.5 -395.5t-277 -261.5t-407.5 -91
q-303 0 -512 158l-123 -117q-27 -31 -57 -31zM446 721q0 -133 35 -252l682 661q-113 195 -307 195q-128 0 -223 -86.5t-141 -222t-46 -295.5zM545 328q53 -90 132 -140.5t179 -50.5q130 0 224.5 82.5t139 213t44.5 290.5q0 141 -37 262z" />
    <glyph glyph-name="Ugrave" unicode="&#xd9;" horiz-adv-x="1507" 
d="M756 -31q-136 0 -245.5 27t-195.5 84.5t-133 155t-47 229.5q0 67 6 137l47 547q7 54 7 88q0 24 -5 41t-19 29.5t-20 16.5t-26 15q-28 13 -41.5 26t-13.5 40q0 25 18 41t55 16q17 0 87 -3t135 -3t141 3t94 3q38 0 56 -16t18 -41q0 -28 -14 -42.5t-42 -27.5
q-19 -10 -28 -15.5t-23.5 -19.5t-22 -34.5t-9.5 -48.5l-52 -621q-6 -99 -6 -119q0 -149 89 -226t259 -79q77 0 139 16t111.5 50.5t77 94t27.5 140.5q0 26 -9 105l-55 639q-2 27 -10.5 46.5t-24.5 31.5t-28.5 18t-34.5 14q-19 8 -27.5 12.5t-20.5 13.5t-17 21.5t-5 30.5
q0 25 21 41t59 16q29 0 90 -3t86 -3q24 0 80.5 3t83.5 3q36 0 55 -16t19 -41q0 -18 -9 -31.5t-19 -19.5t-30 -15q-25 -12 -37.5 -20t-25 -29.5t-12.5 -52.5q0 -41 6 -88l49 -569q8 -106 8 -123q0 -104 -30.5 -186.5t-84.5 -138t-131.5 -92.5t-169 -53.5t-200.5 -17.5z
M446 1882q0 29 25.5 40t101.5 11q61 0 89 -11.5t49 -41.5q88 -127 157 -242q19 -34 19 -53q0 -16 -15.5 -26.5t-42.5 -10.5q-54 0 -100 41q-41 33 -113.5 100t-93.5 85q-44 43 -60 64t-16 44z" />
    <glyph glyph-name="Uacute" unicode="&#xda;" horiz-adv-x="1507" 
d="M756 -31q-136 0 -245.5 27t-195.5 84.5t-133 155t-47 229.5q0 67 6 137l47 547q7 54 7 88q0 24 -5 41t-19 29.5t-20 16.5t-26 15q-28 13 -41.5 26t-13.5 40q0 25 18 41t55 16q17 0 87 -3t135 -3t141 3t94 3q38 0 56 -16t18 -41q0 -28 -14 -42.5t-42 -27.5
q-19 -10 -28 -15.5t-23.5 -19.5t-22 -34.5t-9.5 -48.5l-52 -621q-6 -99 -6 -119q0 -149 89 -226t259 -79q77 0 139 16t111.5 50.5t77 94t27.5 140.5q0 26 -9 105l-55 639q-2 27 -10.5 46.5t-24.5 31.5t-28.5 18t-34.5 14q-19 8 -27.5 12.5t-20.5 13.5t-17 21.5t-5 30.5
q0 25 21 41t59 16q29 0 90 -3t86 -3q24 0 80.5 3t83.5 3q36 0 55 -16t19 -41q0 -18 -9 -31.5t-19 -19.5t-30 -15q-25 -12 -37.5 -20t-25 -29.5t-12.5 -52.5q0 -41 6 -88l49 -569q8 -106 8 -123q0 -104 -30.5 -186.5t-84.5 -138t-131.5 -92.5t-169 -53.5t-200.5 -17.5z
M649 1585q0 19 19 53q98 157 159 242q21 30 48.5 41.5t87.5 11.5q77 0 103 -11t26 -40q0 -23 -16 -43.5t-62 -64.5q-11 -10 -87.5 -80t-117.5 -105q-46 -41 -102 -41q-26 0 -42 11t-16 26z" />
    <glyph glyph-name="Ucircumflex" unicode="&#xdb;" horiz-adv-x="1507" 
d="M756 -31q-136 0 -245.5 27t-195.5 84.5t-133 155t-47 229.5q0 67 6 137l47 547q7 54 7 88q0 24 -5 41t-19 29.5t-20 16.5t-26 15q-28 13 -41.5 26t-13.5 40q0 25 18 41t55 16q17 0 87 -3t135 -3t141 3t94 3q38 0 56 -16t18 -41q0 -28 -14 -42.5t-42 -27.5
q-19 -10 -28 -15.5t-23.5 -19.5t-22 -34.5t-9.5 -48.5l-52 -621q-6 -99 -6 -119q0 -149 89 -226t259 -79q77 0 139 16t111.5 50.5t77 94t27.5 140.5q0 26 -9 105l-55 639q-2 27 -10.5 46.5t-24.5 31.5t-28.5 18t-34.5 14q-19 8 -27.5 12.5t-20.5 13.5t-17 21.5t-5 30.5
q0 25 21 41t59 16q29 0 90 -3t86 -3q24 0 80.5 3t83.5 3q36 0 55 -16t19 -41q0 -18 -9 -31.5t-19 -19.5t-30 -15q-25 -12 -37.5 -20t-25 -29.5t-12.5 -52.5q0 -41 6 -88l49 -569q8 -106 8 -123q0 -104 -30.5 -186.5t-84.5 -138t-131.5 -92.5t-169 -53.5t-200.5 -17.5z
M459 1614q0 24 24 61q65 91 160 205q31 34 58 45.5t83 11.5q55 0 82.5 -11.5t57.5 -45.5q90 -104 159 -205q27 -37 27 -61q0 -19 -18.5 -35t-47.5 -16q-43 0 -90 45l-170 159l-170 -159q-47 -45 -92 -45q-28 0 -45.5 16t-17.5 35z" />
    <glyph glyph-name="Udieresis" unicode="&#xdc;" horiz-adv-x="1507" 
d="M756 -31q-136 0 -245.5 27t-195.5 84.5t-133 155t-47 229.5q0 67 6 137l47 547q7 54 7 88q0 24 -5 41t-19 29.5t-20 16.5t-26 15q-28 13 -41.5 26t-13.5 40q0 25 18 41t55 16q17 0 87 -3t135 -3t141 3t94 3q38 0 56 -16t18 -41q0 -28 -14 -42.5t-42 -27.5
q-19 -10 -28 -15.5t-23.5 -19.5t-22 -34.5t-9.5 -48.5l-52 -621q-6 -99 -6 -119q0 -149 89 -226t259 -79q77 0 139 16t111.5 50.5t77 94t27.5 140.5q0 26 -9 105l-55 639q-2 27 -10.5 46.5t-24.5 31.5t-28.5 18t-34.5 14q-19 8 -27.5 12.5t-20.5 13.5t-17 21.5t-5 30.5
q0 25 21 41t59 16q29 0 90 -3t86 -3q24 0 80.5 3t83.5 3q36 0 55 -16t19 -41q0 -18 -9 -31.5t-19 -19.5t-30 -15q-25 -12 -37.5 -20t-25 -29.5t-12.5 -52.5q0 -41 6 -88l49 -569q8 -106 8 -123q0 -104 -30.5 -186.5t-84.5 -138t-131.5 -92.5t-169 -53.5t-200.5 -17.5z
M401 1722q0 65 47 107.5t119 42.5q69 0 113.5 -41t44.5 -105q0 -65 -45 -106t-117 -41q-70 0 -116 40t-46 103zM831 1722q0 65 46 106.5t118 41.5q68 0 113 -40t45 -104t-45.5 -105.5t-116.5 -41.5q-69 0 -114.5 40t-45.5 103z" />
    <glyph glyph-name="Yacute" unicode="&#xdd;" horiz-adv-x="1458" 
d="M471 -4q-36 0 -54 17t-18 42q0 26 16.5 42t39.5 25.5t46 20.5t39.5 36t16.5 65v303l-410 700q-19 33 -46.5 57t-47 34.5t-33.5 28t-14 42.5t16.5 39t45.5 14q19 0 94 -3t139 -3q59 0 143.5 3t108.5 3q86 0 86 -57q0 -27 -18 -43t-39.5 -22.5t-39.5 -23.5t-18 -46
q0 -30 39 -99l250 -444l258 438q37 67 37 99q0 30 -20.5 48.5t-45 25.5t-45 23.5t-20.5 43.5q0 57 82 57q29 0 88 -3t86 -3q26 0 84 3t86 3t43.5 -14t15.5 -37q0 -26 -15.5 -43.5t-37 -27.5t-50.5 -34.5t-50 -60.5l-412 -702v-299q0 -40 16.5 -65t39.5 -36t46 -20.5
t39.5 -25.5t16.5 -42q0 -25 -18 -42t-54 -17q-23 0 -104 3t-152 3t-153 -3t-103 -3zM645 1585q0 19 19 53q98 157 159 242q21 30 48 41.5t87 11.5q77 0 103 -11t26 -40q0 -23 -16 -44t-61 -64q-11 -10 -87.5 -80t-117.5 -105q-46 -41 -103 -41q-26 0 -41.5 11t-15.5 26z" />
    <glyph glyph-name="Thorn" unicode="&#xde;" horiz-adv-x="1474" 
d="M711 244q-91 0 -168 6v-12q0 -40 16.5 -64.5t39.5 -35t46.5 -19.5t40 -24.5t16.5 -41.5q0 -25 -18.5 -42t-54.5 -17q-20 0 -102.5 3t-153.5 3q-65 0 -134 -3t-87 -3q-37 0 -55.5 17t-18.5 42q0 23 13 38t31 24.5t36.5 21.5t31.5 37.5t13 65.5v979q0 40 -13 65.5
t-31.5 37.5t-36.5 21.5t-31 24.5t-13 39q0 25 18 41t56 16q18 0 87 -3t134 -3q71 0 153.5 3t102.5 3q36 0 54.5 -16t18.5 -41q0 -30 -23.5 -47.5t-52 -24t-54.5 -30.5t-29 -66q88 6 219 6q307 0 482 -135t175 -367q0 -88 -22.5 -161t-75 -136.5t-133 -107.5t-201.5 -69
t-276 -25zM543 487q0 -50 38.5 -65.5t133.5 -15.5q156 0 244 87.5t88 245.5q0 169 -90 258.5t-234 89.5q-99 0 -139.5 -19.5t-40.5 -76.5v-504z" />
    <glyph glyph-name="germandbls" unicode="&#xdf;" horiz-adv-x="1484" 
d="M770 -47q-19 0 -35.5 16t-24 32.5t-18.5 43.5l-53 145q-39 98 -42 126q-1 7 -1 14q0 28 15.5 43.5t35.5 15.5q31 0 68 -49q80 -106 160.5 -167.5t175.5 -61.5q56 0 92.5 33t36.5 81q0 31 -16 56t-47 45.5t-66 37t-83 36.5q-13 5 -20 8q-144 64 -193 97q-112 75 -123 189
q-1 14 -1 29q0 65 25 120.5t60.5 95.5t71.5 78t62.5 87t28.5 104q3 79 -48.5 122.5t-125.5 43.5q-114 0 -172 -86t-58 -241v-807q0 -42 11.5 -69.5t27.5 -39.5t32.5 -20.5t28 -22.5t11.5 -37t-18 -40t-52 -17q-17 0 -74.5 3t-115.5 3q-59 0 -124 -3t-83 -3q-35 0 -52.5 16.5
t-17.5 40.5q0 22 12.5 36t29.5 23t34.5 21t30 39.5t12.5 69.5v759q0 261 132.5 406t393.5 145q127 0 234.5 -36t176 -111.5t64.5 -177.5q-2 -65 -27.5 -117t-60 -85.5t-68.5 -62.5t-57.5 -61t-23.5 -68q0 -16 4 -29t17.5 -26t22.5 -20.5t37 -21t42.5 -19.5t54.5 -23
q65 -28 107.5 -49t92.5 -55.5t79 -70.5t49 -88t20 -114q0 -106 -55 -186.5t-139 -120t-179 -39.5q-59 0 -132.5 18.5t-82.5 18.5q-20 0 -46 -26.5t-54 -26.5z" />
    <glyph glyph-name="agrave" unicode="&#xe0;" horiz-adv-x="1236" 
d="M1010 -16q-71 0 -130 36t-92 103q-66 -64 -163 -106t-215 -42q-167 0 -266 88t-99 228q0 145 114.5 239.5t315.5 94.5q122 0 234 -33l-4 24q-35 242 -220 242q-108 0 -231 -80q-54 -30 -78 -30q-20 0 -36.5 16t-16.5 41q0 45 65 102q65 65 168.5 104.5t227.5 39.5
q368 0 417 -355l48 -338q7 -50 19 -81.5t35.5 -51t50 -28.5t73.5 -19q39 -7 39 -41q0 -50 -72.5 -101.5t-183.5 -51.5zM268 1503q0 29 25.5 40t101.5 11q61 0 88.5 -11.5t48.5 -41.5q100 -145 158 -241q19 -34 19 -54q0 -16 -15.5 -26.5t-42.5 -10.5q-54 0 -100 41
q-41 33 -113.5 100t-93.5 85q-44 43 -60 64t-16 44zM362 326q0 -77 50.5 -124.5t128.5 -47.5q61 0 119.5 28t93.5 66l-29 215q-68 22 -152 22q-98 0 -154.5 -41t-56.5 -118z" />
    <glyph glyph-name="aacute" unicode="&#xe1;" horiz-adv-x="1236" 
d="M1010 -16q-71 0 -130 36t-92 103q-66 -64 -163 -106t-215 -42q-167 0 -266 88t-99 228q0 145 114.5 239.5t315.5 94.5q122 0 234 -33l-4 24q-35 242 -220 242q-108 0 -231 -80q-54 -30 -78 -30q-20 0 -36.5 16t-16.5 41q0 45 65 102q65 65 168.5 104.5t227.5 39.5
q368 0 417 -355l48 -338q7 -50 19 -81.5t35.5 -51t50 -28.5t73.5 -19q39 -7 39 -41q0 -50 -72.5 -101.5t-183.5 -51.5zM362 326q0 -77 50.5 -124.5t128.5 -47.5q61 0 119.5 28t93.5 66l-29 215q-68 22 -152 22q-98 0 -154.5 -41t-56.5 -118zM471 1206q0 22 18 54
q87 139 160 241q21 30 48 41.5t87 11.5q77 0 103 -11t26 -40q0 -23 -16 -44t-61 -64q-11 -10 -87.5 -80t-117.5 -105q-46 -41 -103 -41q-26 0 -41.5 11t-15.5 26z" />
    <glyph glyph-name="acircumflex" unicode="&#xe2;" horiz-adv-x="1236" 
d="M1010 -16q-71 0 -130 36t-92 103q-66 -64 -163 -106t-215 -42q-167 0 -266 88t-99 228q0 145 114.5 239.5t315.5 94.5q122 0 234 -33l-4 24q-35 242 -220 242q-108 0 -231 -80q-54 -30 -78 -30q-20 0 -36.5 16t-16.5 41q0 45 65 102q65 65 168.5 104.5t227.5 39.5
q368 0 417 -355l48 -338q7 -50 19 -81.5t35.5 -51t50 -28.5t73.5 -19q39 -7 39 -41q0 -50 -72.5 -101.5t-183.5 -51.5zM281 1235q0 23 24 61q65 91 160 205q31 34 58 46t83 12q55 0 81.5 -12t57.5 -46q95 -109 160 -205q27 -38 27 -61q0 -19 -18.5 -35t-47.5 -16
q-43 0 -90 45l-170 160l-170 -160q-47 -45 -92 -45q-28 0 -45.5 16t-17.5 35zM362 326q0 -77 50.5 -124.5t128.5 -47.5q61 0 119.5 28t93.5 66l-29 215q-68 22 -152 22q-98 0 -154.5 -41t-56.5 -118z" />
    <glyph glyph-name="atilde" unicode="&#xe3;" horiz-adv-x="1236" 
d="M1010 -16q-71 0 -130 36t-92 103q-66 -64 -163 -106t-215 -42q-167 0 -266 88t-99 228q0 145 114.5 239.5t315.5 94.5q122 0 234 -33l-4 24q-35 242 -220 242q-108 0 -231 -80q-54 -30 -78 -30q-20 0 -36.5 16t-16.5 41q0 45 65 102q65 65 168.5 104.5t227.5 39.5
q368 0 417 -355l48 -338q7 -50 19 -81.5t35.5 -51t50 -28.5t73.5 -19q39 -7 39 -41q0 -50 -72.5 -101.5t-183.5 -51.5zM274 1282q0 35 15 76q24 73 72 118.5t110 45.5q44 0 87.5 -23.5t71 -51.5t57 -51.5t48.5 -23.5q27 0 64 64q27 46 40 56q15 11 35 11q26 0 41 -15.5
t15 -43.5q0 -26 -15 -76q-26 -75 -73.5 -119.5t-110.5 -44.5q-44 0 -88 23.5t-72.5 51.5t-56.5 51.5t-45 23.5q-29 0 -66 -64q-28 -47 -40 -56q-14 -11 -33 -11q-26 0 -41 15.5t-15 43.5zM362 326q0 -77 50.5 -124.5t128.5 -47.5q61 0 119.5 28t93.5 66l-29 215
q-68 22 -152 22q-98 0 -154.5 -41t-56.5 -118z" />
    <glyph glyph-name="adieresis" unicode="&#xe4;" horiz-adv-x="1236" 
d="M1010 -16q-71 0 -130 36t-92 103q-66 -64 -163 -106t-215 -42q-167 0 -266 88t-99 228q0 145 114.5 239.5t315.5 94.5q122 0 234 -33l-4 24q-35 242 -220 242q-108 0 -231 -80q-54 -30 -78 -30q-20 0 -36.5 16t-16.5 41q0 45 65 102q65 65 168.5 104.5t227.5 39.5
q368 0 417 -355l48 -338q7 -50 19 -81.5t35.5 -51t50 -28.5t73.5 -19q39 -7 39 -41q0 -50 -72.5 -101.5t-183.5 -51.5zM223 1343q0 65 47 107.5t119 42.5q69 0 113.5 -40.5t44.5 -104.5q0 -65 -45 -106.5t-117 -41.5q-70 0 -116 40t-46 103zM362 326q0 -77 50.5 -124.5
t128.5 -47.5q61 0 119.5 28t93.5 66l-29 215q-68 22 -152 22q-98 0 -154.5 -41t-56.5 -118zM653 1343q0 65 46 106.5t118 41.5q68 0 113 -39.5t45 -103.5t-45.5 -106t-116.5 -42q-69 0 -114.5 40t-45.5 103z" />
    <glyph glyph-name="aring" unicode="&#xe5;" horiz-adv-x="1236" 
d="M1010 -16q-71 0 -130 36t-92 103q-66 -64 -163 -106t-215 -42q-167 0 -266 88t-99 228q0 145 114.5 239.5t315.5 94.5q122 0 234 -33l-4 24q-35 242 -220 242q-108 0 -231 -80q-54 -30 -78 -30q-20 0 -36.5 16t-16.5 41q0 45 65 102q65 65 168.5 104.5t227.5 39.5
q368 0 417 -355l48 -338q7 -50 19 -81.5t35.5 -51t50 -28.5t73.5 -19q39 -7 39 -41q0 -50 -72.5 -101.5t-183.5 -51.5zM348 1366q0 104 68.5 158.5t193.5 54.5q120 0 185 -53t65 -152q0 -107 -67 -165t-193 -58q-124 0 -188 55t-64 160zM362 326q0 -77 50.5 -124.5
t128.5 -47.5q61 0 119.5 28t93.5 66l-29 215q-68 22 -152 22q-98 0 -154.5 -41t-56.5 -118zM508 1360q0 -54 25.5 -83.5t70.5 -29.5q96 0 96 123q0 56 -25 84.5t-69 28.5q-98 0 -98 -123z" />
    <glyph glyph-name="ae" unicode="&#xe6;" horiz-adv-x="1830" 
d="M1268 -27q-282 0 -430 181q-70 -75 -179 -128t-243 -53q-171 0 -271 88t-100 230q0 145 114.5 239.5t315.5 94.5q120 0 232 -33l-2 24q-32 242 -220 242q-111 0 -231 -78q-54 -30 -78 -30q-20 0 -36.5 15.5t-16.5 41.5q0 45 65 102q65 64 168.5 104t223.5 40
q219 0 329 -129q160 129 373 129q106 0 196.5 -35.5t149.5 -92.5t92 -128.5t33 -145.5q0 -42 -12.5 -57t-44.5 -23l-611 -188q49 -93 134 -150t190 -57q136 0 264 100q49 35 70 35q23 0 36 -17.5t13 -35.5q0 -22 -20 -55q-57 -88 -195 -159t-309 -71zM362 326
q0 -78 51.5 -126t133.5 -48q67 0 127.5 29.5t99.5 72.5q-37 82 -49 182l-4 27q-68 22 -148 22q-98 0 -154.5 -41t-56.5 -118zM1028 614q0 -32 8 -94l353 113q26 9 38.5 22t12.5 41q0 72 -58.5 135.5t-142.5 63.5q-93 0 -152 -76.5t-59 -204.5z" />
    <glyph glyph-name="ccedilla" unicode="&#xe7;" horiz-adv-x="1124" 
d="M635 -410q-124 0 -197 45q-32 18 -32 50q0 19 10.5 32t27.5 13q11 0 50 -13q78 -28 127 -28q41 0 65.5 15t24.5 40q0 51 -80 51q-35 0 -92 -22q-18 5 -42 25.5t-30 37.5l41 139q-202 30 -327.5 167.5t-125.5 351.5q0 125 47 231.5t125.5 177.5t181 110.5t214.5 39.5
q89 0 171 -25t137 -63t87.5 -81t32.5 -79q0 -41 -33 -93.5t-100 -105.5q-42 -33 -66 -33q-55 0 -68 68q-27 121 -51 170q-52 109 -151 109q-94 0 -150.5 -83t-56.5 -221q0 -190 105 -313t257 -123q140 0 264 115q27 27 52 27q19 0 32 -16t13 -36q0 -23 -17 -57
q-47 -91 -169.5 -166t-293.5 -78l-16 -63q27 8 66 8q89 0 145.5 -44t56.5 -112q0 -75 -66 -121.5t-169 -46.5z" />
    <glyph glyph-name="egrave" unicode="&#xe8;" horiz-adv-x="1169" 
d="M606 -31q-240 0 -395.5 148t-155.5 387q0 161 79 288t207.5 194t279.5 67q105 0 195.5 -35.5t149 -92.5t91.5 -128.5t33 -145.5q0 -41 -12.5 -56.5t-43.5 -23.5l-610 -188q50 -95 134 -153t190 -58q136 0 264 100q45 35 69 35q21 0 35 -17.5t14 -33.5q0 -21 -20 -57
q-57 -87 -195 -158.5t-309 -71.5zM272 1487q0 29 25.5 40t101.5 11q61 0 89 -11.5t49 -41.5q88 -127 157 -242q19 -34 19 -53q0 -16 -15.5 -26.5t-42.5 -10.5q-54 0 -100 41q-41 33 -114 100t-93 84q-44 42 -60 64t-16 45zM367 614q0 -51 8 -92l352 111q26 8 37.5 21
t11.5 42q0 72 -57.5 135.5t-140.5 63.5q-93 0 -152 -76.5t-59 -204.5z" />
    <glyph glyph-name="eacute" unicode="&#xe9;" horiz-adv-x="1169" 
d="M606 -31q-240 0 -395.5 148t-155.5 387q0 161 79 288t207.5 194t279.5 67q105 0 195.5 -35.5t149 -92.5t91.5 -128.5t33 -145.5q0 -41 -12.5 -56.5t-43.5 -23.5l-610 -188q50 -95 134 -153t190 -58q136 0 264 100q45 35 69 35q21 0 35 -17.5t14 -33.5q0 -21 -20 -57
q-57 -87 -195 -158.5t-309 -71.5zM367 614q0 -51 8 -92l352 111q26 8 37.5 21t11.5 42q0 72 -57.5 135.5t-140.5 63.5q-93 0 -152 -76.5t-59 -204.5zM475 1190q0 19 19 53q98 157 159 242q21 30 48 41.5t87 11.5q77 0 103.5 -11t26.5 -40q0 -23 -16.5 -44t-61.5 -65
q-6 -5 -84.5 -77t-120.5 -107q-46 -41 -103 -41q-26 0 -41.5 11t-15.5 26z" />
    <glyph glyph-name="ecircumflex" unicode="&#xea;" horiz-adv-x="1169" 
d="M606 -31q-240 0 -395.5 148t-155.5 387q0 161 79 288t207.5 194t279.5 67q105 0 195.5 -35.5t149 -92.5t91.5 -128.5t33 -145.5q0 -41 -12.5 -56.5t-43.5 -23.5l-610 -188q50 -95 134 -153t190 -58q136 0 264 100q45 35 69 35q21 0 35 -17.5t14 -33.5q0 -21 -20 -57
q-57 -87 -195 -158.5t-309 -71.5zM285 1219q0 23 24 61q65 91 160 205q31 34 58 45.5t83 11.5q55 0 82.5 -11.5t57.5 -45.5q90 -104 159 -205q27 -38 27 -61q0 -19 -18.5 -35.5t-47.5 -16.5q-43 0 -90 45l-170 160l-170 -160q-47 -45 -92 -45q-27 0 -45 16.5t-18 35.5z
M367 614q0 -51 8 -92l352 111q26 8 37.5 21t11.5 42q0 72 -57.5 135.5t-140.5 63.5q-93 0 -152 -76.5t-59 -204.5z" />
    <glyph glyph-name="edieresis" unicode="&#xeb;" horiz-adv-x="1169" 
d="M606 -31q-240 0 -395.5 148t-155.5 387q0 161 79 288t207.5 194t279.5 67q105 0 195.5 -35.5t149 -92.5t91.5 -128.5t33 -145.5q0 -41 -12.5 -56.5t-43.5 -23.5l-610 -188q50 -95 134 -153t190 -58q136 0 264 100q45 35 69 35q21 0 35 -17.5t14 -33.5q0 -21 -20 -57
q-57 -87 -195 -158.5t-309 -71.5zM227 1327q0 65 47 107.5t119 42.5q69 0 113.5 -41t44.5 -105q0 -65 -45 -106t-117 -41q-70 0 -116 40t-46 103zM367 614q0 -51 8 -92l352 111q26 8 37.5 21t11.5 42q0 72 -57.5 135.5t-140.5 63.5q-93 0 -152 -76.5t-59 -204.5zM657 1327
q0 65 46 106.5t118 41.5q68 0 113 -40t45 -104t-45.5 -105.5t-116.5 -41.5q-69 0 -114.5 40t-45.5 103z" />
    <glyph glyph-name="igrave" unicode="&#xec;" horiz-adv-x="665" 
d="M141 -4q-34 0 -51.5 16.5t-17.5 40.5q0 22 12.5 36t30.5 23t35.5 21t30 39.5t12.5 69.5v432q0 36 -14 58t-34 30.5t-40 15.5t-34 21t-14 39q0 32 39 57.5t158 79.5q149 65 182 65q64 0 64 -98v-700q0 -42 12.5 -69.5t30 -39.5t35.5 -21t30.5 -23t12.5 -36
q0 -23 -17.5 -40t-50.5 -17q-18 0 -83.5 3t-123.5 3t-122.5 -3t-82.5 -3zM-4 1503q0 29 25.5 40t101.5 11q61 0 88.5 -11.5t48.5 -41.5q100 -145 158 -241q18 -32 18 -54q0 -16 -15 -26.5t-42 -10.5q-54 0 -100 41q-41 33 -113.5 100t-93.5 85q-44 43 -60 64t-16 44z" />
    <glyph glyph-name="iacute" unicode="&#xed;" horiz-adv-x="665" 
d="M141 -4q-34 0 -51.5 16.5t-17.5 40.5q0 22 12.5 36t30.5 23t35.5 21t30 39.5t12.5 69.5v432q0 36 -14 58t-34 30.5t-40 15.5t-34 21t-14 39q0 32 39 57.5t158 79.5q149 65 182 65q64 0 64 -98v-700q0 -42 12.5 -69.5t30 -39.5t35.5 -21t30.5 -23t12.5 -36
q0 -23 -17.5 -40t-50.5 -17q-18 0 -83.5 3t-123.5 3t-122.5 -3t-82.5 -3zM199 1206q0 22 18 54q87 139 160 241q21 30 48 41.5t87 11.5q77 0 103 -11t26 -40q0 -23 -16 -43.5t-62 -64.5q-11 -10 -87.5 -80t-117.5 -105q-46 -41 -102 -41q-26 0 -41.5 11t-15.5 26z" />
    <glyph glyph-name="icircumflex" unicode="&#xee;" horiz-adv-x="665" 
d="M141 -4q-34 0 -51.5 16.5t-17.5 40.5q0 22 12.5 36t30.5 23t35.5 21t30 39.5t12.5 69.5v432q0 36 -14 58t-34 30.5t-40 15.5t-34 21t-14 39q0 32 39 57.5t158 79.5q149 65 182 65q64 0 64 -98v-700q0 -42 12.5 -69.5t30 -39.5t35.5 -21t30.5 -23t12.5 -36
q0 -23 -17.5 -40t-50.5 -17q-18 0 -83.5 3t-123.5 3t-122.5 -3t-82.5 -3zM8 1235q0 22 25 61q65 91 160 205q31 34 58 46t83 12q55 0 81.5 -12t57.5 -46q95 -109 160 -205q26 -36 26 -61q0 -19 -18 -35t-47 -16q-43 0 -90 45l-170 160l-170 -160q-47 -45 -92 -45
q-28 0 -46 16t-18 35z" />
    <glyph glyph-name="idieresis" unicode="&#xef;" horiz-adv-x="665" 
d="M141 -4q-34 0 -51.5 16.5t-17.5 40.5q0 22 12.5 36t30.5 23t35.5 21t30 39.5t12.5 69.5v432q0 36 -14 58t-34 30.5t-40 15.5t-34 21t-14 39q0 32 39 57.5t158 79.5q149 65 182 65q64 0 64 -98v-700q0 -42 12.5 -69.5t30 -39.5t35.5 -21t30.5 -23t12.5 -36
q0 -23 -17.5 -40t-50.5 -17q-18 0 -83.5 3t-123.5 3t-122.5 -3t-82.5 -3zM-49 1343q0 65 47 107.5t119 42.5q69 0 113 -40.5t44 -104.5q0 -65 -44.5 -106.5t-116.5 -41.5q-70 0 -116 40t-46 103zM381 1343q0 65 46 106.5t118 41.5q68 0 112.5 -39.5t44.5 -103.5
q0 -65 -45.5 -106.5t-115.5 -41.5q-69 0 -114.5 40t-45.5 103z" />
    <glyph glyph-name="eth" unicode="&#xf0;" horiz-adv-x="1275" 
d="M606 -33q-156 0 -280 64.5t-196.5 188t-72.5 284.5q0 248 144 400.5t374 152.5q104 0 185 -35q-54 102 -133 184l-181 -88q-32 -14 -51 -14q-24 0 -43.5 22t-19.5 58q0 38 49 63l123 62l-53 32q-107 69 -128 90q-24 24 -24 50q0 32 26 49.5t68 17.5q110 0 256 -63
q56 -24 101 -55l194 96q30 12 51 12q24 0 45 -22t21 -58q0 -39 -49 -61l-133 -66q150 -134 242.5 -323.5t92.5 -409.5q0 -154 -50.5 -276.5t-136.5 -198.5t-193.5 -116t-227.5 -40zM383 569q0 -184 85 -303t194 -119q97 0 165 85t68 247q0 171 -87.5 291.5t-199.5 120.5
q-103 0 -164 -86.5t-61 -235.5z" />
    <glyph glyph-name="ntilde" unicode="&#xf1;" horiz-adv-x="1361" 
d="M881 -4q-38 0 -58 16t-20 41q0 21 12.5 34.5t29.5 22.5t34.5 19t30 30.5t12.5 51.5q0 19 -11 94l-37 266q-17 115 -59.5 179.5t-124.5 64.5q-77 0 -133.5 -66.5t-56.5 -207.5v-299q0 -42 12.5 -69.5t30 -39.5t35.5 -21t30.5 -23t12.5 -36q0 -23 -17.5 -40t-50.5 -17
q-18 0 -83.5 3t-123.5 3t-122.5 -3t-82.5 -3q-34 0 -51.5 16.5t-17.5 40.5q0 22 12.5 36t30.5 23t35.5 21t30 39.5t12.5 69.5v432q0 36 -14 58t-34 30.5t-40 15.5t-34 21t-14 39q0 32 39 57.5t158 79.5q149 65 182 65q64 0 64 -98v-96q51 89 139 146t201 57q77 0 137 -31
t99.5 -87.5t64 -127t35.5 -156.5l51 -383q6 -50 22.5 -83t35 -46.5t36.5 -23.5t29.5 -24t11.5 -38q0 -25 -20 -39t-54 -14q-20 0 -81.5 3t-121.5 3q-63 0 -124 -3t-80 -3zM346 1282q0 38 14 76q24 72 72.5 118t110.5 46q44 0 87.5 -23.5t71 -51.5t57 -51.5t48.5 -23.5
q26 0 63 64q13 22 17 28t14.5 19t20.5 16.5t24 3.5q26 0 40.5 -15.5t14.5 -43.5q0 -30 -14 -76q-26 -75 -73.5 -119.5t-110.5 -44.5q-44 0 -88 23.5t-72.5 51.5t-56.5 51.5t-45 23.5q-29 0 -66 -64q-28 -47 -42 -57t-32 -10q-26 0 -40.5 15.5t-14.5 43.5z" />
    <glyph glyph-name="ograve" unicode="&#xf2;" horiz-adv-x="1320" 
d="M639 -35q-133 0 -243.5 41t-184.5 112.5t-115 168.5t-41 209q0 244 176.5 402.5t450.5 158.5q133 0 243.5 -41t184.5 -112.5t115 -168.5t41 -209q0 -161 -81.5 -289.5t-225 -200t-320.5 -71.5zM324 1493q0 29 25.5 40t101.5 11q61 0 88.5 -11.5t48.5 -41.5
q88 -127 157 -242q19 -34 19 -53q0 -16 -15 -26.5t-42 -10.5q-55 0 -101 41q-41 33 -114 100t-93 84q-43 41 -59 63.5t-16 45.5zM387 575q0 -75 21.5 -153.5t60 -146t99 -111t130.5 -43.5q111 0 173.5 84.5t62.5 240.5q0 75 -22 154.5t-60.5 147t-99 110.5t-129.5 43
q-111 0 -173.5 -85t-62.5 -241z" />
    <glyph glyph-name="oacute" unicode="&#xf3;" horiz-adv-x="1320" 
d="M639 -35q-133 0 -243.5 41t-184.5 112.5t-115 168.5t-41 209q0 244 176.5 402.5t450.5 158.5q133 0 243.5 -41t184.5 -112.5t115 -168.5t41 -209q0 -161 -81.5 -289.5t-225 -200t-320.5 -71.5zM387 575q0 -75 21.5 -153.5t60 -146t99 -111t130.5 -43.5q111 0 173.5 84.5
t62.5 240.5q0 75 -22 154.5t-60.5 147t-99 110.5t-129.5 43q-111 0 -173.5 -85t-62.5 -241zM526 1196q0 19 19 53q91 147 160 242q21 30 48 41.5t87 11.5q77 0 103 -11t26 -40q0 -23 -16.5 -44t-61.5 -65q-6 -5 -84.5 -77t-120.5 -107q-46 -41 -102 -41q-26 0 -42 11t-16 26
z" />
    <glyph glyph-name="ocircumflex" unicode="&#xf4;" horiz-adv-x="1320" 
d="M639 -35q-133 0 -243.5 41t-184.5 112.5t-115 168.5t-41 209q0 244 176.5 402.5t450.5 158.5q133 0 243.5 -41t184.5 -112.5t115 -168.5t41 -209q0 -161 -81.5 -289.5t-225 -200t-320.5 -71.5zM336 1225q0 23 24 61q65 91 160 205q30 34 57.5 45.5t84.5 11.5
q55 0 81.5 -11.5t57.5 -45.5q95 -109 160 -205q26 -36 26 -61q0 -19 -18 -35t-47 -16q-44 0 -91 45l-169 159l-170 -159q-47 -45 -93 -45q-28 0 -45.5 16t-17.5 35zM387 575q0 -75 21.5 -153.5t60 -146t99 -111t130.5 -43.5q111 0 173.5 84.5t62.5 240.5q0 75 -22 154.5
t-60.5 147t-99 110.5t-129.5 43q-111 0 -173.5 -85t-62.5 -241z" />
    <glyph glyph-name="otilde" unicode="&#xf5;" horiz-adv-x="1320" 
d="M639 -35q-133 0 -243.5 41t-184.5 112.5t-115 168.5t-41 209q0 244 176.5 402.5t450.5 158.5q133 0 243.5 -41t184.5 -112.5t115 -168.5t41 -209q0 -161 -81.5 -289.5t-225 -200t-320.5 -71.5zM330 1272q0 38 14 76q24 72 72 117.5t110 45.5q44 0 87.5 -23.5t71.5 -51
t57.5 -51t48.5 -23.5q26 0 63 63q28 47 41 57q15 11 35 11q26 0 40.5 -15.5t14.5 -43.5q0 -30 -14 -76q-26 -75 -74 -119.5t-111 -44.5q-44 0 -88 23.5t-72.5 51t-56.5 51t-45 23.5q-29 0 -65 -63q-28 -47 -41 -57q-14 -11 -33 -11q-26 0 -40.5 16t-14.5 44zM387 575
q0 -75 21.5 -153.5t60 -146t99 -111t130.5 -43.5q111 0 173.5 84.5t62.5 240.5q0 75 -22 154.5t-60.5 147t-99 110.5t-129.5 43q-111 0 -173.5 -85t-62.5 -241z" />
    <glyph glyph-name="odieresis" unicode="&#xf6;" horiz-adv-x="1320" 
d="M639 -35q-133 0 -243.5 41t-184.5 112.5t-115 168.5t-41 209q0 244 176.5 402.5t450.5 158.5q133 0 243.5 -41t184.5 -112.5t115 -168.5t41 -209q0 -161 -81.5 -289.5t-225 -200t-320.5 -71.5zM279 1333q0 65 46.5 107.5t118.5 42.5q69 0 113.5 -41t44.5 -105
q0 -65 -45 -106t-117 -41q-69 0 -115 40t-46 103zM387 575q0 -75 21.5 -153.5t60 -146t99 -111t130.5 -43.5q111 0 173.5 84.5t62.5 240.5q0 75 -22 154.5t-60.5 147t-99 110.5t-129.5 43q-111 0 -173.5 -85t-62.5 -241zM709 1333q0 65 45.5 106.5t117.5 41.5q68 0 113 -40
t45 -104t-45.5 -105.5t-116.5 -41.5q-69 0 -114 40t-45 103z" />
    <glyph glyph-name="divide" unicode="&#xf7;" horiz-adv-x="1173" 
d="M152 528q-66 0 -66 103q0 100 66 100h870q34 0 48.5 -24.5t14.5 -75.5q0 -52 -14.5 -77.5t-48.5 -25.5h-870zM444 258q0 53 40 89t102 36q63 0 103 -36t40 -89q0 -56 -39.5 -91.5t-103.5 -35.5q-63 0 -102.5 35.5t-39.5 91.5zM444 1004q0 54 40 90t102 36
q64 0 103.5 -35.5t39.5 -90.5q0 -53 -40 -89t-103 -36q-62 0 -102 36t-40 89z" />
    <glyph glyph-name="oslash" unicode="&#xf8;" horiz-adv-x="1361" 
d="M158 -35q-22 0 -47 27.5t-25 54.5t35 59l65 60q-110 138 -110 330q0 244 176 402.5t450 158.5q209 0 363 -101l80 72q32 29 57 29q24 0 49 -25.5t25 -52.5t-35 -57l-70 -64q115 -140 115 -332q0 -161 -81.5 -289.5t-225 -200t-320.5 -71.5q-215 0 -362 103l-80 -72
q-34 -31 -59 -31zM408 575q0 -89 32 -190l420 381q-89 135 -217 135q-111 0 -173 -85t-62 -241zM500 258q91 -137 219 -137q111 0 173 84.5t62 240.5q0 102 -34 195z" />
    <glyph glyph-name="ugrave" unicode="&#xf9;" horiz-adv-x="1376" 
d="M528 -31q-163 0 -258.5 104t-95.5 292v319q0 44 -23.5 70.5t-52 35t-52 25t-23.5 43.5q0 37 41.5 61.5t166.5 67.5q153 51 185 51q65 0 65 -100v-489q0 -248 185 -248q41 0 78 15t69 46t51 86.5t19 128.5v207q0 44 -27 70t-59 34t-59 25t-27 45q0 37 44 60.5t185 70.5
q154 49 186 49q64 0 64 -100v-625q0 -36 16.5 -62t40 -39.5t47 -24.5t40 -26t16.5 -36q0 -40 -44 -61.5t-178 -51.5q-139 -32 -180 -32q-33 0 -49 24.5t-16 61.5v108q-54 -91 -144 -148t-211 -57zM336 1503q0 29 25.5 40t101.5 11q61 0 88.5 -11.5t48.5 -41.5
q100 -145 158 -241q18 -32 18 -54q0 -16 -15 -26.5t-42 -10.5q-55 0 -101 41q-40 33 -112.5 100t-93.5 85q-44 43 -60 64t-16 44z" />
    <glyph glyph-name="uacute" unicode="&#xfa;" horiz-adv-x="1376" 
d="M528 -31q-163 0 -258.5 104t-95.5 292v319q0 44 -23.5 70.5t-52 35t-52 25t-23.5 43.5q0 37 41.5 61.5t166.5 67.5q153 51 185 51q65 0 65 -100v-489q0 -248 185 -248q41 0 78 15t69 46t51 86.5t19 128.5v207q0 44 -27 70t-59 34t-59 25t-27 45q0 37 44 60.5t185 70.5
q154 49 186 49q64 0 64 -100v-625q0 -36 16.5 -62t40 -39.5t47 -24.5t40 -26t16.5 -36q0 -40 -44 -61.5t-178 -51.5q-139 -32 -180 -32q-33 0 -49 24.5t-16 61.5v108q-54 -91 -144 -148t-211 -57zM539 1206q0 22 18 54q87 139 160 241q21 30 48 41.5t87 11.5q77 0 103 -11
t26 -40q0 -23 -16 -43.5t-62 -64.5q-11 -10 -87.5 -80t-117.5 -105q-46 -41 -102 -41q-26 0 -41.5 11t-15.5 26z" />
    <glyph glyph-name="ucircumflex" unicode="&#xfb;" horiz-adv-x="1376" 
d="M528 -31q-163 0 -258.5 104t-95.5 292v319q0 44 -23.5 70.5t-52 35t-52 25t-23.5 43.5q0 37 41.5 61.5t166.5 67.5q153 51 185 51q65 0 65 -100v-489q0 -248 185 -248q41 0 78 15t69 46t51 86.5t19 128.5v207q0 44 -27 70t-59 34t-59 25t-27 45q0 37 44 60.5t185 70.5
q154 49 186 49q64 0 64 -100v-625q0 -36 16.5 -62t40 -39.5t47 -24.5t40 -26t16.5 -36q0 -40 -44 -61.5t-178 -51.5q-139 -32 -180 -32q-33 0 -49 24.5t-16 61.5v108q-54 -91 -144 -148t-211 -57zM348 1235q0 22 25 61q70 99 159 205q31 34 58.5 46t83.5 12q55 0 81.5 -12
t57.5 -46q95 -109 160 -205q26 -36 26 -61q0 -19 -18 -35t-47 -16q-43 0 -90 45l-170 160l-170 -160q-47 -45 -92 -45q-28 0 -46 16t-18 35z" />
    <glyph glyph-name="udieresis" unicode="&#xfc;" horiz-adv-x="1376" 
d="M528 -31q-163 0 -258.5 104t-95.5 292v319q0 44 -23.5 70.5t-52 35t-52 25t-23.5 43.5q0 37 41.5 61.5t166.5 67.5q153 51 185 51q65 0 65 -100v-489q0 -248 185 -248q41 0 78 15t69 46t51 86.5t19 128.5v207q0 44 -27 70t-59 34t-59 25t-27 45q0 37 44 60.5t185 70.5
q154 49 186 49q64 0 64 -100v-625q0 -36 16.5 -62t40 -39.5t47 -24.5t40 -26t16.5 -36q0 -40 -44 -61.5t-178 -51.5q-139 -32 -180 -32q-33 0 -49 24.5t-16 61.5v108q-54 -91 -144 -148t-211 -57zM291 1343q0 65 47 107.5t119 42.5q69 0 113 -40.5t44 -104.5
q0 -65 -44.5 -106.5t-116.5 -41.5q-70 0 -116 40t-46 103zM721 1343q0 65 46 106.5t118 41.5q68 0 112.5 -39.5t44.5 -103.5q0 -65 -45.5 -106.5t-115.5 -41.5q-69 0 -114.5 40t-45.5 103z" />
    <glyph glyph-name="yacute" unicode="&#xfd;" 
d="M324 -397q-59 0 -105 14t-63 37q-29 35 -55.5 125t-26.5 149q0 32 16 54t41 22q32 0 57 -37q59 -83 103 -117t94 -34q45 0 82 43t74 125l-375 770q-22 46 -49 79.5t-47.5 49.5t-38.5 29t-27.5 27t-9.5 34q0 26 18 40.5t47 14.5q19 0 94 -3t138 -3q58 0 128.5 3t90.5 3
q39 0 59.5 -15t20.5 -40q0 -21 -10.5 -36t-26 -24t-30.5 -18.5t-25.5 -27.5t-10.5 -44q0 -43 35 -127l183 -407l165 407q35 85 35 131q0 27 -16.5 46t-35.5 28.5t-35.5 27.5t-16.5 44q0 25 19.5 40t56.5 15q20 0 69.5 -3t77.5 -3t80 3t72 3q28 0 46.5 -15.5t18.5 -39.5
t-17 -42t-40.5 -31.5t-56 -50.5t-56.5 -93l-346 -811q-148 -342 -401 -342zM528 1206q0 20 19 54q87 139 160 241q21 30 48 41.5t87 11.5q77 0 103 -11t26 -40q0 -23 -16 -43.5t-62 -64.5q-11 -10 -87.5 -80t-117.5 -105q-46 -41 -102 -41q-26 0 -42 11t-16 26z" />
    <glyph glyph-name="thorn" unicode="&#xfe;" horiz-adv-x="1341" 
d="M86 -371q-35 0 -52.5 16t-17.5 40q0 22 12.5 36t30 23t34.5 21t29.5 39t12.5 69v1317q0 36 -14 58t-33.5 30.5t-39.5 15.5t-34 21t-14 39q0 32 39 57.5t158 79.5q149 65 182 65q63 0 63 -96v-606q64 92 159.5 147.5t221.5 55.5q200 0 330.5 -148t130.5 -391
q0 -244 -149 -396.5t-375 -152.5q-192 0 -318 101v-197q0 -41 15 -67t36 -37.5t42 -20.5t36 -24t15 -39q0 -22 -18.5 -39t-51.5 -17q-18 0 -91 3t-136 3q-58 0 -121.5 -3t-81.5 -3zM442 453q0 -134 78 -232t199 -98q105 0 172 84.5t67 238.5q0 176 -80 286t-198 110
q-99 0 -168.5 -83t-69.5 -212v-94z" />
    <glyph glyph-name="ydieresis" unicode="&#xff;" 
d="M324 -397q-59 0 -105 14t-63 37q-29 35 -55.5 125t-26.5 149q0 32 16 54t41 22q32 0 57 -37q59 -83 103 -117t94 -34q45 0 82 43t74 125l-375 770q-22 46 -49 79.5t-47.5 49.5t-38.5 29t-27.5 27t-9.5 34q0 26 18 40.5t47 14.5q19 0 94 -3t138 -3q58 0 128.5 3t90.5 3
q39 0 59.5 -15t20.5 -40q0 -21 -10.5 -36t-26 -24t-30.5 -18.5t-25.5 -27.5t-10.5 -44q0 -43 35 -127l183 -407l165 407q35 85 35 131q0 27 -16.5 46t-35.5 28.5t-35.5 27.5t-16.5 44q0 25 19.5 40t56.5 15q20 0 69.5 -3t77.5 -3t80 3t72 3q28 0 46.5 -15.5t18.5 -39.5
t-17 -42t-40.5 -31.5t-56 -50.5t-56.5 -93l-346 -811q-148 -342 -401 -342zM281 1343q0 65 46.5 107.5t118.5 42.5q69 0 113.5 -40.5t44.5 -104.5q0 -65 -45 -106.5t-117 -41.5q-69 0 -115 40t-46 103zM711 1343q0 65 45.5 106.5t117.5 41.5q68 0 113 -39.5t45 -103.5
t-45.5 -106t-116.5 -42q-69 0 -114 40t-45 103z" />
    <glyph glyph-name="Amacron" unicode="&#x100;" horiz-adv-x="1550" 
d="M41 -4q-29 0 -46.5 14.5t-17.5 36.5q0 29 19.5 48t45.5 29t56.5 39t48.5 75l316 815q40 99 104 288q29 87 66 110.5t145 23.5q73 0 108.5 -11t54.5 -37t40 -88q59 -170 106 -286l316 -811q18 -46 47.5 -76t54 -41t42.5 -30t18 -48q0 -22 -16.5 -36.5t-43.5 -14.5
q-20 0 -95 3t-140 3q-64 0 -152.5 -3t-113.5 -3q-89 0 -89 59q0 27 22 44.5t48 24.5t48 25.5t22 47.5q0 30 -19 82l-57 147q-11 32 -26 44.5t-48 12.5h-422q-33 0 -46.5 -12t-26.5 -45l-58 -143q-22 -61 -22 -82q0 -31 22.5 -50t49 -26.5t49 -25t22.5 -44.5q0 -59 -88 -59
q-31 0 -92 3t-92 3t-83 -3t-77 -3zM455 1735q0 82 67 82l254 -2q38 0 133 1t123 1q68 0 68 -82q0 -84 -68 -84q-31 0 -124.5 2t-129.5 2q-38 0 -133 -2t-123 -2q-36 0 -51.5 20.5t-15.5 63.5zM508 686q-16 -45 31 -45h311q47 0 31 45l-187 485z" />
    <glyph glyph-name="amacron" unicode="&#x101;" horiz-adv-x="1236" 
d="M1010 -16q-71 0 -130 36t-92 103q-66 -64 -163 -106t-215 -42q-167 0 -266 88t-99 228q0 145 114.5 239.5t315.5 94.5q122 0 234 -33l-4 24q-35 242 -220 242q-108 0 -231 -80q-54 -30 -78 -30q-20 0 -36.5 16t-16.5 41q0 45 65 102q65 65 168.5 104.5t227.5 39.5
q368 0 417 -355l48 -338q7 -50 19 -81.5t35.5 -51t50 -28.5t73.5 -19q39 -7 39 -41q0 -50 -72.5 -101.5t-183.5 -51.5zM276 1356q0 82 68 82l254 -2q38 0 133 1t123 1q68 0 68 -82q0 -84 -68 -84q-31 0 -124.5 2t-129.5 2q-38 0 -133 -2t-123 -2q-68 0 -68 84zM362 326
q0 -77 50.5 -124.5t128.5 -47.5q61 0 119.5 28t93.5 66l-29 215q-68 22 -152 22q-98 0 -154.5 -41t-56.5 -118z" />
    <glyph glyph-name="Abreve" unicode="&#x102;" horiz-adv-x="1550" 
d="M41 -4q-29 0 -46.5 14.5t-17.5 36.5q0 29 19.5 48t45.5 29t56.5 39t48.5 75l316 815q40 99 104 288q29 87 66 110.5t145 23.5q73 0 108.5 -11t54.5 -37t40 -88q59 -170 106 -286l316 -811q18 -46 47.5 -76t54 -41t42.5 -30t18 -48q0 -22 -16.5 -36.5t-43.5 -14.5
q-20 0 -95 3t-140 3q-64 0 -152.5 -3t-113.5 -3q-89 0 -89 59q0 27 22 44.5t48 24.5t48 25.5t22 47.5q0 30 -19 82l-57 147q-11 32 -26 44.5t-48 12.5h-422q-33 0 -46.5 -12t-26.5 -45l-58 -143q-22 -61 -22 -82q0 -31 22.5 -50t49 -26.5t49 -25t22.5 -44.5q0 -59 -88 -59
q-31 0 -92 3t-92 3t-83 -3t-77 -3zM463 1876q0 27 18 42t45 15q28 0 47.5 -18.5t47.5 -61.5q69 -116 157 -116q89 0 158 116q28 42 48 61t48 19q26 0 45 -15.5t19 -41.5q0 -42 -27 -107q-89 -202 -291 -202q-101 0 -174.5 53t-114.5 149q-26 62 -26 107zM508 686
q-16 -45 31 -45h311q47 0 31 45l-187 485z" />
    <glyph glyph-name="abreve" unicode="&#x103;" horiz-adv-x="1236" 
d="M1010 -16q-71 0 -130 36t-92 103q-66 -64 -163 -106t-215 -42q-167 0 -266 88t-99 228q0 145 114.5 239.5t315.5 94.5q122 0 234 -33l-4 24q-35 242 -220 242q-108 0 -231 -80q-54 -30 -78 -30q-20 0 -36.5 16t-16.5 41q0 45 65 102q65 65 168.5 104.5t227.5 39.5
q368 0 417 -355l48 -338q7 -50 19 -81.5t35.5 -51t50 -28.5t73.5 -19q39 -7 39 -41q0 -50 -72.5 -101.5t-183.5 -51.5zM285 1497q0 27 18 42t45 15q28 0 47 -18t47 -61q70 -117 158 -117t158 117q27 42 47.5 60.5t48.5 18.5q26 0 45 -15.5t19 -41.5q0 -41 -27 -106
q-43 -97 -116 -150t-175 -53q-101 0 -174.5 53.5t-114.5 149.5q-26 62 -26 106zM362 326q0 -77 50.5 -124.5t128.5 -47.5q61 0 119.5 28t93.5 66l-29 215q-68 22 -152 22q-98 0 -154.5 -41t-56.5 -118z" />
    <glyph glyph-name="Aogonek" unicode="&#x104;" horiz-adv-x="1550" 
d="M41 -4q-29 0 -46.5 14.5t-17.5 36.5q0 29 19.5 48t45.5 29t56.5 39t48.5 75l316 815q40 99 104 288q29 87 66 110.5t145 23.5q73 0 108.5 -11t54.5 -37t40 -88q59 -170 106 -286l316 -811q18 -46 47.5 -76t54 -41t42.5 -30t18 -48q0 -22 -16.5 -36.5t-43.5 -14.5
q-25 0 -85 2.5t-97 3.5q-104 -107 -104 -215q0 -35 14 -53.5t37 -18.5q19 0 49 13q20 12 33 12q15 0 27 -12.5t12 -30.5q0 -32 -29 -55q-63 -52 -154 -52q-73 0 -120.5 45t-47.5 121q0 123 148 246q-31 -1 -94.5 -3.5t-89.5 -2.5q-89 0 -89 59q0 27 22 44.5t48 24.5t48 25.5
t22 47.5q0 30 -19 82l-57 147q-11 32 -26 44.5t-48 12.5h-422q-33 0 -46.5 -12t-26.5 -45l-58 -143q-22 -61 -22 -82q0 -31 22.5 -50t49 -26.5t49 -25t22.5 -44.5q0 -59 -88 -59q-31 0 -92 3t-92 3t-83 -3t-77 -3zM508 686q-16 -45 31 -45h311q47 0 31 45l-187 485z" />
    <glyph glyph-name="aogonek" unicode="&#x105;" horiz-adv-x="1236" 
d="M410 -25q-167 0 -266 88t-99 228q0 145 114.5 239.5t315.5 94.5q122 0 234 -33l-4 24q-35 242 -220 242q-108 0 -231 -80q-54 -30 -78 -30q-20 0 -36.5 16t-16.5 41q0 45 65 102q65 65 168.5 104.5t227.5 39.5q368 0 417 -355l48 -338q7 -50 19 -81.5t35.5 -51t50 -28.5
t73.5 -19q39 -7 39 -41q0 -37 -45.5 -80t-118.5 -63q-98 -106 -98 -207q0 -35 14 -53.5t37 -18.5q19 0 49 13q20 12 33 12q15 0 27 -12.5t12 -30.5q0 -32 -29 -55q-63 -52 -154 -52q-73 0 -120.5 45t-47.5 121q0 120 133 234q-115 22 -170 133q-66 -64 -163 -106t-215 -42z
M362 326q0 -77 50.5 -124.5t128.5 -47.5q61 0 119.5 28t93.5 66l-29 215q-68 22 -152 22q-98 0 -154.5 -41t-56.5 -118z" />
    <glyph glyph-name="Cacute" unicode="&#x106;" horiz-adv-x="1460" 
d="M778 -33q-143 0 -271 50t-226 141.5t-155.5 232.5t-57.5 311q0 135 36.5 258.5t102 219t152 166t190.5 108t213 37.5q83 0 190.5 -24.5t120.5 -24.5q27 0 56 28.5t53 28.5q33 0 54 -27t42 -83l74 -197q4 -10 13 -32t12 -30t9.5 -24t8.5 -24t5 -19t4 -19.5t1 -17.5
q0 -32 -20 -51t-46 -19q-22 0 -39.5 13t-39.5 41q-63 82 -109 133.5t-98.5 96.5t-105 65t-111.5 20q-173 0 -288.5 -157.5t-115.5 -401.5q0 -257 128.5 -413t334.5 -156q117 0 212.5 53.5t162.5 144.5q13 17 20.5 25.5t24.5 18.5t35 10q29 0 47 -20t18 -50q0 -35 -31 -92
q-70 -134 -238 -227t-368 -93zM639 1585q0 21 18 53q91 147 160 242q21 30 48 41.5t87 11.5q77 0 103 -11t26 -40q0 -23 -16 -44t-61 -64q-11 -10 -87.5 -80t-117.5 -105q-46 -41 -103 -41q-26 0 -41.5 11t-15.5 26z" />
    <glyph glyph-name="cacute" unicode="&#x107;" horiz-adv-x="1124" 
d="M606 -31q-239 0 -395 142.5t-156 382.5q0 125 47 231.5t125.5 177.5t181 110.5t214.5 39.5q89 0 171 -25t137 -63t87.5 -81t32.5 -79q0 -41 -33 -93.5t-100 -105.5q-42 -33 -66 -33q-55 0 -68 68q-27 121 -51 170q-52 109 -151 109q-94 0 -150.5 -83t-56.5 -221
q0 -190 105 -313t257 -123q140 0 264 115q27 27 52 27q19 0 32 -16t13 -36q0 -23 -17 -57q-21 -41 -61.5 -82t-99 -78.5t-141 -60.5t-173.5 -23zM477 1192q0 19 19 53q98 157 159 242q21 30 48.5 41.5t87.5 11.5q77 0 103 -11t26 -40q0 -23 -16.5 -44t-61.5 -65
q-6 -5 -84.5 -77t-120.5 -107q-46 -41 -102 -41q-26 0 -42 11t-16 26z" />
    <glyph glyph-name="Ccircumflex" unicode="&#x108;" horiz-adv-x="1460" 
d="M778 -33q-143 0 -271 50t-226 141.5t-155.5 232.5t-57.5 311q0 135 36.5 258.5t102 219t152 166t190.5 108t213 37.5q83 0 190.5 -24.5t120.5 -24.5q27 0 56 28.5t53 28.5q33 0 54 -27t42 -83l74 -197q4 -10 13 -32t12 -30t9.5 -24t8.5 -24t5 -19t4 -19.5t1 -17.5
q0 -32 -20 -51t-46 -19q-22 0 -39.5 13t-39.5 41q-63 82 -109 133.5t-98.5 96.5t-105 65t-111.5 20q-173 0 -288.5 -157.5t-115.5 -401.5q0 -257 128.5 -413t334.5 -156q117 0 212.5 53.5t162.5 144.5q13 17 20.5 25.5t24.5 18.5t35 10q29 0 47 -20t18 -50q0 -35 -31 -92
q-70 -134 -238 -227t-368 -93zM449 1614q0 24 24 61q65 91 160 205q31 34 58 45.5t83 11.5q55 0 81.5 -11.5t57.5 -45.5q95 -109 160 -205q27 -37 27 -61q0 -19 -18.5 -35t-47.5 -16q-43 0 -90 45l-170 159l-170 -159q-47 -45 -92 -45q-28 0 -45.5 16t-17.5 35z" />
    <glyph glyph-name="ccircumflex" unicode="&#x109;" horiz-adv-x="1124" 
d="M606 -31q-239 0 -395 142.5t-156 382.5q0 125 47 231.5t125.5 177.5t181 110.5t214.5 39.5q89 0 171 -25t137 -63t87.5 -81t32.5 -79q0 -41 -33 -93.5t-100 -105.5q-42 -33 -66 -33q-55 0 -68 68q-27 121 -51 170q-52 109 -151 109q-94 0 -150.5 -83t-56.5 -221
q0 -190 105 -313t257 -123q140 0 264 115q27 27 52 27q19 0 32 -16t13 -36q0 -23 -17 -57q-21 -41 -61.5 -82t-99 -78.5t-141 -60.5t-173.5 -23zM287 1221q0 23 24 61q65 91 160 205q31 34 58 45.5t83 11.5q55 0 82.5 -11.5t57.5 -45.5q90 -104 159 -205q27 -38 27 -61
q0 -19 -18.5 -35.5t-47.5 -16.5q-43 0 -90 45l-170 160l-170 -160q-47 -45 -92 -45q-27 0 -45 16.5t-18 35.5z" />
    <glyph glyph-name="Cdotaccent" unicode="&#x10a;" horiz-adv-x="1460" 
d="M778 -33q-143 0 -271 50t-226 141.5t-155.5 232.5t-57.5 311q0 135 36.5 258.5t102 219t152 166t190.5 108t213 37.5q83 0 190.5 -24.5t120.5 -24.5q27 0 56 28.5t53 28.5q33 0 54 -27t42 -83l74 -197q4 -10 13 -32t12 -30t9.5 -24t8.5 -24t5 -19t4 -19.5t1 -17.5
q0 -32 -20 -51t-46 -19q-22 0 -39.5 13t-39.5 41q-63 82 -109 133.5t-98.5 96.5t-105 65t-111.5 20q-173 0 -288.5 -157.5t-115.5 -401.5q0 -257 128.5 -413t334.5 -156q117 0 212.5 53.5t162.5 144.5q13 17 20.5 25.5t24.5 18.5t35 10q29 0 47 -20t18 -50q0 -35 -31 -92
q-70 -134 -238 -227t-368 -93zM608 1722q0 65 46 107.5t118 42.5q69 0 114.5 -41t45.5 -105q0 -65 -45 -106t-117 -41q-71 0 -116.5 40t-45.5 103z" />
    <glyph glyph-name="cdotaccent" unicode="&#x10b;" horiz-adv-x="1124" 
d="M606 -31q-239 0 -395 142.5t-156 382.5q0 125 47 231.5t125.5 177.5t181 110.5t214.5 39.5q89 0 171 -25t137 -63t87.5 -81t32.5 -79q0 -41 -33 -93.5t-100 -105.5q-42 -33 -66 -33q-55 0 -68 68q-27 121 -51 170q-52 109 -151 109q-94 0 -150.5 -83t-56.5 -221
q0 -190 105 -313t257 -123q140 0 264 115q27 27 52 27q19 0 32 -16t13 -36q0 -23 -17 -57q-21 -41 -61.5 -82t-99 -78.5t-141 -60.5t-173.5 -23zM446 1329q0 65 46 107.5t118 42.5q69 0 114.5 -41t45.5 -105q0 -65 -45 -106t-117 -41q-71 0 -116.5 40t-45.5 103z" />
    <glyph glyph-name="Ccaron" unicode="&#x10c;" horiz-adv-x="1460" 
d="M778 -33q-143 0 -271 50t-226 141.5t-155.5 232.5t-57.5 311q0 135 36.5 258.5t102 219t152 166t190.5 108t213 37.5q83 0 190.5 -24.5t120.5 -24.5q27 0 56 28.5t53 28.5q33 0 54 -27t42 -83l74 -197q4 -10 13 -32t12 -30t9.5 -24t8.5 -24t5 -19t4 -19.5t1 -17.5
q0 -32 -20 -51t-46 -19q-22 0 -39.5 13t-39.5 41q-63 82 -109 133.5t-98.5 96.5t-105 65t-111.5 20q-173 0 -288.5 -157.5t-115.5 -401.5q0 -257 128.5 -413t334.5 -156q117 0 212.5 53.5t162.5 144.5q13 17 20.5 25.5t24.5 18.5t35 10q29 0 47 -20t18 -50q0 -35 -31 -92
q-70 -134 -238 -227t-368 -93zM446 1898q0 19 18.5 35.5t47.5 16.5q43 0 90 -45l170 -160l170 160q47 45 92 45q28 0 46 -16.5t18 -35.5q0 -22 -25 -61q-65 -91 -160 -205q-31 -34 -58 -45.5t-83 -11.5q-55 0 -81.5 11.5t-57.5 45.5q-95 109 -160 205q-27 37 -27 61z" />
    <glyph glyph-name="ccaron" unicode="&#x10d;" horiz-adv-x="1124" 
d="M606 -31q-239 0 -395 142.5t-156 382.5q0 125 47 231.5t125.5 177.5t181 110.5t214.5 39.5q89 0 171 -25t137 -63t87.5 -81t32.5 -79q0 -41 -33 -93.5t-100 -105.5q-42 -33 -66 -33q-55 0 -68 68q-27 121 -51 170q-52 109 -151 109q-94 0 -150.5 -83t-56.5 -221
q0 -190 105 -313t257 -123q140 0 264 115q27 27 52 27q19 0 32 -16t13 -36q0 -23 -17 -57q-21 -41 -61.5 -82t-99 -78.5t-141 -60.5t-173.5 -23zM285 1505q0 19 18 35t47 16q43 0 90 -45l170 -159l170 159q47 45 92 45q28 0 46 -16t18 -35q0 -22 -25 -61q-70 -99 -159 -205
q-30 -34 -57.5 -45.5t-84.5 -11.5q-55 0 -81.5 11.5t-57.5 45.5q-95 109 -160 205q-26 36 -26 61z" />
    <glyph glyph-name="Dcaron" unicode="&#x10e;" horiz-adv-x="1648" 
d="M795 -6q-71 0 -212 4t-210 4q-65 0 -135 -3t-84 -3q-39 0 -58.5 16.5t-19.5 42.5q0 28 20 45.5t43.5 26.5t43.5 38t20 77v975q0 40 -13 65.5t-31.5 37.5t-37.5 21t-32 24t-13 38q0 26 19.5 42.5t58.5 16.5q14 0 84 -3t135 -3q59 0 177 7t177 7q180 0 337 -53
t272.5 -149.5t182 -240t66.5 -314.5q0 -157 -55.5 -289.5t-157 -227.5t-250 -148.5t-327.5 -53.5zM406 1898q0 19 18 35.5t47 16.5q43 0 90 -45l170 -160l170 160q47 45 92 45q28 0 46 -16.5t18 -35.5q0 -22 -25 -61q-65 -91 -160 -205q-31 -34 -58 -45.5t-83 -11.5
q-55 0 -81.5 11.5t-57.5 45.5q-95 109 -160 205q-26 36 -26 61zM543 252q0 -53 30 -74.5t107 -21.5h59q229 0 350 145.5t121 421.5q0 274 -133 430t-358 156h-39q-78 0 -107.5 -22.5t-29.5 -74.5v-960z" />
    <glyph glyph-name="dcaron" unicode="&#x10f;" horiz-adv-x="1376" 
d="M522 -31q-199 0 -332 142.5t-133 382.5q0 244 156 402.5t389 158.5q178 0 297 -101v242q0 36 -16.5 57.5t-39.5 30t-46 15t-39.5 21.5t-16.5 42q0 31 42 57t169 78q147 59 191 59q63 0 63 -96v-1128q0 -43 22 -69.5t49 -35.5t49 -26t22 -45q0 -37 -41.5 -61t-165.5 -66
q-154 -52 -178 -52q-64 0 -64 101v92q-61 -91 -157 -146t-220 -55zM383 582q0 -176 85 -287t196 -111q98 0 166.5 79.5t68.5 207.5v68q0 153 -83 257.5t-195 104.5q-108 0 -173 -85.5t-65 -233.5zM1331 1098l2 424q0 40 15 54.5t59 14.5q61 0 87 -15.5t26 -51.5
q0 -83 -20.5 -209.5t-45.5 -214.5q-17 -58 -70 -58q-26 0 -39.5 12.5t-13.5 43.5z" />
    <glyph glyph-name="Dcroat" unicode="&#x110;" horiz-adv-x="1656" 
d="M121 670q-44 0 -62 18.5t-18 59.5q0 40 18 59.5t62 19.5h86v390q0 40 -13 65.5t-31.5 37.5t-37.5 21t-32 24t-13 38q0 26 19.5 42.5t58.5 16.5q14 0 84 -3t135 -3q59 0 177 7t177 7q180 0 337 -53t272.5 -149.5t182 -240t66.5 -314.5q0 -157 -55.5 -289.5t-157 -227.5
t-250 -148.5t-327.5 -53.5q-71 0 -212 4t-210 4q-65 0 -135 -3t-84 -3q-39 0 -58.5 16.5t-19.5 42.5q0 28 20 45.5t43.5 26.5t43.5 38t20 77v428h-86zM547 252q0 -53 30 -74.5t107 -21.5h59q229 0 350 145.5t121 421.5q0 274 -133 430t-358 156h-39q-78 0 -107.5 -22.5
t-29.5 -74.5v-385h266q43 0 61.5 -19.5t18.5 -59.5q0 -41 -18.5 -59.5t-61.5 -18.5h-266v-418z" />
    <glyph glyph-name="dcroat" unicode="&#x111;" horiz-adv-x="1376" 
d="M592 1085q-43 0 -61.5 18t-18.5 56q0 74 80 74h301q-9 27 -35 42.5t-51.5 20t-45.5 20.5t-20 46q0 31 42 57t169 78q147 59 191 59q63 0 63 -96v-227h72q44 0 62 -18.5t18 -55.5q0 -38 -18 -56t-62 -18h-72v-753q0 -43 22 -69.5t49 -35.5t49 -26t22 -45q0 -37 -41.5 -61
t-165.5 -66q-154 -52 -178 -52q-64 0 -64 101v84q-61 -88 -157 -140.5t-220 -52.5q-199 0 -332 137t-133 369q0 236 156 389.5t389 153.5q180 0 297 -96v163h-307zM383 561q0 -171 84.5 -278t196.5 -107q98 0 166.5 76.5t68.5 200.5v67q0 148 -83 249t-195 101
q-108 0 -173 -83t-65 -226z" />
    <glyph glyph-name="Emacron" unicode="&#x112;" horiz-adv-x="1454" 
d="M1182 -49q-25 0 -66 24.5t-88 24.5h-655q-65 0 -135 -3t-84 -3q-76 0 -76 59q0 23 13 38t31 24.5t36.5 21.5t31.5 37.5t13 65.5v979q0 40 -13 65.5t-31.5 37.5t-36.5 21t-31 24t-13 38q0 59 76 59q12 0 82 -3t137 -3h575q45 0 84 24.5t62 24.5q34 0 58 -23.5t50 -80.5
l84 -182q31 -66 42 -95.5t11 -58.5q0 -31 -17.5 -48.5t-41.5 -17.5q-22 0 -39 12t-45 42q-39 41 -52 55t-45.5 46.5t-47 44t-43 33.5t-48 29.5t-47 18.5t-55 14.5t-59.5 3.5h-129q-76 0 -101.5 -21t-25.5 -75v-332q0 -30 12.5 -41.5t48.5 -11.5h119q41 0 71.5 23.5
t45.5 51.5t37 51.5t49 23.5q61 0 61 -80q0 -23 -3 -73t-3 -75q0 -26 3 -76t3 -73q0 -80 -61 -80q-27 0 -49 23.5t-37 51.5t-45.5 51.5t-71.5 23.5h-119q-36 0 -48.5 -11.5t-12.5 -40.5v-354q0 -55 26 -76.5t101 -21.5h200q64 0 117.5 16t106 55t92.5 78.5t104 110.5
q25 30 43 42.5t41 12.5t41.5 -18t18.5 -47q0 -20 -7 -44t-15.5 -43.5t-33.5 -72.5l-94 -201q-24 -51 -47 -73.5t-55 -22.5zM383 1735q0 82 68 82l254 -2q38 0 133 1t123 1q67 0 67 -82q0 -43 -15.5 -63.5t-51.5 -20.5q-31 0 -124.5 2t-129.5 2q-38 0 -133 -2t-123 -2
q-68 0 -68 84z" />
    <glyph glyph-name="emacron" unicode="&#x113;" horiz-adv-x="1169" 
d="M606 -31q-240 0 -395.5 148t-155.5 387q0 161 79 288t207.5 194t279.5 67q105 0 195.5 -35.5t149 -92.5t91.5 -128.5t33 -145.5q0 -41 -12.5 -56.5t-43.5 -23.5l-610 -188q50 -95 134 -153t190 -58q136 0 264 100q45 35 69 35q21 0 35 -17.5t14 -33.5q0 -21 -20 -57
q-57 -87 -195 -158.5t-309 -71.5zM281 1339q0 82 67 82l254 -2q38 0 133 1t123 1q68 0 68 -82q0 -84 -68 -84q-31 0 -124.5 2.5t-129.5 2.5q-38 0 -133 -2.5t-123 -2.5q-36 0 -51.5 20.5t-15.5 63.5zM367 614q0 -51 8 -92l352 111q26 8 37.5 21t11.5 42q0 72 -57.5 135.5
t-140.5 63.5q-93 0 -152 -76.5t-59 -204.5z" />
    <glyph glyph-name="Ebreve" unicode="&#x114;" horiz-adv-x="1454" 
d="M1182 -49q-25 0 -66 24.5t-88 24.5h-655q-65 0 -135 -3t-84 -3q-76 0 -76 59q0 23 13 38t31 24.5t36.5 21.5t31.5 37.5t13 65.5v979q0 40 -13 65.5t-31.5 37.5t-36.5 21t-31 24t-13 38q0 59 76 59q12 0 82 -3t137 -3h575q45 0 84 24.5t62 24.5q34 0 58 -23.5t50 -80.5
l84 -182q31 -66 42 -95.5t11 -58.5q0 -31 -17.5 -48.5t-41.5 -17.5q-22 0 -39 12t-45 42q-39 41 -52 55t-45.5 46.5t-47 44t-43 33.5t-48 29.5t-47 18.5t-55 14.5t-59.5 3.5h-129q-76 0 -101.5 -21t-25.5 -75v-332q0 -30 12.5 -41.5t48.5 -11.5h119q41 0 71.5 23.5
t45.5 51.5t37 51.5t49 23.5q61 0 61 -80q0 -23 -3 -73t-3 -75q0 -26 3 -76t3 -73q0 -80 -61 -80q-27 0 -49 23.5t-37 51.5t-45.5 51.5t-71.5 23.5h-119q-36 0 -48.5 -11.5t-12.5 -40.5v-354q0 -55 26 -76.5t101 -21.5h200q64 0 117.5 16t106 55t92.5 78.5t104 110.5
q25 30 43 42.5t41 12.5t41.5 -18t18.5 -47q0 -20 -7 -44t-15.5 -43.5t-33.5 -72.5l-94 -201q-24 -51 -47 -73.5t-55 -22.5zM391 1876q0 27 18.5 42t45.5 15q19 0 36.5 -11.5t27.5 -25t30 -43.5q69 -116 158 -116q88 0 157 116q27 42 48 61t49 19q26 0 44.5 -15t18.5 -42
q0 -42 -27 -107q-89 -202 -290 -202q-101 0 -174.5 53t-114.5 149q-27 64 -27 107z" />
    <glyph glyph-name="ebreve" unicode="&#x115;" horiz-adv-x="1169" 
d="M606 -31q-240 0 -395.5 148t-155.5 387q0 161 79 288t207.5 194t279.5 67q105 0 195.5 -35.5t149 -92.5t91.5 -128.5t33 -145.5q0 -41 -12.5 -56.5t-43.5 -23.5l-610 -188q50 -95 134 -153t190 -58q136 0 264 100q45 35 69 35q21 0 35 -17.5t14 -33.5q0 -21 -20 -57
q-57 -87 -195 -158.5t-309 -71.5zM289 1481q0 27 18 42t45 15q19 0 36.5 -11.5t27.5 -25t30 -43.5q70 -117 158 -117t158 117q28 42 48 61t48 19q26 0 45 -15.5t19 -41.5q0 -43 -27 -107q-43 -97 -116 -150t-175 -53q-101 0 -174.5 53.5t-114.5 149.5q-26 62 -26 107z
M367 614q0 -51 8 -92l352 111q26 8 37.5 21t11.5 42q0 72 -57.5 135.5t-140.5 63.5q-93 0 -152 -76.5t-59 -204.5z" />
    <glyph glyph-name="Edotaccent" unicode="&#x116;" horiz-adv-x="1454" 
d="M1182 -49q-25 0 -66 24.5t-88 24.5h-655q-65 0 -135 -3t-84 -3q-76 0 -76 59q0 23 13 38t31 24.5t36.5 21.5t31.5 37.5t13 65.5v979q0 40 -13 65.5t-31.5 37.5t-36.5 21t-31 24t-13 38q0 59 76 59q12 0 82 -3t137 -3h575q45 0 84 24.5t62 24.5q34 0 58 -23.5t50 -80.5
l84 -182q31 -66 42 -95.5t11 -58.5q0 -31 -17.5 -48.5t-41.5 -17.5q-22 0 -39 12t-45 42q-39 41 -52 55t-45.5 46.5t-47 44t-43 33.5t-48 29.5t-47 18.5t-55 14.5t-59.5 3.5h-129q-76 0 -101.5 -21t-25.5 -75v-332q0 -30 12.5 -41.5t48.5 -11.5h119q41 0 71.5 23.5
t45.5 51.5t37 51.5t49 23.5q61 0 61 -80q0 -23 -3 -73t-3 -75q0 -26 3 -76t3 -73q0 -80 -61 -80q-27 0 -49 23.5t-37 51.5t-45.5 51.5t-71.5 23.5h-119q-36 0 -48.5 -11.5t-12.5 -40.5v-354q0 -55 26 -76.5t101 -21.5h200q64 0 117.5 16t106 55t92.5 78.5t104 110.5
q25 30 43 42.5t41 12.5t41.5 -18t18.5 -47q0 -20 -7 -44t-15.5 -43.5t-33.5 -72.5l-94 -201q-24 -51 -47 -73.5t-55 -22.5zM547 1722q0 65 46 107.5t118 42.5q69 0 114 -41t45 -105q0 -65 -44.5 -106t-116.5 -41q-71 0 -116.5 40t-45.5 103z" />
    <glyph glyph-name="edotaccent" unicode="&#x117;" horiz-adv-x="1169" 
d="M606 -31q-240 0 -395.5 148t-155.5 387q0 161 79 288t207.5 194t279.5 67q105 0 195.5 -35.5t149 -92.5t91.5 -128.5t33 -145.5q0 -41 -12.5 -56.5t-43.5 -23.5l-610 -188q50 -95 134 -153t190 -58q136 0 264 100q45 35 69 35q21 0 35 -17.5t14 -33.5q0 -21 -20 -57
q-57 -87 -195 -158.5t-309 -71.5zM367 614q0 -51 8 -92l352 111q26 8 37.5 21t11.5 42q0 72 -57.5 135.5t-140.5 63.5q-93 0 -152 -76.5t-59 -204.5zM444 1327q0 65 46 107.5t118 42.5q69 0 114.5 -41t45.5 -105q0 -65 -45 -106t-117 -41q-71 0 -116.5 40t-45.5 103z" />
    <glyph glyph-name="Eogonek" unicode="&#x118;" horiz-adv-x="1454" 
d="M1182 -49q-25 0 -57.5 19t-51.5 24q-98 -106 -98 -207q0 -35 14 -53.5t37 -18.5q19 0 49 13q20 12 33 12q15 0 27 -12.5t12 -30.5q0 -32 -29 -55q-63 -52 -153 -52q-73 0 -120.5 45t-47.5 121q0 124 145 244h-569q-65 0 -135 -3t-84 -3q-76 0 -76 59q0 23 13 38t31 24.5
t36.5 21.5t31.5 37.5t13 65.5v979q0 40 -13 65.5t-31.5 37.5t-36.5 21t-31 24t-13 38q0 59 76 59q12 0 82 -3t137 -3h575q45 0 84 24.5t62 24.5q34 0 58 -23.5t50 -80.5l84 -182q31 -66 42 -95.5t11 -58.5q0 -31 -17.5 -48.5t-41.5 -17.5q-22 0 -39 12t-45 42q-39 41 -52 55
t-45.5 46.5t-47 44t-43 33.5t-48 29.5t-47 18.5t-55 14.5t-59.5 3.5h-129q-76 0 -101.5 -21t-25.5 -75v-332q0 -30 12.5 -41.5t48.5 -11.5h119q41 0 71.5 23.5t45.5 51.5t37 51.5t49 23.5q61 0 61 -80q0 -23 -3 -73t-3 -75q0 -26 3 -76t3 -73q0 -80 -61 -80q-27 0 -49 23.5
t-37 51.5t-45.5 51.5t-71.5 23.5h-119q-36 0 -48.5 -11.5t-12.5 -40.5v-354q0 -55 26 -76.5t101 -21.5h200q64 0 117.5 16t106 55t92.5 78.5t104 110.5q25 30 43 42.5t41 12.5t41.5 -18t18.5 -47q0 -20 -7 -44t-15.5 -43.5t-33.5 -72.5l-94 -201q-24 -51 -47 -73.5
t-55 -22.5z" />
    <glyph glyph-name="eogonek" unicode="&#x119;" horiz-adv-x="1169" 
d="M606 -31q-240 0 -395.5 148t-155.5 387q0 161 79 288t207.5 194t279.5 67q105 0 195.5 -35.5t149 -92.5t91.5 -128.5t33 -145.5q0 -41 -12.5 -56.5t-43.5 -23.5l-610 -188q50 -95 134 -153t190 -58q136 0 264 100q45 35 69 35q21 0 35 -17.5t14 -33.5q0 -21 -20 -57
q-35 -53 -105.5 -105t-162.5 -84q-113 -113 -113 -223q0 -35 14 -53.5t37 -18.5q19 0 49 13q20 12 33 12q15 0 27 -12.5t12 -30.5q0 -32 -29 -55q-63 -52 -153 -52q-73 0 -120.5 45t-47.5 121q0 108 113 215q-18 -2 -58 -2zM367 614q0 -51 8 -92l352 111q26 8 37.5 21
t11.5 42q0 72 -57.5 135.5t-140.5 63.5q-93 0 -152 -76.5t-59 -204.5z" />
    <glyph glyph-name="Ecaron" unicode="&#x11a;" horiz-adv-x="1454" 
d="M1182 -49q-25 0 -66 24.5t-88 24.5h-655q-65 0 -135 -3t-84 -3q-76 0 -76 59q0 23 13 38t31 24.5t36.5 21.5t31.5 37.5t13 65.5v979q0 40 -13 65.5t-31.5 37.5t-36.5 21t-31 24t-13 38q0 59 76 59q12 0 82 -3t137 -3h575q45 0 84 24.5t62 24.5q34 0 58 -23.5t50 -80.5
l84 -182q31 -66 42 -95.5t11 -58.5q0 -31 -17.5 -48.5t-41.5 -17.5q-22 0 -39 12t-45 42q-39 41 -52 55t-45.5 46.5t-47 44t-43 33.5t-48 29.5t-47 18.5t-55 14.5t-59.5 3.5h-129q-76 0 -101.5 -21t-25.5 -75v-332q0 -30 12.5 -41.5t48.5 -11.5h119q41 0 71.5 23.5
t45.5 51.5t37 51.5t49 23.5q61 0 61 -80q0 -23 -3 -73t-3 -75q0 -26 3 -76t3 -73q0 -80 -61 -80q-27 0 -49 23.5t-37 51.5t-45.5 51.5t-71.5 23.5h-119q-36 0 -48.5 -11.5t-12.5 -40.5v-354q0 -55 26 -76.5t101 -21.5h200q64 0 117.5 16t106 55t92.5 78.5t104 110.5
q25 30 43 42.5t41 12.5t41.5 -18t18.5 -47q0 -20 -7 -44t-15.5 -43.5t-33.5 -72.5l-94 -201q-24 -51 -47 -73.5t-55 -22.5zM385 1898q0 19 18.5 35.5t47.5 16.5q43 0 90 -45l170 -160l170 160q47 45 92 45q27 0 45 -16.5t18 -35.5q0 -24 -24 -61q-65 -91 -160 -205
q-31 -34 -58 -45.5t-83 -11.5q-55 0 -82.5 11.5t-57.5 45.5q-90 104 -159 205q-27 37 -27 61z" />
    <glyph glyph-name="ecaron" unicode="&#x11b;" horiz-adv-x="1169" 
d="M606 -31q-240 0 -395.5 148t-155.5 387q0 161 79 288t207.5 194t279.5 67q105 0 195.5 -35.5t149 -92.5t91.5 -128.5t33 -145.5q0 -41 -12.5 -56.5t-43.5 -23.5l-610 -188q50 -95 134 -153t190 -58q136 0 264 100q45 35 69 35q21 0 35 -17.5t14 -33.5q0 -21 -20 -57
q-57 -87 -195 -158.5t-309 -71.5zM283 1503q0 19 18 35t47 16q43 0 90 -45l170 -159l170 159q47 45 92 45q28 0 46 -16t18 -35q0 -22 -25 -61q-70 -99 -159 -205q-30 -34 -57.5 -45.5t-84.5 -11.5q-55 0 -81.5 11.5t-57.5 45.5q-95 109 -160 205q-26 36 -26 61zM367 614
q0 -51 8 -92l352 111q26 8 37.5 21t11.5 42q0 72 -57.5 135.5t-140.5 63.5q-93 0 -152 -76.5t-59 -204.5z" />
    <glyph glyph-name="Gcircumflex" unicode="&#x11c;" horiz-adv-x="1587" 
d="M881 -33q-177 0 -325.5 48t-257.5 138.5t-170.5 229.5t-61.5 313q0 172 60 323.5t157.5 253t223 160t255.5 58.5q105 0 219 -24.5t125 -24.5q22 0 52 28.5t54 28.5q60 0 99 -110l69 -197q9 -26 21.5 -58.5t18 -47.5t10 -32t4.5 -30q0 -32 -20 -51t-48 -19q-22 0 -38.5 12
t-41.5 42q-49 64 -80.5 102t-77.5 84.5t-85.5 71t-90.5 42t-106 17.5q-96 0 -174.5 -50t-128 -134.5t-76.5 -192t-27 -225.5q0 -117 28.5 -219t86.5 -184t155 -129.5t224 -47.5q77 0 117.5 23.5t40.5 58.5v260q0 39 -14 64.5t-33.5 37.5t-39 21.5t-33.5 24.5t-14 39
q0 25 19.5 42t58.5 17h437q39 0 58 -17t19 -42q0 -20 -9.5 -34t-23.5 -21.5t-30.5 -17.5t-30.5 -21.5t-23.5 -35.5t-9.5 -57v-219q0 -33 8.5 -56.5t19.5 -33t19.5 -24t8.5 -31.5q0 -25 -15.5 -40.5t-52.5 -29.5q-249 -84 -530 -84zM485 1614q0 22 25 61q65 91 160 205
q31 34 58 45.5t83 11.5q55 0 81.5 -11.5t57.5 -45.5q95 -109 160 -205q27 -37 27 -61q0 -19 -18.5 -35t-47.5 -16q-43 0 -90 45l-170 159l-170 -159q-47 -45 -92 -45q-28 0 -46 16t-18 35z" />
    <glyph glyph-name="gcircumflex" unicode="&#x11d;" horiz-adv-x="1267" 
d="M645 -397q-284 0 -446 70.5t-162 185.5q0 59 42 107t120 81q-113 58 -113 168q0 60 43 120.5t111 104.5q-168 82 -168 248q0 74 36.5 139.5t105 116t176 80t241.5 29.5q80 0 160 -13q52 110 137.5 185t146.5 75q80 0 166 -96q39 -42 39 -76q0 -27 -16.5 -42t-46.5 -15
q-16 0 -63.5 7t-82.5 9t-82 -16t-80 -61q110 -40 169 -111.5t59 -165.5q0 -152 -146 -255t-411 -103q-109 0 -211 20q-45 -41 -45 -59q0 -48 131 -57q269 -24 471 -37q150 -13 242 -84.5t92 -198.5q0 -159 -167 -257.5t-448 -98.5zM260 1235q0 22 25 61q70 99 159 205
q31 34 58.5 46t83.5 12q55 0 81.5 -12t57.5 -46q95 -109 160 -205q26 -36 26 -61q0 -19 -18 -35t-47 -16q-43 0 -90 45l-170 160l-170 -160q-47 -45 -92 -45q-28 0 -46 16t-18 35zM283 -119q0 -149 364 -149q154 0 237 36t83 87q0 81 -154 98q-172 21 -463 53
q-67 -54 -67 -125zM375 721q0 -102 67.5 -158.5t167.5 -56.5q99 0 160 55.5t61 145.5q0 104 -67.5 159.5t-167.5 55.5q-99 0 -160 -55.5t-61 -145.5z" />
    <glyph glyph-name="Gbreve" unicode="&#x11e;" horiz-adv-x="1587" 
d="M881 -33q-177 0 -325.5 48t-257.5 138.5t-170.5 229.5t-61.5 313q0 172 60 323.5t157.5 253t223 160t255.5 58.5q105 0 219 -24.5t125 -24.5q22 0 52 28.5t54 28.5q60 0 99 -110l69 -197q9 -26 21.5 -58.5t18 -47.5t10 -32t4.5 -30q0 -32 -20 -51t-48 -19q-22 0 -38.5 12
t-41.5 42q-49 64 -80.5 102t-77.5 84.5t-85.5 71t-90.5 42t-106 17.5q-96 0 -174.5 -50t-128 -134.5t-76.5 -192t-27 -225.5q0 -117 28.5 -219t86.5 -184t155 -129.5t224 -47.5q77 0 117.5 23.5t40.5 58.5v260q0 39 -14 64.5t-33.5 37.5t-39 21.5t-33.5 24.5t-14 39
q0 25 19.5 42t58.5 17h437q39 0 58 -17t19 -42q0 -20 -9.5 -34t-23.5 -21.5t-30.5 -17.5t-30.5 -21.5t-23.5 -35.5t-9.5 -57v-219q0 -33 8.5 -56.5t19.5 -33t19.5 -24t8.5 -31.5q0 -25 -15.5 -40.5t-52.5 -29.5q-249 -84 -530 -84zM489 1876q0 27 18.5 42t45.5 15
q19 0 36.5 -11.5t27.5 -25t30 -43.5q69 -116 158 -116t158 116q28 42 48 61t48 19q26 0 44.5 -15t18.5 -42q0 -45 -26 -107q-89 -202 -291 -202q-101 0 -174.5 53t-114.5 149q-27 64 -27 107z" />
    <glyph glyph-name="gbreve" unicode="&#x11f;" horiz-adv-x="1267" 
d="M645 -397q-284 0 -446 70.5t-162 185.5q0 59 42 107t120 81q-113 58 -113 168q0 60 43 120.5t111 104.5q-168 82 -168 248q0 74 36.5 139.5t105 116t176 80t241.5 29.5q80 0 160 -13q52 110 137.5 185t146.5 75q80 0 166 -96q39 -42 39 -76q0 -27 -16.5 -42t-46.5 -15
q-16 0 -63.5 7t-82.5 9t-82 -16t-80 -61q110 -40 169 -111.5t59 -165.5q0 -152 -146 -255t-411 -103q-109 0 -211 20q-45 -41 -45 -59q0 -48 131 -57q269 -24 471 -37q150 -13 242 -84.5t92 -198.5q0 -159 -167 -257.5t-448 -98.5zM264 1497q0 27 18.5 42t45.5 15
q28 0 47 -18t47 -61q70 -117 158 -117q87 0 157 117q27 41 48 60t49 19q26 0 44.5 -15t18.5 -42q0 -41 -27 -106q-89 -203 -290 -203q-101 0 -174.5 53.5t-114.5 149.5q-27 65 -27 106zM283 -119q0 -149 364 -149q154 0 237 36t83 87q0 81 -154 98q-172 21 -463 53
q-67 -54 -67 -125zM375 721q0 -102 67.5 -158.5t167.5 -56.5q99 0 160 55.5t61 145.5q0 104 -67.5 159.5t-167.5 55.5q-99 0 -160 -55.5t-61 -145.5z" />
    <glyph glyph-name="Gdotaccent" unicode="&#x120;" horiz-adv-x="1587" 
d="M881 -33q-177 0 -325.5 48t-257.5 138.5t-170.5 229.5t-61.5 313q0 172 60 323.5t157.5 253t223 160t255.5 58.5q105 0 219 -24.5t125 -24.5q22 0 52 28.5t54 28.5q60 0 99 -110l69 -197q9 -26 21.5 -58.5t18 -47.5t10 -32t4.5 -30q0 -32 -20 -51t-48 -19q-22 0 -38.5 12
t-41.5 42q-49 64 -80.5 102t-77.5 84.5t-85.5 71t-90.5 42t-106 17.5q-96 0 -174.5 -50t-128 -134.5t-76.5 -192t-27 -225.5q0 -117 28.5 -219t86.5 -184t155 -129.5t224 -47.5q77 0 117.5 23.5t40.5 58.5v260q0 39 -14 64.5t-33.5 37.5t-39 21.5t-33.5 24.5t-14 39
q0 25 19.5 42t58.5 17h437q39 0 58 -17t19 -42q0 -20 -9.5 -34t-23.5 -21.5t-30.5 -17.5t-30.5 -21.5t-23.5 -35.5t-9.5 -57v-219q0 -33 8.5 -56.5t19.5 -33t19.5 -24t8.5 -31.5q0 -25 -15.5 -40.5t-52.5 -29.5q-249 -84 -530 -84zM645 1722q0 65 46 107.5t118 42.5
q69 0 114.5 -41t45.5 -105q0 -65 -45 -106t-117 -41q-71 0 -116.5 40t-45.5 103z" />
    <glyph glyph-name="gdotaccent" unicode="&#x121;" horiz-adv-x="1267" 
d="M645 -397q-284 0 -446 70.5t-162 185.5q0 59 42 107t120 81q-113 58 -113 168q0 60 43 120.5t111 104.5q-168 82 -168 248q0 74 36.5 139.5t105 116t176 80t241.5 29.5q80 0 160 -13q52 110 137.5 185t146.5 75q80 0 166 -96q39 -42 39 -76q0 -27 -16.5 -42t-46.5 -15
q-16 0 -63.5 7t-82.5 9t-82 -16t-80 -61q110 -40 169 -111.5t59 -165.5q0 -152 -146 -255t-411 -103q-109 0 -211 20q-45 -41 -45 -59q0 -48 131 -57q269 -24 471 -37q150 -13 242 -84.5t92 -198.5q0 -159 -167 -257.5t-448 -98.5zM283 -119q0 -149 364 -149q154 0 237 36
t83 87q0 81 -154 98q-172 21 -463 53q-67 -54 -67 -125zM375 721q0 -102 67.5 -158.5t167.5 -56.5q99 0 160 55.5t61 145.5q0 104 -67.5 159.5t-167.5 55.5q-99 0 -160 -55.5t-61 -145.5zM420 1343q0 65 46 107.5t118 42.5q69 0 114 -40.5t45 -104.5q0 -65 -44.5 -106.5
t-116.5 -41.5q-71 0 -116.5 40t-45.5 103z" />
    <glyph glyph-name="uni0122" unicode="&#x122;" horiz-adv-x="1587" 
d="M881 -33q-177 0 -325.5 48t-257.5 138.5t-170.5 229.5t-61.5 313q0 172 60 323.5t157.5 253t223 160t255.5 58.5q105 0 219 -24.5t125 -24.5q22 0 52 28.5t54 28.5q60 0 99 -110l69 -197q9 -26 21.5 -58.5t18 -47.5t10 -32t4.5 -30q0 -32 -20 -51t-48 -19q-22 0 -38.5 12
t-41.5 42q-49 64 -80.5 102t-77.5 84.5t-85.5 71t-90.5 42t-106 17.5q-96 0 -174.5 -50t-128 -134.5t-76.5 -192t-27 -225.5q0 -117 28.5 -219t86.5 -184t155 -129.5t224 -47.5q77 0 117.5 23.5t40.5 58.5v260q0 39 -14 64.5t-33.5 37.5t-39 21.5t-33.5 24.5t-14 39
q0 25 19.5 42t58.5 17h437q39 0 58 -17t19 -42q0 -20 -9.5 -34t-23.5 -21.5t-30.5 -17.5t-30.5 -21.5t-23.5 -35.5t-9.5 -57v-219q0 -33 8.5 -56.5t19.5 -33t19.5 -24t8.5 -31.5q0 -25 -15.5 -40.5t-52.5 -29.5q-249 -84 -530 -84zM705 -207q0 54 44 90.5t109 36.5
q146 0 146 -145q0 -72 -41 -146.5t-94.5 -119t-94.5 -44.5q-20 0 -32.5 11t-12.5 28q0 6 2 11t3.5 8.5t6.5 9t7 7.5t9 8.5t9 7.5q63 47 63 90q0 6 -1.5 10.5t-5 9t-6.5 7.5t-9.5 6.5t-10 5.5t-11.5 6t-11 6q-33 15 -51 35.5t-18 60.5z" />
    <glyph glyph-name="uni0123" unicode="&#x123;" horiz-adv-x="1267" 
d="M645 -397q-284 0 -446 70.5t-162 185.5q0 59 42 107t120 81q-113 58 -113 168q0 60 43 120.5t111 104.5q-168 82 -168 248q0 74 36.5 139.5t105 116t176 80t241.5 29.5q80 0 160 -13q52 110 137.5 185t146.5 75q80 0 166 -96q39 -42 39 -76q0 -27 -16.5 -42t-46.5 -15
q-16 0 -63.5 7t-82.5 9t-82 -16t-80 -61q110 -40 169 -111.5t59 -165.5q0 -152 -146 -255t-411 -103q-109 0 -211 20q-45 -41 -45 -59q0 -48 131 -57q269 -24 471 -37q150 -13 242 -84.5t92 -198.5q0 -159 -167 -257.5t-448 -98.5zM283 -119q0 -149 364 -149q154 0 237 36
t83 87q0 81 -154 98q-172 21 -463 53q-67 -54 -67 -125zM375 721q0 -102 67.5 -158.5t167.5 -56.5q99 0 160 55.5t61 145.5q0 104 -67.5 159.5t-167.5 55.5q-99 0 -160 -55.5t-61 -145.5zM438 1237q0 102 77.5 196.5t139.5 94.5q19 0 31 -10t12 -27q0 -4 -1 -8t-3.5 -8
t-4 -6.5t-5.5 -6.5t-6 -5.5t-7.5 -6.5t-6.5 -6q-62 -46 -62 -86q0 -5 1.5 -9.5t5 -8.5t6 -7t9.5 -6.5t9.5 -5t11 -5.5t10.5 -5q21 -10 33 -18.5t22.5 -27.5t10.5 -46q0 -51 -42 -85t-104 -34q-137 0 -137 137z" />
    <glyph glyph-name="Hcircumflex" unicode="&#x124;" horiz-adv-x="1703" 
d="M1110 -4q-37 0 -55.5 17t-18.5 42q0 23 13 38t31 24.5t36.5 21.5t31.5 37.5t13 65.5v368q0 29 -12.5 40.5t-48.5 11.5h-496q-36 0 -48.5 -11.5t-12.5 -40.5v-368q0 -48 20 -77t43.5 -38t43.5 -26.5t20 -45.5q0 -25 -19 -42t-55 -17q-19 0 -88.5 3t-134.5 3t-134 -3
t-87 -3q-37 0 -55.5 17t-18.5 42q0 23 13 38t31 24.5t36.5 21.5t31.5 37.5t13 65.5v975q0 40 -13 65.5t-31.5 37.5t-36.5 21.5t-31 24.5t-13 39q0 25 21 41t59 16q18 0 84 -3t131 -3t134.5 3t88.5 3q36 0 55 -16t19 -41q0 -24 -13 -39t-32 -24.5t-37.5 -21.5t-31.5 -37.5
t-13 -65.5v-345q0 -30 12.5 -41.5t48.5 -11.5h496q36 0 48.5 11.5t12.5 41.5v345q0 40 -13 65.5t-31.5 37.5t-36.5 21.5t-31 24.5t-13 39q0 25 18 41t56 16q18 0 87 -3t134 -3t135 3t88 3q36 0 55 -16t19 -41q0 -24 -13 -39t-32 -24.5t-37.5 -21.5t-31.5 -37.5t-13 -65.5
v-975q0 -48 20 -77t43.5 -38t43.5 -26.5t20 -45.5q0 -25 -19 -42t-55 -17q-18 0 -88 3t-135 3t-134 -3t-87 -3zM530 1614q0 22 25 61q65 91 160 205q31 34 58 45.5t83 11.5q55 0 81.5 -11.5t57.5 -45.5q95 -109 160 -205q27 -37 27 -61q0 -19 -18.5 -35t-47.5 -16
q-43 0 -90 45l-170 159l-170 -159q-47 -45 -92 -45q-28 0 -46 16t-18 35z" />
    <glyph glyph-name="hcircumflex" unicode="&#x125;" horiz-adv-x="1337" 
d="M119 -4q-35 0 -52.5 16.5t-17.5 40.5q0 22 12.5 36t29.5 23t34.5 21t30 39.5t12.5 69.5v948q0 36 -14 58t-33.5 30.5t-39.5 15.5t-34 21t-14 39q0 32 38.5 57t157.5 80q149 65 187 65q59 0 59 -90v-620q51 89 139.5 146t202.5 57q77 0 137 -31t99.5 -87.5t64 -127
t35.5 -156.5l49 -381q7 -50 23.5 -83t35.5 -46.5t37 -23.5t29.5 -24t11.5 -38q0 -25 -19.5 -39t-53.5 -14q-20 0 -81.5 3t-121.5 3q-63 0 -125 -3t-82 -3q-76 0 -76 57q0 25 18.5 41t41 23.5t41 28t18.5 53.5q0 13 -6 67l-43 303q-32 244 -182 244q-78 0 -135.5 -66.5
t-57.5 -207.5v-299q0 -42 12.5 -69.5t30.5 -39.5t36.5 -21t31 -23t12.5 -36q0 -23 -18 -40t-52 -17q-16 0 -81.5 3t-124.5 3q-58 0 -121.5 -3t-81.5 -3zM-4 1647q0 24 24 61q65 91 160 205q30 34 57.5 45.5t84.5 11.5q55 0 81.5 -11.5t57.5 -45.5q95 -109 160 -205
q26 -36 26 -61q0 -19 -18 -35.5t-47 -16.5q-43 0 -90 45l-170 160l-170 -160q-47 -45 -93 -45q-27 0 -45 16.5t-18 35.5z" />
    <glyph glyph-name="Hbar" unicode="&#x126;" horiz-adv-x="1716" 
d="M111 991q-44 0 -62 19.5t-18 60.5q0 40 18 59t62 19h96v68q0 40 -13 65.5t-31.5 37.5t-36.5 21.5t-31 24.5t-13 39q0 25 21 41t59 16q18 0 84 -3t131 -3t134.5 3t88.5 3q36 0 55 -16t19 -41q0 -24 -13 -39t-32 -24.5t-37.5 -21.5t-31.5 -37.5t-13 -65.5v-74h618v74
q0 40 -13 65.5t-31.5 37.5t-36.5 21.5t-31 24.5t-13 39q0 25 18 41t56 16q18 0 87 -3t134 -3t135.5 3t88.5 3q36 0 54.5 -16t18.5 -41q0 -24 -13 -39t-32 -24.5t-37.5 -21.5t-31.5 -37.5t-13 -65.5v-68h113q43 0 61.5 -19t18.5 -59q0 -41 -18.5 -60.5t-61.5 -19.5h-113v-749
q0 -48 20 -77t43.5 -38t43.5 -26.5t20 -45.5q0 -25 -18.5 -42t-54.5 -17q-18 0 -88.5 3t-135.5 3t-134 -3t-87 -3q-37 0 -55.5 17t-18.5 42q0 23 13 38t31 24.5t36.5 21.5t31.5 37.5t13 65.5v368q0 29 -12.5 40.5t-48.5 11.5h-496q-36 0 -48.5 -11.5t-12.5 -40.5v-368
q0 -48 20 -77t43.5 -38t43.5 -26.5t20 -45.5q0 -25 -19 -42t-55 -17q-19 0 -88.5 3t-134.5 3t-134 -3t-87 -3q-37 0 -55.5 17t-18.5 42q0 23 13 38t31 24.5t36.5 21.5t31.5 37.5t13 65.5v749h-96zM547 872q0 -30 12.5 -41.5t48.5 -11.5h496q36 0 48.5 11.5t12.5 41.5v125
h-618v-125z" />
    <glyph glyph-name="hbar" unicode="&#x127;" horiz-adv-x="1337" 
d="M57 1085q-43 0 -61.5 18t-18.5 56q0 74 80 74h105q-9 25 -31.5 39.5t-43.5 19.5t-37.5 20t-16.5 42q0 32 38.5 57t157.5 80q149 65 187 65q59 0 59 -90v-233h250q80 0 80 -74q0 -38 -18.5 -56t-61.5 -18h-250v-266q52 86 140 141.5t202 55.5q77 0 137 -30t99.5 -85
t64 -123t35.5 -151l49 -369q6 -42 19 -71.5t28 -43.5t31 -25t29 -17.5t21.5 -19.5t8.5 -32q0 -24 -19.5 -37.5t-53.5 -13.5q-20 0 -81.5 3t-121.5 3q-63 0 -125 -3t-82 -3q-38 0 -57 15t-19 38q0 25 18.5 41t41 23.5t41 27.5t18.5 52q0 15 -6 63l-43 295q-32 240 -182 240
q-78 0 -135.5 -66t-57.5 -203v-282q0 -42 12.5 -69.5t30.5 -39.5t36.5 -21t31 -23t12.5 -36q0 -23 -18 -40t-52 -17q-16 0 -81.5 3t-124.5 3q-58 0 -121.5 -3t-81.5 -3q-35 0 -52.5 16.5t-17.5 40.5q0 22 12.5 36t29.5 23t34.5 21t30 39.5t12.5 69.5v843h-111z" />
    <glyph glyph-name="Itilde" unicode="&#x128;" horiz-adv-x="745" 
d="M152 -4q-37 0 -55.5 17t-18.5 42q0 23 13 38t31 24.5t36.5 21.5t31.5 37.5t13 65.5v975q0 40 -13 65.5t-31.5 37.5t-36.5 21.5t-31 24.5t-13 39q0 25 21 41t59 16q18 0 84 -3t131 -3t134.5 3t88.5 3q36 0 55 -16t19 -41q0 -24 -13 -39t-32 -24.5t-37.5 -21.5t-31.5 -37.5
t-13 -65.5v-975q0 -48 20 -77t43.5 -38t43.5 -26.5t20 -45.5q0 -25 -19 -42t-55 -17q-19 0 -88.5 3t-134.5 3t-134 -3t-87 -3zM39 1661q0 37 14 76q24 72 72.5 118t110.5 46q44 0 87.5 -23.5t71 -51.5t57 -51.5t48.5 -23.5q26 0 63 64q13 22 17 28t14.5 19t20.5 16.5t24 3.5
q26 0 40.5 -15.5t14.5 -43.5q0 -30 -14 -76q-26 -75 -73.5 -119.5t-110.5 -44.5q-44 0 -88.5 23.5t-72.5 51.5t-56.5 51.5t-45.5 23.5q-28 0 -65 -64q-28 -47 -42 -57t-32 -10q-26 0 -40.5 15.5t-14.5 43.5z" />
    <glyph glyph-name="itilde" unicode="&#x129;" horiz-adv-x="665" 
d="M141 -4q-34 0 -51.5 16.5t-17.5 40.5q0 22 12.5 36t30.5 23t35.5 21t30 39.5t12.5 69.5v432q0 36 -14 58t-34 30.5t-40 15.5t-34 21t-14 39q0 32 39 57.5t158 79.5q149 65 182 65q64 0 64 -98v-700q0 -42 12.5 -69.5t30 -39.5t35.5 -21t30.5 -23t12.5 -36
q0 -23 -17.5 -40t-50.5 -17q-18 0 -83.5 3t-123.5 3t-122.5 -3t-82.5 -3zM2 1282q0 38 14 76q24 72 72.5 118t110.5 46q44 0 87.5 -23.5t71 -51.5t57 -51.5t48.5 -23.5q26 0 63 64q13 22 17 28t14.5 19t20.5 16.5t24 3.5q26 0 40.5 -15.5t14.5 -43.5q0 -30 -14 -76
q-26 -75 -73.5 -119.5t-110.5 -44.5q-44 0 -88 23.5t-72.5 51.5t-56.5 51.5t-45 23.5q-29 0 -66 -64q-28 -47 -42 -57t-32 -10q-26 0 -40.5 15.5t-14.5 43.5z" />
    <glyph glyph-name="Imacron" unicode="&#x12a;" horiz-adv-x="745" 
d="M152 -4q-37 0 -55.5 17t-18.5 42q0 23 13 38t31 24.5t36.5 21.5t31.5 37.5t13 65.5v975q0 40 -13 65.5t-31.5 37.5t-36.5 21.5t-31 24.5t-13 39q0 25 21 41t59 16q18 0 84 -3t131 -3t134.5 3t88.5 3q36 0 55 -16t19 -41q0 -24 -13 -39t-32 -24.5t-37.5 -21.5t-31.5 -37.5
t-13 -65.5v-975q0 -48 20 -77t43.5 -38t43.5 -26.5t20 -45.5q0 -25 -19 -42t-55 -17q-19 0 -88.5 3t-134.5 3t-134 -3t-87 -3zM41 1735q0 82 68 82l253 -2q38 0 133 1t123 1q68 0 68 -82q0 -84 -68 -84q-31 0 -124 2t-129 2q-38 0 -133 -2t-123 -2q-68 0 -68 84z" />
    <glyph glyph-name="imacron" unicode="&#x12b;" horiz-adv-x="665" 
d="M141 -4q-34 0 -51.5 16.5t-17.5 40.5q0 22 12.5 36t30.5 23t35.5 21t30 39.5t12.5 69.5v432q0 36 -14 58t-34 30.5t-40 15.5t-34 21t-14 39q0 32 39 57.5t158 79.5q149 65 182 65q64 0 64 -98v-700q0 -42 12.5 -69.5t30 -39.5t35.5 -21t30.5 -23t12.5 -36
q0 -23 -17.5 -40t-50.5 -17q-18 0 -83.5 3t-123.5 3t-122.5 -3t-82.5 -3zM4 1356q0 82 68 82l254 -2q38 0 133 1t123 1q67 0 67 -82q0 -43 -15.5 -63.5t-51.5 -20.5q-31 0 -124.5 2t-129.5 2q-38 0 -133 -2t-123 -2q-68 0 -68 84z" />
    <glyph glyph-name="Ibreve" unicode="&#x12c;" horiz-adv-x="745" 
d="M152 -4q-37 0 -55.5 17t-18.5 42q0 23 13 38t31 24.5t36.5 21.5t31.5 37.5t13 65.5v975q0 40 -13 65.5t-31.5 37.5t-36.5 21.5t-31 24.5t-13 39q0 25 21 41t59 16q18 0 84 -3t131 -3t134.5 3t88.5 3q36 0 55 -16t19 -41q0 -24 -13 -39t-32 -24.5t-37.5 -21.5t-31.5 -37.5
t-13 -65.5v-975q0 -48 20 -77t43.5 -38t43.5 -26.5t20 -45.5q0 -25 -19 -42t-55 -17q-19 0 -88.5 3t-134.5 3t-134 -3t-87 -3zM49 1876q0 27 18.5 42t45.5 15q19 0 36.5 -11.5t27.5 -25t30 -43.5q69 -116 158 -116q88 0 157 116q28 42 48 61t48 19q26 0 45 -15.5t19 -41.5
q0 -42 -27 -107q-89 -202 -290 -202q-101 0 -174.5 53t-114.5 149q-27 65 -27 107z" />
    <glyph glyph-name="ibreve" unicode="&#x12d;" horiz-adv-x="665" 
d="M141 -4q-34 0 -51.5 16.5t-17.5 40.5q0 22 12.5 36t30.5 23t35.5 21t30 39.5t12.5 69.5v432q0 36 -14 58t-34 30.5t-40 15.5t-34 21t-14 39q0 32 39 57.5t158 79.5q149 65 182 65q64 0 64 -98v-700q0 -42 12.5 -69.5t30 -39.5t35.5 -21t30.5 -23t12.5 -36
q0 -23 -17.5 -40t-50.5 -17q-18 0 -83.5 3t-123.5 3t-122.5 -3t-82.5 -3zM12 1497q0 27 18.5 42t45.5 15q28 0 47 -18t47 -61q70 -117 158 -117q87 0 157 117q27 41 48 60t49 19q26 0 44.5 -15t18.5 -42q0 -41 -27 -106q-89 -203 -290 -203q-101 0 -174.5 53.5t-114.5 149.5
q-27 65 -27 106z" />
    <glyph glyph-name="Iogonek" unicode="&#x12e;" horiz-adv-x="745" 
d="M152 -4q-37 0 -55.5 17t-18.5 42q0 23 13 38t31 24.5t36.5 21.5t31.5 37.5t13 65.5v975q0 40 -13 65.5t-31.5 37.5t-36.5 21.5t-31 24.5t-13 39q0 25 21 41t59 16q18 0 84 -3t131 -3t134.5 3t88.5 3q36 0 55 -16t19 -41q0 -24 -13 -39t-32 -24.5t-37.5 -21.5t-31.5 -37.5
t-13 -65.5v-975q0 -48 20 -77t43.5 -38t43.5 -26.5t20 -45.5q0 -25 -19 -42t-55 -17q-15 0 -137 4q-103 -111 -103 -213q0 -35 14.5 -53.5t37.5 -18.5q19 0 49 13q20 12 32 12q15 0 27 -12.5t12 -30.5q0 -33 -28 -55q-63 -52 -154 -52q-73 0 -120.5 45t-47.5 121
q0 123 148 246q-41 -1 -96.5 -3.5t-77.5 -2.5z" />
    <glyph glyph-name="iogonek" unicode="&#x12f;" horiz-adv-x="665" 
d="M141 -4q-34 0 -51.5 16.5t-17.5 40.5q0 22 12.5 36t30.5 23t35.5 21t30 39.5t12.5 69.5v432q0 36 -14 58t-34 30.5t-40 15.5t-34 21t-14 39q0 32 39 57.5t158 79.5q149 65 182 65q64 0 64 -98v-700q0 -42 12.5 -69.5t30 -39.5t35.5 -21t30.5 -23t12.5 -36
q0 -23 -17.5 -40t-50.5 -17q-18 0 -104 4q-103 -111 -103 -213q0 -35 14 -53.5t37 -18.5q19 0 49 13q20 12 33 12q15 0 27 -12.5t12 -30.5q0 -32 -29 -55q-63 -52 -153 -52q-73 0 -120.5 45t-47.5 121q0 124 147 246q-39 -1 -95 -3.5t-79 -2.5zM123 1313q0 80 74 146.5
t176 66.5q66 0 112.5 -38.5t46.5 -98.5q0 -77 -78 -141t-180 -64q-68 0 -109.5 35.5t-41.5 93.5z" />
    <glyph glyph-name="Idotaccent" unicode="&#x130;" horiz-adv-x="745" 
d="M152 -4q-37 0 -55.5 17t-18.5 42q0 23 13 38t31 24.5t36.5 21.5t31.5 37.5t13 65.5v975q0 40 -13 65.5t-31.5 37.5t-36.5 21.5t-31 24.5t-13 39q0 25 21 41t59 16q18 0 84 -3t131 -3t134.5 3t88.5 3q36 0 55 -16t19 -41q0 -24 -13 -39t-32 -24.5t-37.5 -21.5t-31.5 -37.5
t-13 -65.5v-975q0 -48 20 -77t43.5 -38t43.5 -26.5t20 -45.5q0 -25 -19 -42t-55 -17q-19 0 -88.5 3t-134.5 3t-134 -3t-87 -3zM205 1722q0 65 46 107.5t118 42.5q69 0 114 -41t45 -105q0 -65 -44.5 -106t-116.5 -41q-71 0 -116.5 40t-45.5 103z" />
    <glyph glyph-name="dotlessi" unicode="&#x131;" horiz-adv-x="665" 
d="M141 -4q-34 0 -51.5 16.5t-17.5 40.5q0 22 12.5 36t30.5 23t35.5 21t30 39.5t12.5 69.5v432q0 36 -14 58t-34 30.5t-40 15.5t-34 21t-14 39q0 32 39 57.5t158 79.5q149 65 182 65q64 0 64 -98v-700q0 -42 12.5 -69.5t30 -39.5t35.5 -21t30.5 -23t12.5 -36
q0 -23 -17.5 -40t-50.5 -17q-18 0 -83.5 3t-123.5 3t-122.5 -3t-82.5 -3z" />
    <glyph glyph-name="IJ" unicode="&#x132;" horiz-adv-x="1857" 
d="M152 -4q-37 0 -55.5 17t-18.5 42q0 23 13 38t31 24.5t36.5 21.5t31.5 37.5t13 65.5v975q0 40 -13 65.5t-31.5 37.5t-36.5 21.5t-31 24.5t-13 39q0 25 21 41t59 16q18 0 84 -3t131 -3t134.5 3t88.5 3q36 0 55 -16t19 -41q0 -24 -13 -39t-32 -24.5t-37.5 -21.5t-31.5 -37.5
t-13 -65.5v-975q0 -48 20 -77t43.5 -38t43.5 -26.5t20 -45.5q0 -25 -19 -42t-55 -17q-19 0 -88.5 3t-134.5 3t-134 -3t-87 -3zM756 184q0 56 73 265q30 86 82 83q56 0 68 -69q31 -177 74 -252.5t131 -75.5q76 0 116.5 59.5t40.5 155.5l-2 867q0 34 -10.5 57.5t-26.5 35
t-34.5 21.5t-34.5 17t-26.5 21.5t-10.5 35.5q0 25 20 41t58 16q19 0 91.5 -3t141.5 -3q65 0 136 3t88 3q37 0 55 -16t18 -41q0 -24 -13 -39t-31 -24.5t-36.5 -21.5t-31.5 -37.5t-13 -65.5v-865q0 -183 -119 -283t-346 -100q-116 0 -222 29.5t-171 79.5t-65 106z" />
    <glyph glyph-name="ij" unicode="&#x133;" horiz-adv-x="1280" 
d="M141 -4q-34 0 -51.5 16.5t-17.5 40.5q0 22 12.5 36t30.5 23t35.5 21t30 39.5t12.5 69.5v432q0 36 -14 58t-34 30.5t-40 15.5t-34 21t-14 39q0 32 39 57.5t158 79.5q149 65 182 65q64 0 64 -98v-700q0 -42 12.5 -69.5t30 -39.5t35.5 -21t30.5 -23t12.5 -36
q0 -23 -17.5 -40t-50.5 -17q-18 0 -83.5 3t-123.5 3t-122.5 -3t-82.5 -3zM123 1313q0 80 74 146.5t176 66.5q66 0 112.5 -38.5t46.5 -98.5q0 -77 -78 -141t-180 -64q-68 0 -109.5 35.5t-41.5 93.5zM565 -272q0 48 6 86.5t25.5 69t50.5 30.5t53 -43q31 -58 56 -85.5t51 -27.5
q19 0 31 16t12 46q0 18 -5 76t-5 102v678q0 36 -14 57.5t-34 30t-39.5 15.5t-33.5 21.5t-14 39.5q0 31 41 58t155 77q148 67 182 67q64 0 64 -98v-913q0 -124 -64.5 -224t-164 -152t-211.5 -52q-78 0 -109 29.5t-33 95.5zM770 1313q0 80 74 146.5t176 66.5q67 0 113.5 -38.5
t46.5 -98.5q0 -77 -78 -141t-180 -64q-68 0 -110 35.5t-42 93.5z" />
    <glyph glyph-name="Jcircumflex" unicode="&#x134;" horiz-adv-x="1112" 
d="M469 -31q-116 0 -222.5 29.5t-171.5 79.5t-65 106q0 53 74 265q30 86 82 83q55 0 67 -69q31 -177 74 -252.5t131 -75.5q76 0 117 59.5t41 155.5l-2 867q0 40 -14.5 65.5t-36 37t-42.5 21t-35.5 25t-14.5 39.5q0 25 19.5 41t57.5 16q19 0 92 -3t142 -3q66 0 136 3t87 3
q38 0 56 -16t18 -41q0 -24 -13 -39t-31.5 -24.5t-36.5 -21.5t-31 -37.5t-13 -65.5v-865q0 -183 -119 -283t-346 -100zM424 1614q0 22 25 61q70 99 159 205q30 34 57.5 45.5t84.5 11.5q55 0 81.5 -11.5t57.5 -45.5q95 -109 160 -205q26 -36 26 -61q0 -19 -18 -35t-47 -16
q-43 0 -90 45l-170 159l-170 -159q-47 -45 -93 -45q-28 0 -45.5 16t-17.5 35z" />
    <glyph glyph-name="jcircumflex" unicode="&#x135;" horiz-adv-x="612" 
d="M41 -397q-77 0 -108 29t-33 96q0 48 6 86.5t25.5 69t50.5 30.5t53 -43q32 -59 56 -86t50 -27q19 0 31 16t12 46q0 18 -5 76t-5 102v678q0 36 -14 57.5t-33.5 30t-39.5 15.5t-34 21.5t-14 39.5q0 31 41 57.5t156 77.5q148 67 182 67q63 0 63 -98v-913q0 -124 -64.5 -224
t-164 -152t-211.5 -52zM-10 1235q0 23 24 61q65 91 160 205q31 34 58 46t83 12q55 0 82 -12t58 -46q90 -104 159 -205q27 -38 27 -61q0 -19 -18.5 -35t-47.5 -16q-43 0 -90 45l-170 160l-170 -160q-47 -45 -92 -45q-28 0 -45.5 16t-17.5 35z" />
    <glyph glyph-name="uni0136" unicode="&#x136;" horiz-adv-x="1574" 
d="M152 -4q-37 0 -55.5 17t-18.5 42q0 23 13 38t31 24.5t36.5 21.5t31.5 37.5t13 65.5v975q0 40 -13 65.5t-31.5 37.5t-36.5 21.5t-31 24.5t-13 39q0 25 21 41t59 16q18 0 84 -3t131 -3t134.5 3t88.5 3q36 0 55 -16t19 -41q0 -24 -13 -39t-32 -24.5t-37.5 -21.5t-31.5 -37.5
t-13 -65.5v-443l465 445l10 10l9 9l7.5 7.5t7 7.5t5 7t4.5 7t3.5 6.5t3 8t1 7.5t0.5 9q0 16 -15 27t-33 17.5t-33 21.5t-15 39q0 29 24 44t66 15q31 0 103 -3t101 -3q31 0 112 3t106 3q28 0 44.5 -14.5t16.5 -40.5q0 -30 -24.5 -48.5t-58 -26.5t-80.5 -28.5t-79 -50.5
l-321 -299l461 -733q18 -30 42.5 -52t44 -33t37 -21.5t27.5 -25.5t10 -38q0 -24 -17.5 -39.5t-51.5 -15.5q-14 0 -98 3t-150 3q-63 0 -137 -3t-99 -3q-44 0 -65 16.5t-21 42.5t16 42.5t34.5 23.5t34.5 23.5t16 43.5t-29 80l-293 465l-192 -178v-313q0 -48 20 -77t43.5 -38
t43.5 -26.5t20 -45.5q0 -25 -19 -42t-55 -17q-19 0 -88.5 3t-134.5 3t-134 -3t-87 -3zM637 -207q0 54 44.5 90.5t109.5 36.5q145 0 145 -145q0 -55 -24.5 -113t-60 -100t-75 -69.5t-69.5 -27.5q-20 0 -32.5 11t-12.5 28q0 5 1 9t3.5 8.5t4 7.5t6 7.5l6 6t8 7t7.5 6.5
q64 47 64 90q0 6 -1.5 10.5t-5 9t-6.5 7.5t-9.5 6.5t-10 5.5t-11.5 6t-11 6q-33 15 -51.5 35.5t-18.5 60.5z" />
    <glyph glyph-name="uni0137" unicode="&#x137;" horiz-adv-x="1318" 
d="M119 -4q-35 0 -52.5 16.5t-17.5 40.5q0 22 12.5 36t29.5 23t34.5 21t30 39.5t12.5 69.5v948q0 36 -14 58t-33.5 30.5t-39.5 15.5t-34 21t-14 39q0 32 38.5 57t157.5 80q149 65 187 65q59 0 59 -90v-927l299 264q21 19 28.5 26t14 18t6.5 23q0 16 -13.5 26.5t-30.5 15.5
t-30.5 20.5t-13.5 40.5q0 55 78 55q20 0 83 -3t91 -3q29 0 111 3t102 3q28 0 47 -14.5t19 -38.5q0 -28 -22 -46t-52.5 -26t-74 -27.5t-75.5 -46.5l-161 -135l319 -504q19 -30 46 -50.5t47 -28t35 -23t15 -39.5t-18.5 -38.5t-46.5 -14.5q-20 0 -92.5 3t-132.5 3
q-55 0 -121.5 -3t-87.5 -3q-78 0 -78 55q0 24 14 39t30 21t30 22t14 41q0 29 -33 82l-157 258l-189 -156v-116q0 -42 12.5 -69.5t30.5 -39.5t36.5 -21t31 -23t12.5 -36q0 -23 -18 -40t-52 -17q-16 0 -81.5 3t-124.5 3q-58 0 -121.5 -3t-81.5 -3zM539 -207q0 54 44 90.5
t109 36.5q146 0 146 -145q0 -72 -41 -146.5t-94.5 -119t-94.5 -44.5q-20 0 -32.5 11t-12.5 28q0 6 2 11t3.5 8.5t6.5 9t7 7.5t9 8.5t9 7.5q64 47 64 90q0 7 -2.5 12.5t-5.5 9.5t-10 8.5t-11 6.5l-14 7t-13 7q-33 15 -51 35.5t-18 60.5z" />
    <glyph glyph-name="kgreenlandic" unicode="&#x138;" horiz-adv-x="1343" 
d="M141 -6q-34 0 -51.5 16.5t-17.5 40.5q0 22 12.5 36t30.5 23t35.5 21t30 39.5t12.5 69.5v432q0 44 -21.5 68t-46.5 29.5t-46.5 21t-21.5 45.5q0 32 41 59.5t156 77.5q148 67 182 67q64 0 64 -98v-401l299 264q28 25 38.5 38.5t10.5 30.5q0 16 -14 26.5t-30 15.5t-30 20
t-14 39q0 55 78 55q20 0 83 -3t91 -3q29 0 111 3t102 3q28 0 46.5 -14.5t18.5 -38.5q0 -28 -22 -45.5t-52 -25t-73.5 -26.5t-75.5 -46l-164 -138l322 -508q19 -30 46 -50.5t47 -28t35 -23t15 -39.5t-18.5 -38.5t-46.5 -14.5q-20 0 -93 3t-133 3q-55 0 -121.5 -3t-87.5 -3
q-77 0 -77 55q0 24 13.5 39t30.5 21t30.5 22t13.5 41q0 28 -27 70l-166 272l-186 -156v-118q0 -42 12.5 -69.5t30 -39.5t35.5 -21t30.5 -23t12.5 -36q0 -23 -17.5 -40t-50.5 -17q-18 0 -83.5 3t-123.5 3t-122.5 -3t-82.5 -3z" />
    <glyph glyph-name="Lacute" unicode="&#x139;" horiz-adv-x="1341" 
d="M1090 -49q-25 0 -65.5 24.5t-88.5 24.5h-563q-65 0 -135 -3t-84 -3q-76 0 -76 59q0 23 13 38t31 24.5t36.5 21.5t31.5 37.5t13 65.5v977q0 40 -13 65.5t-31.5 37.5t-36.5 21.5t-31 24.5t-13 39q0 25 21 41t59 16q18 0 84 -3t131 -3t134.5 3t88.5 3q36 0 55 -16t19 -41
q0 -24 -13 -39t-32 -24.5t-37.5 -21.5t-31.5 -37.5t-13 -65.5v-971q0 -46 21.5 -67t70.5 -21h151q55 0 105.5 17.5t103.5 57.5t96 82t109 113q21 23 30.5 32t24.5 17t31 8q24 0 43 -18.5t19 -48.5t-12 -62t-46 -102l-94 -205q-25 -53 -49 -75.5t-57 -22.5zM336 1585
q0 21 18 53q91 147 160 242q21 30 48 41.5t87 11.5q77 0 103 -11t26 -40q0 -23 -16 -43.5t-62 -64.5q-14 -12 -88.5 -81.5t-115.5 -103.5q-46 -41 -103 -41q-26 0 -41.5 11t-15.5 26z" />
    <glyph glyph-name="lacute" unicode="&#x13a;" horiz-adv-x="645" 
d="M119 -4q-35 0 -52.5 16.5t-17.5 40.5q0 22 12.5 36t29.5 23t34.5 21t30 39.5t12.5 69.5v948q0 36 -14 58t-33.5 30.5t-39.5 15.5t-34 21t-14 39q0 32 38.5 57t157.5 80q149 65 183 65q63 0 63 -96v-1218q0 -42 12.5 -69.5t30.5 -39.5t36.5 -21t31 -23t12.5 -36
q0 -23 -18 -40t-52 -17q-16 0 -81.5 3t-124.5 3q-58 0 -121.5 -3t-81.5 -3zM166 1647q0 21 18 53q91 147 160 242q21 30 48 41.5t87 11.5q77 0 103 -11t26 -40q0 -23 -16.5 -44t-61.5 -65q-11 -9 -87 -79t-117 -105q-46 -41 -103 -41q-26 0 -41.5 11t-15.5 26z" />
    <glyph glyph-name="uni013B" unicode="&#x13b;" horiz-adv-x="1341" 
d="M1090 -49q-25 0 -65.5 24.5t-88.5 24.5h-563q-65 0 -135 -3t-84 -3q-76 0 -76 59q0 23 13 38t31 24.5t36.5 21.5t31.5 37.5t13 65.5v977q0 40 -13 65.5t-31.5 37.5t-36.5 21.5t-31 24.5t-13 39q0 25 21 41t59 16q18 0 84 -3t131 -3t134.5 3t88.5 3q36 0 55 -16t19 -41
q0 -24 -13 -39t-32 -24.5t-37.5 -21.5t-31.5 -37.5t-13 -65.5v-971q0 -46 21.5 -67t70.5 -21h151q55 0 105.5 17.5t103.5 57.5t96 82t109 113q21 23 30.5 32t24.5 17t31 8q24 0 43 -18.5t19 -48.5t-12 -62t-46 -102l-94 -205q-25 -53 -49 -75.5t-57 -22.5zM553 -207
q0 54 44.5 90.5t109.5 36.5q145 0 145 -145q0 -55 -24.5 -113t-60 -100t-75 -69.5t-69.5 -27.5q-20 0 -32.5 11t-12.5 28q0 5 1 9t3.5 8.5t4 7.5t6 7.5l6 6t8 7t7.5 6.5q64 47 64 90q0 6 -1.5 10.5t-5 9t-6.5 7.5t-9.5 6.5t-10 5.5t-11.5 6t-11 6q-33 15 -51.5 35.5
t-18.5 60.5z" />
    <glyph glyph-name="uni013C" unicode="&#x13c;" horiz-adv-x="645" 
d="M119 -4q-35 0 -52.5 16.5t-17.5 40.5q0 22 12.5 36t29.5 23t34.5 21t30 39.5t12.5 69.5v948q0 36 -14 58t-33.5 30.5t-39.5 15.5t-34 21t-14 39q0 32 38.5 57t157.5 80q149 65 183 65q63 0 63 -96v-1218q0 -42 12.5 -69.5t30.5 -39.5t36.5 -21t31 -23t12.5 -36
q0 -23 -18 -40t-52 -17q-16 0 -81.5 3t-124.5 3q-58 0 -121.5 -3t-81.5 -3zM186 -207q0 54 44.5 90.5t109.5 36.5q145 0 145 -145q0 -55 -24.5 -113t-60 -100t-75 -69.5t-69.5 -27.5q-20 0 -32.5 11t-12.5 28q0 6 2 11t3.5 8.5t6.5 9t7 7.5t9 8.5t9 7.5q63 47 63 90
q0 6 -1.5 10.5t-5 9t-6.5 7.5t-9.5 6.5t-10 5.5t-11.5 6t-11 6q-33 15 -51.5 35.5t-18.5 60.5z" />
    <glyph glyph-name="Lcaron" unicode="&#x13d;" horiz-adv-x="1341" 
d="M1090 -49q-25 0 -65.5 24.5t-88.5 24.5h-563q-65 0 -135 -3t-84 -3q-76 0 -76 59q0 23 13 38t31 24.5t36.5 21.5t31.5 37.5t13 65.5v977q0 40 -13 65.5t-31.5 37.5t-36.5 21.5t-31 24.5t-13 39q0 25 21 41t59 16q18 0 84 -3t131 -3t134.5 3t88.5 3q36 0 55 -16t19 -41
q0 -24 -13 -39t-32 -24.5t-37.5 -21.5t-31.5 -37.5t-13 -65.5v-971q0 -46 21.5 -67t70.5 -21h151q55 0 105.5 17.5t103.5 57.5t96 82t109 113q21 23 30.5 32t24.5 17t31 8q24 0 43 -18.5t19 -48.5t-12 -62t-46 -102l-94 -205q-25 -53 -49 -75.5t-57 -22.5zM750 1047l2 423
q0 40 15 55t58 15q61 0 87 -15.5t26 -51.5q0 -83 -20.5 -209.5t-45.5 -214.5q-17 -58 -69 -58q-26 0 -39.5 12.5t-13.5 43.5z" />
    <glyph glyph-name="lcaron" unicode="&#x13e;" horiz-adv-x="645" 
d="M119 -4q-35 0 -52.5 16.5t-17.5 40.5q0 22 12.5 36t29.5 23t34.5 21t30 39.5t12.5 69.5v948q0 36 -14 58t-33.5 30.5t-39.5 15.5t-34 21t-14 39q0 32 38.5 57t157.5 80q149 65 183 65q63 0 63 -96v-1218q0 -42 12.5 -69.5t30.5 -39.5t36.5 -21t31 -23t12.5 -36
q0 -23 -18 -40t-52 -17q-16 0 -81.5 3t-124.5 3q-58 0 -121.5 -3t-81.5 -3zM600 1098l2 424q0 40 15 54.5t59 14.5q60 0 86 -15t26 -52q0 -84 -20 -210.5t-45 -213.5q-17 -58 -70 -58q-26 0 -39.5 12.5t-13.5 43.5z" />
    <glyph glyph-name="Ldot" unicode="&#x13f;" horiz-adv-x="1341" 
d="M1090 -49q-25 0 -65.5 24.5t-88.5 24.5h-563q-65 0 -135 -3t-84 -3q-76 0 -76 59q0 23 13 38t31 24.5t36.5 21.5t31.5 37.5t13 65.5v977q0 40 -13 65.5t-31.5 37.5t-36.5 21.5t-31 24.5t-13 39q0 25 21 41t59 16q18 0 84 -3t131 -3t134.5 3t88.5 3q36 0 55 -16t19 -41
q0 -24 -13 -39t-32 -24.5t-37.5 -21.5t-31.5 -37.5t-13 -65.5v-971q0 -46 21.5 -67t70.5 -21h151q55 0 105.5 17.5t103.5 57.5t96 82t109 113q21 23 30.5 32t24.5 17t31 8q24 0 43 -18.5t19 -48.5t-12 -62t-46 -102l-94 -205q-25 -53 -49 -75.5t-57 -22.5zM864 770
q0 -61 41.5 -97t110.5 -36q77 0 127.5 44t50.5 105t-43 97.5t-111 36.5q-77 0 -126.5 -43.5t-49.5 -106.5z" />
    <glyph glyph-name="ldot" unicode="&#x140;" horiz-adv-x="790" 
d="M119 -4q-35 0 -52.5 16.5t-17.5 40.5q0 22 12.5 36t29.5 23t34.5 21t30 39.5t12.5 69.5v948q0 36 -14 58t-33.5 30.5t-39.5 15.5t-34 21t-14 39q0 32 38.5 57t157.5 80q149 65 183 65q63 0 63 -96v-1218q0 -42 12.5 -69.5t30.5 -39.5t36.5 -21t31 -23t12.5 -36
q0 -23 -18 -40t-52 -17q-16 0 -81.5 3t-124.5 3q-58 0 -121.5 -3t-81.5 -3zM551 729q0 -63 41 -99t110 -36q78 0 129.5 44t51.5 105q0 62 -43 99t-113 37q-76 0 -126 -44t-50 -106z" />
    <glyph glyph-name="Lslash" unicode="&#x141;" horiz-adv-x="1392" 
d="M125 506q-26 0 -48 26.5t-22 63.5q0 38 49 63l150 76v482q0 40 -13 65.5t-31 37.5t-36.5 21.5t-31.5 24.5t-13 39q0 25 21 41t59 16q17 0 83 -3t132 -3q65 0 134.5 3t88.5 3q36 0 55 -16t19 -41q0 -24 -13 -39t-31.5 -24.5t-37.5 -21.5t-32 -37.5t-13 -65.5v-310l225 115
q25 14 49 14q25 0 48.5 -27.5t23.5 -62.5q0 -37 -51 -63l-295 -150v-487q0 -46 21.5 -67t70.5 -21h152q55 0 105.5 17.5t103 58t95 81.5t109.5 113q21 23 30.5 32t24.5 17t31 8q25 0 43.5 -18.5t18.5 -48.5t-12 -62t-46 -102l-94 -205q-25 -53 -49 -75.5t-57 -22.5
q-25 0 -65.5 24.5t-88.5 24.5h-563q-65 0 -135 -3t-84 -3q-76 0 -76 59q0 23 13 38t31.5 24.5t36.5 21.5t31 37.5t13 65.5v319l-80 -41q-27 -12 -49 -12z" />
    <glyph glyph-name="lslash" unicode="&#x142;" horiz-adv-x="768" 
d="M98 535q-22 0 -41.5 24t-19.5 55q0 40 49 64l145 74v438q0 36 -14 58t-33.5 30.5t-39.5 15.5t-34 21t-14 39q0 31 39 56.5t158 80.5q149 65 182 65q64 0 64 -96v-551l112 58q28 14 49 14q24 0 46 -25.5t22 -56.5q0 -37 -51 -63l-178 -91v-503q0 -42 12.5 -69.5
t30.5 -39.5t36.5 -21t31 -23t12.5 -36q0 -23 -18 -40t-52 -17q-16 0 -82 3t-125 3q-58 0 -121.5 -3t-81.5 -3q-34 0 -51.5 16.5t-17.5 40.5q0 22 12 36t29.5 23t35 21t29.5 39.5t12 69.5v348l-79 -41q-28 -14 -54 -14z" />
    <glyph glyph-name="Nacute" unicode="&#x143;" horiz-adv-x="1601" 
d="M1331 -18q-39 0 -65.5 17.5t-57.5 53.5l-811 994v-805q0 -38 17 -62.5t41.5 -35t49 -19.5t41.5 -26t17 -44q0 -28 -21.5 -43.5t-60.5 -15.5q-29 0 -87.5 3t-84.5 3q-24 0 -79.5 -3t-82.5 -3q-36 0 -55.5 17t-19.5 42q0 23 14 38t33.5 24.5t39.5 21.5t34 37.5t14 65.5v975
q0 40 -14 65.5t-33.5 37.5t-39.5 21t-34 24t-14 38q0 27 22 43t62 16q22 0 69 -2t72 -2q28 0 68.5 2t58.5 2q62 0 111 -57l688 -850v662q0 39 -17 63.5t-41 35.5t-48 20t-41 25.5t-17 43.5q0 24 22.5 40.5t59.5 16.5q28 0 84.5 -3t87.5 -3q27 0 81 3t79 3q38 0 56.5 -16
t18.5 -41q0 -24 -13.5 -39t-33 -24.5t-39.5 -21.5t-33.5 -37.5t-13.5 -65.5v-1149q0 -42 -24.5 -64t-59.5 -22zM682 1585q0 21 18 53q91 147 160 242q21 30 48 41.5t87 11.5q77 0 103 -11t26 -40q0 -23 -16 -44t-61 -64q-11 -10 -87.5 -80t-117.5 -105q-46 -41 -103 -41
q-26 0 -41.5 11t-15.5 26z" />
    <glyph glyph-name="nacute" unicode="&#x144;" horiz-adv-x="1361" 
d="M881 -4q-38 0 -58 16t-20 41q0 21 12.5 34.5t29.5 22.5t34.5 19t30 30.5t12.5 51.5q0 19 -11 94l-37 266q-17 115 -59.5 179.5t-124.5 64.5q-77 0 -133.5 -66.5t-56.5 -207.5v-299q0 -42 12.5 -69.5t30 -39.5t35.5 -21t30.5 -23t12.5 -36q0 -23 -17.5 -40t-50.5 -17
q-18 0 -83.5 3t-123.5 3t-122.5 -3t-82.5 -3q-34 0 -51.5 16.5t-17.5 40.5q0 22 12.5 36t30.5 23t35.5 21t30 39.5t12.5 69.5v432q0 36 -14 58t-34 30.5t-40 15.5t-34 21t-14 39q0 32 39 57.5t158 79.5q149 65 182 65q64 0 64 -98v-96q51 89 139 146t201 57q77 0 137 -31
t99.5 -87.5t64 -127t35.5 -156.5l51 -383q6 -50 22.5 -83t35 -46.5t36.5 -23.5t29.5 -24t11.5 -38q0 -25 -20 -39t-54 -14q-20 0 -81.5 3t-121.5 3q-63 0 -124 -3t-80 -3zM543 1206q0 22 18 54q87 139 160 241q21 30 48 41.5t87 11.5q77 0 103 -11t26 -40q0 -23 -16 -43.5
t-62 -64.5q-11 -10 -87.5 -80t-117.5 -105q-46 -41 -102 -41q-26 0 -41.5 11t-15.5 26z" />
    <glyph glyph-name="uni0145" unicode="&#x145;" horiz-adv-x="1601" 
d="M1331 -18q-39 0 -65.5 17.5t-57.5 53.5l-811 994v-805q0 -38 17 -62.5t41.5 -35t49 -19.5t41.5 -26t17 -44q0 -28 -21.5 -43.5t-60.5 -15.5q-29 0 -87.5 3t-84.5 3q-24 0 -79.5 -3t-82.5 -3q-36 0 -55.5 17t-19.5 42q0 23 14 38t33.5 24.5t39.5 21.5t34 37.5t14 65.5v975
q0 40 -14 65.5t-33.5 37.5t-39.5 21t-34 24t-14 38q0 27 22 43t62 16q22 0 69 -2t72 -2q28 0 68.5 2t58.5 2q62 0 111 -57l688 -850v662q0 39 -17 63.5t-41 35.5t-48 20t-41 25.5t-17 43.5q0 24 22.5 40.5t59.5 16.5q28 0 84.5 -3t87.5 -3q27 0 81 3t79 3q38 0 56.5 -16
t18.5 -41q0 -24 -13.5 -39t-33 -24.5t-39.5 -21.5t-33.5 -37.5t-13.5 -65.5v-1149q0 -42 -24.5 -64t-59.5 -22zM662 -207q0 54 44 90.5t109 36.5q146 0 146 -145q0 -72 -41 -146.5t-94.5 -119t-94.5 -44.5q-20 0 -32.5 11t-12.5 28q0 6 2 11t3.5 8.5t6.5 9t7 7.5t9 8.5
t9 7.5q63 47 63 90q0 6 -1.5 10.5t-5 9t-6.5 7.5t-9.5 6.5t-10 5.5t-11.5 6t-11 6q-33 15 -51 35.5t-18 60.5z" />
    <glyph glyph-name="uni0146" unicode="&#x146;" horiz-adv-x="1361" 
d="M881 -4q-38 0 -58 16t-20 41q0 21 12.5 34.5t29.5 22.5t34.5 19t30 30.5t12.5 51.5q0 19 -11 94l-37 266q-17 115 -59.5 179.5t-124.5 64.5q-77 0 -133.5 -66.5t-56.5 -207.5v-299q0 -42 12.5 -69.5t30 -39.5t35.5 -21t30.5 -23t12.5 -36q0 -23 -17.5 -40t-50.5 -17
q-18 0 -83.5 3t-123.5 3t-122.5 -3t-82.5 -3q-34 0 -51.5 16.5t-17.5 40.5q0 22 12.5 36t30.5 23t35.5 21t30 39.5t12.5 69.5v432q0 36 -14 58t-34 30.5t-40 15.5t-34 21t-14 39q0 32 39 57.5t158 79.5q149 65 182 65q64 0 64 -98v-96q51 89 139 146t201 57q77 0 137 -31
t99.5 -87.5t64 -127t35.5 -156.5l51 -383q6 -50 22.5 -83t35 -46.5t36.5 -23.5t29.5 -24t11.5 -38q0 -25 -20 -39t-54 -14q-20 0 -81.5 3t-121.5 3q-63 0 -124 -3t-80 -3zM567 -207q0 54 44.5 90.5t109.5 36.5q145 0 145 -145q0 -55 -24.5 -113t-60 -100t-75 -69.5
t-69.5 -27.5q-20 0 -32.5 11t-12.5 28q0 6 2 11t3.5 8.5t6.5 9t7 7.5t9 8.5t9 7.5q63 47 63 90q0 6 -1.5 10.5t-5 9t-6.5 7.5t-9.5 6.5t-10 5.5t-11.5 6t-11 6q-33 15 -51.5 35.5t-18.5 60.5z" />
    <glyph glyph-name="Ncaron" unicode="&#x147;" horiz-adv-x="1601" 
d="M1331 -18q-39 0 -65.5 17.5t-57.5 53.5l-811 994v-805q0 -38 17 -62.5t41.5 -35t49 -19.5t41.5 -26t17 -44q0 -28 -21.5 -43.5t-60.5 -15.5q-29 0 -87.5 3t-84.5 3q-24 0 -79.5 -3t-82.5 -3q-36 0 -55.5 17t-19.5 42q0 23 14 38t33.5 24.5t39.5 21.5t34 37.5t14 65.5v975
q0 40 -14 65.5t-33.5 37.5t-39.5 21t-34 24t-14 38q0 27 22 43t62 16q22 0 69 -2t72 -2q28 0 68.5 2t58.5 2q62 0 111 -57l688 -850v662q0 39 -17 63.5t-41 35.5t-48 20t-41 25.5t-17 43.5q0 24 22.5 40.5t59.5 16.5q28 0 84.5 -3t87.5 -3q27 0 81 3t79 3q38 0 56.5 -16
t18.5 -41q0 -24 -13.5 -39t-33 -24.5t-39.5 -21.5t-33.5 -37.5t-13.5 -65.5v-1149q0 -42 -24.5 -64t-59.5 -22zM489 1898q0 19 18.5 35.5t47.5 16.5q43 0 90 -45l170 -160l170 160q47 45 92 45q28 0 46 -16.5t18 -35.5q0 -22 -25 -61q-65 -91 -160 -205q-31 -34 -58 -45.5
t-83 -11.5q-55 0 -81.5 11.5t-57.5 45.5q-95 109 -160 205q-27 37 -27 61z" />
    <glyph glyph-name="ncaron" unicode="&#x148;" horiz-adv-x="1361" 
d="M881 -4q-38 0 -58 16t-20 41q0 21 12.5 34.5t29.5 22.5t34.5 19t30 30.5t12.5 51.5q0 19 -11 94l-37 266q-17 115 -59.5 179.5t-124.5 64.5q-77 0 -133.5 -66.5t-56.5 -207.5v-299q0 -42 12.5 -69.5t30 -39.5t35.5 -21t30.5 -23t12.5 -36q0 -23 -17.5 -40t-50.5 -17
q-18 0 -83.5 3t-123.5 3t-122.5 -3t-82.5 -3q-34 0 -51.5 16.5t-17.5 40.5q0 22 12.5 36t30.5 23t35.5 21t30 39.5t12.5 69.5v432q0 36 -14 58t-34 30.5t-40 15.5t-34 21t-14 39q0 32 39 57.5t158 79.5q149 65 182 65q64 0 64 -98v-96q51 89 139 146t201 57q77 0 137 -31
t99.5 -87.5t64 -127t35.5 -156.5l51 -383q6 -50 22.5 -83t35 -46.5t36.5 -23.5t29.5 -24t11.5 -38q0 -25 -20 -39t-54 -14q-20 0 -81.5 3t-121.5 3q-63 0 -124 -3t-80 -3zM350 1520q0 19 18.5 35t47.5 16q43 0 90 -45l170 -160l170 160q47 45 92 45q28 0 45.5 -16t17.5 -35
q0 -24 -24 -62q-65 -91 -160 -205q-31 -34 -58 -45.5t-83 -11.5q-55 0 -81.5 11.5t-57.5 45.5q-95 109 -160 205q-27 38 -27 62z" />
    <glyph glyph-name="Eng" unicode="&#x14a;" horiz-adv-x="1601" 
d="M997 -412q-76 0 -107.5 29.5t-31.5 95.5q0 85 18.5 144t61.5 59q32 0 53 -41q22 -39 32 -54.5t27 -36.5t32.5 -28.5t35.5 -7.5q90 0 90 174v131l-811 1004v-817q0 -38 17 -62.5t41.5 -35t49 -19.5t41.5 -26t17 -44q0 -24 -21.5 -41.5t-58.5 -17.5q-30 0 -89 3t-85 3
q-24 0 -80.5 -3t-83.5 -3q-36 0 -54.5 17t-18.5 42q0 23 14 38t33.5 24.5t39.5 21.5t34 37.5t14 65.5v979q0 40 -14 65.5t-33.5 37.5t-39.5 21.5t-34 24.5t-14 39t21.5 40.5t58.5 16.5q28 0 74 -3t65 -3q22 0 71.5 3t79.5 3q46 0 64 -22l717 -891v668q0 39 -17 63.5
t-41 35.5t-48 20t-41 25.5t-17 43.5q0 25 21 41t59 16q29 0 88.5 -3t85.5 -3q23 0 79 3t83 3q36 0 54.5 -16t18.5 -41q0 -24 -13.5 -39t-33 -24.5t-39.5 -21.5t-33.5 -37.5t-13.5 -65.5v-1203q0 -93 -36.5 -175t-96 -136.5t-134.5 -85.5t-151 -31z" />
    <glyph glyph-name="eng" unicode="&#x14b;" horiz-adv-x="1298" 
d="M741 -412q-76 0 -106.5 29t-30.5 92q0 81 18 138t60 57q32 0 53 -41q35 -63 58 -91t49 -28q19 0 31 15.5t12 45.5q0 18 -5.5 76.5t-5.5 102.5v581q0 117 -42 182.5t-125 65.5q-38 0 -72.5 -14.5t-66 -45t-50 -86t-18.5 -128.5v-299q0 -42 12.5 -69.5t30 -39.5t35.5 -21
t30.5 -23t12.5 -36q0 -23 -17.5 -40t-50.5 -17q-18 0 -83.5 3t-123.5 3t-122.5 -3t-82.5 -3q-34 0 -51.5 16.5t-17.5 40.5q0 22 12.5 36t30.5 23t35.5 21t30 39.5t12.5 69.5v432q0 44 -21.5 68t-46.5 29.5t-46.5 21t-21.5 45.5q0 32 41 59.5t156 77.5q148 67 182 67
q64 0 64 -98v-98q51 88 141 145.5t205 57.5q152 0 244 -116.5t92 -295.5v-619q0 -94 -38 -175.5t-100 -136t-141 -85.5t-162 -31z" />
    <glyph glyph-name="Omacron" unicode="&#x14c;" horiz-adv-x="1693" 
d="M846 -35q-165 0 -307.5 50t-248.5 142.5t-166.5 232.5t-60.5 310t61 318.5t166 252t249.5 163t306.5 59.5q222 0 401 -99.5t281 -278t102 -402.5q0 -225 -99.5 -395.5t-277 -261.5t-407.5 -91zM438 721q0 -115 27 -219.5t77.5 -186t129.5 -130t176 -48.5q98 0 177 47.5
t128.5 128.5t75.5 186t26 224q0 116 -26.5 222.5t-76 192t-128.5 136.5t-176 51q-128 0 -223 -86.5t-141 -222t-46 -295.5zM522 1747q0 82 68 82l254 -2q38 0 133 1t123 1q67 0 67 -82q0 -43 -15.5 -63.5t-51.5 -20.5q-31 0 -124.5 2t-129.5 2q-38 0 -133 -2t-123 -2
q-68 0 -68 84z" />
    <glyph glyph-name="omacron" unicode="&#x14d;" horiz-adv-x="1320" 
d="M639 -35q-133 0 -243.5 41t-184.5 112.5t-115 168.5t-41 209q0 244 176.5 402.5t450.5 158.5q133 0 243.5 -41t184.5 -112.5t115 -168.5t41 -209q0 -161 -81.5 -289.5t-225 -200t-320.5 -71.5zM332 1346q0 41 15.5 61t51.5 20l254 -2q38 0 133 1t123 1q68 0 68 -81
q0 -84 -68 -84q-31 0 -124.5 2t-129.5 2q-38 0 -133 -2t-123 -2q-36 0 -51.5 20.5t-15.5 63.5zM387 575q0 -75 21.5 -153.5t60 -146t99 -111t130.5 -43.5q111 0 173.5 84.5t62.5 240.5q0 75 -22 154.5t-60.5 147t-99 110.5t-129.5 43q-111 0 -173.5 -85t-62.5 -241z" />
    <glyph glyph-name="Obreve" unicode="&#x14e;" horiz-adv-x="1693" 
d="M846 -35q-165 0 -307.5 50t-248.5 142.5t-166.5 232.5t-60.5 310t61 318.5t166 252t249.5 163t306.5 59.5q222 0 401 -99.5t281 -278t102 -402.5q0 -225 -99.5 -395.5t-277 -261.5t-407.5 -91zM438 721q0 -115 27 -219.5t77.5 -186t129.5 -130t176 -48.5q98 0 177 47.5
t128.5 128.5t75.5 186t26 224q0 116 -26.5 222.5t-76 192t-128.5 136.5t-176 51q-128 0 -223 -86.5t-141 -222t-46 -295.5zM530 1888q0 27 18.5 42.5t45.5 15.5q19 0 36.5 -11.5t27.5 -25t30 -43.5q70 -117 158 -117t158 117q28 42 48 61t48 19q26 0 44.5 -15.5t18.5 -42.5
q0 -44 -26 -106q-43 -97 -116 -150t-175 -53q-101 0 -174.5 53.5t-114.5 149.5q-27 64 -27 106z" />
    <glyph glyph-name="obreve" unicode="&#x14f;" horiz-adv-x="1320" 
d="M639 -35q-133 0 -243.5 41t-184.5 112.5t-115 168.5t-41 209q0 244 176.5 402.5t450.5 158.5q133 0 243.5 -41t184.5 -112.5t115 -168.5t41 -209q0 -161 -81.5 -289.5t-225 -200t-320.5 -71.5zM340 1487q0 27 18 42t45 15q28 0 47.5 -18.5t47.5 -61.5q69 -116 157 -116
q89 0 158 116q28 42 48 61t48 19q26 0 45 -15.5t19 -41.5q0 -43 -27 -107q-89 -202 -291 -202q-101 0 -174 53t-114 149q-27 64 -27 107zM387 575q0 -75 21.5 -153.5t60 -146t99 -111t130.5 -43.5q111 0 173.5 84.5t62.5 240.5q0 75 -22 154.5t-60.5 147t-99 110.5
t-129.5 43q-111 0 -173.5 -85t-62.5 -241z" />
    <glyph glyph-name="Ohungarumlaut" unicode="&#x150;" horiz-adv-x="1693" 
d="M846 -35q-165 0 -307.5 50t-248.5 142.5t-166.5 232.5t-60.5 310t61 318.5t166 252t249.5 163t306.5 59.5q222 0 401 -99.5t281 -278t102 -402.5q0 -225 -99.5 -395.5t-277 -261.5t-407.5 -91zM438 721q0 -115 27 -219.5t77.5 -186t129.5 -130t176 -48.5q98 0 177 47.5
t128.5 128.5t75.5 186t26 224q0 116 -26.5 222.5t-76 192t-128.5 136.5t-176 51q-128 0 -223 -86.5t-141 -222t-46 -295.5zM627 1589q0 18 16 58q41 100 113 243q16 32 37.5 44t70.5 12q54 0 79.5 -12t25.5 -40q0 -9 -2 -17.5t-5 -15t-9.5 -17t-11 -16.5t-15.5 -21t-17 -23
q-44 -62 -151 -189q-39 -47 -88 -47q-19 0 -31 12t-12 29zM934 1589q0 18 16 58q55 133 113 243q16 32 37.5 44t70.5 12q54 0 79.5 -12t25.5 -40q0 -9 -2 -17.5t-4.5 -14.5t-9.5 -17.5t-10.5 -16.5t-15.5 -21t-17 -23q-39 -54 -152 -189q-39 -47 -88 -47q-19 0 -31 12
t-12 29z" />
    <glyph glyph-name="ohungarumlaut" unicode="&#x151;" horiz-adv-x="1320" 
d="M639 -35q-133 0 -243.5 41t-184.5 112.5t-115 168.5t-41 209q0 244 176.5 402.5t450.5 158.5q133 0 243.5 -41t184.5 -112.5t115 -168.5t41 -209q0 -161 -81.5 -289.5t-225 -200t-320.5 -71.5zM387 575q0 -75 21.5 -153.5t60 -146t99 -111t130.5 -43.5q111 0 173.5 84.5
t62.5 240.5q0 75 -22 154.5t-60.5 147t-99 110.5t-129.5 43q-111 0 -173.5 -85t-62.5 -241zM436 1188q0 14 17 57q49 118 112 244q15 32 37 43.5t72 11.5q54 0 79 -11.5t25 -39.5q0 -7 -1 -14t-4.5 -15t-6 -13t-9.5 -15.5l-10 -15t-13.5 -18.5t-14.5 -20q-34 -48 -152 -188
q-39 -47 -88 -47q-19 0 -31 12t-12 29zM743 1188q0 14 17 57q61 147 112 244q15 32 37 43.5t72 11.5q54 0 79 -11.5t25 -39.5q0 -7 -1 -14t-4.5 -15t-6 -13t-9.5 -15.5l-10 -15t-13.5 -18.5t-14.5 -20q-34 -48 -152 -188q-39 -47 -88 -47q-19 0 -31 12t-12 29z" />
    <glyph glyph-name="OE" unicode="&#x152;" horiz-adv-x="2412" 
d="M2140 -49q-25 0 -64.5 24.5t-86.5 24.5h-670q-91 0 -224 -17.5t-227 -17.5q-173 0 -320.5 50t-255 142t-168.5 231.5t-61 311.5t61.5 320t168 251.5t256 162.5t321.5 59q108 0 240.5 -17.5t208.5 -17.5h588q46 0 84.5 24.5t62.5 24.5q33 0 58 -24t51 -80l82 -182
q47 -99 52 -127q3 -14 3 -27q0 -31 -18.5 -48.5t-43.5 -17.5q-15 0 -29.5 8t-23.5 16t-31 30q-56 60 -80.5 85.5t-69 64.5t-75.5 54.5t-75.5 28t-94.5 12.5h-129q-76 0 -101.5 -21t-25.5 -75v-332q0 -30 13 -41.5t49 -11.5h116q34 0 60 15.5t42 37.5t30 44t31.5 37.5
t39.5 15.5q62 0 62 -80q0 -23 -3.5 -73t-3.5 -75q0 -26 3.5 -76t3.5 -73q0 -80 -62 -80q-22 0 -39.5 15.5t-31.5 37.5t-30 44t-42 37.5t-60 15.5h-116q-36 0 -49 -11.5t-13 -40.5v-354q0 -55 26 -76.5t101 -21.5h201q64 0 117 16t106 55.5t92 78t105 110.5q43 55 82 55
q25 0 43 -18t18 -47t-11.5 -60t-45.5 -100l-92 -201q-24 -51 -48 -73.5t-57 -22.5zM438 719q0 -115 27.5 -218.5t79 -185t135 -130t186.5 -48.5q139 0 218 85.5t79 242.5v508q0 71 -17 132.5t-51 112t-93 80t-136 29.5q-103 0 -186 -50.5t-135 -136t-79.5 -193.5t-27.5 -228
z" />
    <glyph glyph-name="oe" unicode="&#x153;" horiz-adv-x="2031" 
d="M639 -35q-133 0 -243.5 41t-184.5 112.5t-115 168.5t-41 209q0 244 176.5 402.5t450.5 158.5q262 0 418 -156q76 74 175 113t208 39q106 0 196.5 -35.5t149.5 -92.5t92 -128.5t33 -145.5q0 -41 -13 -56.5t-45 -23.5l-610 -188q49 -95 134.5 -153t191.5 -58q137 0 262 100
q48 35 70 35t36.5 -17.5t14.5 -33.5q0 -20 -21 -57q-60 -88 -197 -159t-309 -71q-244 0 -391 156q-174 -160 -438 -160zM387 575q0 -75 21.5 -153.5t60 -146t99 -111t130.5 -43.5q111 0 173.5 84.5t62.5 240.5q0 75 -22 154.5t-60.5 147t-99 110.5t-129.5 43
q-111 0 -173.5 -85t-62.5 -241zM1229 614q0 -32 8 -94l352 113q27 8 39 21t12 42q0 72 -58 135.5t-140 63.5q-94 0 -153.5 -77t-59.5 -204z" />
    <glyph glyph-name="Racute" unicode="&#x154;" horiz-adv-x="1568" 
d="M152 -4q-37 0 -55.5 17t-18.5 42q0 23 13 38t31 24.5t36.5 21.5t31.5 37.5t13 65.5v975q0 40 -13 65.5t-31.5 37.5t-36.5 21.5t-31 24.5t-13 39q0 25 20 41t64 16q12 0 79 -3t113 -3q37 0 164.5 7t192.5 7q350 0 532 -131t182 -356q0 -154 -83.5 -264t-233.5 -156
l213 -276q44 -56 93 -95.5t79 -54.5t50 -36t20 -52q0 -24 -17 -38.5t-47 -14.5q-19 0 -111 3t-155 3q-56 0 -137.5 -3t-102.5 -3q-86 0 -86 59q0 25 15.5 40t34 21t34 21.5t15.5 40.5q0 35 -56 103l-137 184q-25 32 -47 44.5t-53 12.5q-63 -3 -125 0q-24 0 -34.5 -11
t-10.5 -36v-233q0 -40 13.5 -65.5t32.5 -37.5t38.5 -21.5t33 -24.5t13.5 -38q0 -25 -19 -42t-55 -17q-19 0 -90.5 3t-136.5 3t-134 -3t-87 -3zM543 735q0 -42 33 -56.5t120 -14.5q176 0 266.5 72t90.5 243q0 164 -99 247t-262 83q-78 0 -113.5 -21.5t-35.5 -77.5v-475z
M604 1585q0 19 19 53q98 157 159 242q21 30 48.5 41.5t87.5 11.5q77 0 103 -11t26 -40q0 -23 -16 -43.5t-62 -64.5q-11 -10 -87.5 -80t-117.5 -105q-46 -41 -102 -41q-26 0 -42 11t-16 26z" />
    <glyph glyph-name="racute" unicode="&#x155;" horiz-adv-x="1052" 
d="M141 -4q-34 0 -51.5 16.5t-17.5 40.5q0 22 12.5 36t30.5 23t35.5 21t30 39.5t12.5 69.5v432q0 36 -14 58t-34 30.5t-40 15.5t-34 21t-14 39q0 32 39 57.5t158 79.5q149 65 182 65q64 0 64 -98v-168q46 118 145.5 196.5t208.5 78.5q84 0 137 -40.5t53 -97.5
q0 -70 -69 -237q-26 -66 -74 -66q-40 0 -70 62q-30 58 -58.5 86t-67.5 28q-32 0 -66 -21.5t-66 -62.5t-52.5 -112.5t-20.5 -159.5v-186q0 -42 15 -68.5t37 -38t43.5 -20t36.5 -23.5t15 -39q0 -23 -17.5 -40t-51.5 -17q-19 0 -93 3t-139 3q-58 0 -122.5 -3t-82.5 -3z
M455 1206q0 22 18 54q87 139 160 241q21 30 48 41.5t87 11.5q77 0 103 -11t26 -40q0 -23 -16 -43.5t-62 -64.5q-11 -10 -87.5 -80t-117.5 -105q-46 -41 -102 -41q-26 0 -41.5 11t-15.5 26z" />
    <glyph glyph-name="uni0156" unicode="&#x156;" horiz-adv-x="1568" 
d="M152 -4q-37 0 -55.5 17t-18.5 42q0 23 13 38t31 24.5t36.5 21.5t31.5 37.5t13 65.5v975q0 40 -13 65.5t-31.5 37.5t-36.5 21.5t-31 24.5t-13 39q0 25 20 41t64 16q12 0 79 -3t113 -3q37 0 164.5 7t192.5 7q350 0 532 -131t182 -356q0 -154 -83.5 -264t-233.5 -156
l213 -276q44 -56 93 -95.5t79 -54.5t50 -36t20 -52q0 -24 -17 -38.5t-47 -14.5q-19 0 -111 3t-155 3q-56 0 -137.5 -3t-102.5 -3q-86 0 -86 59q0 25 15.5 40t34 21t34 21.5t15.5 40.5q0 35 -56 103l-137 184q-25 32 -47 44.5t-53 12.5q-63 -3 -125 0q-24 0 -34.5 -11
t-10.5 -36v-233q0 -40 13.5 -65.5t32.5 -37.5t38.5 -21.5t33 -24.5t13.5 -38q0 -25 -19 -42t-55 -17q-19 0 -90.5 3t-136.5 3t-134 -3t-87 -3zM543 735q0 -42 33 -56.5t120 -14.5q176 0 266.5 72t90.5 243q0 164 -99 247t-262 83q-78 0 -113.5 -21.5t-35.5 -77.5v-475z
M633 -207q0 54 44 90.5t109 36.5q146 0 146 -145q0 -72 -41 -146.5t-94.5 -119t-94.5 -44.5q-20 0 -32.5 11t-12.5 28q0 6 2 11t3.5 8.5t6.5 9t7 7.5t9 8.5t9 7.5q64 47 64 90q0 7 -2.5 12.5t-5.5 9.5t-10 8.5t-11 6.5l-14 7t-13 7q-33 15 -51 35.5t-18 60.5z" />
    <glyph glyph-name="uni0157" unicode="&#x157;" horiz-adv-x="1052" 
d="M141 -4q-34 0 -51.5 16.5t-17.5 40.5q0 22 12.5 36t30.5 23t35.5 21t30 39.5t12.5 69.5v432q0 36 -14 58t-34 30.5t-40 15.5t-34 21t-14 39q0 32 39 57.5t158 79.5q149 65 182 65q64 0 64 -98v-168q46 118 145.5 196.5t208.5 78.5q84 0 137 -40.5t53 -97.5
q0 -70 -69 -237q-26 -66 -74 -66q-40 0 -70 62q-30 58 -58.5 86t-67.5 28q-32 0 -66 -21.5t-66 -62.5t-52.5 -112.5t-20.5 -159.5v-186q0 -42 15 -68.5t37 -38t43.5 -20t36.5 -23.5t15 -39q0 -23 -17.5 -40t-51.5 -17q-19 0 -93 3t-139 3q-58 0 -122.5 -3t-82.5 -3z
M223 -207q0 54 44.5 90.5t109.5 36.5q145 0 145 -145q0 -55 -24.5 -113t-60 -100t-75 -69.5t-69.5 -27.5q-20 0 -32.5 11t-12.5 28q0 6 2 11t3.5 8.5t6.5 9t7 7.5t9 8.5t9 7.5q63 47 63 90q0 6 -1.5 10.5t-5 9t-6.5 7.5t-9.5 6.5t-10 5.5t-11.5 6t-11 6q-33 15 -51.5 35.5
t-18.5 60.5z" />
    <glyph glyph-name="Rcaron" unicode="&#x158;" horiz-adv-x="1568" 
d="M152 -4q-37 0 -55.5 17t-18.5 42q0 23 13 38t31 24.5t36.5 21.5t31.5 37.5t13 65.5v975q0 40 -13 65.5t-31.5 37.5t-36.5 21.5t-31 24.5t-13 39q0 25 20 41t64 16q12 0 79 -3t113 -3q37 0 164.5 7t192.5 7q350 0 532 -131t182 -356q0 -154 -83.5 -264t-233.5 -156
l213 -276q44 -56 93 -95.5t79 -54.5t50 -36t20 -52q0 -24 -17 -38.5t-47 -14.5q-19 0 -111 3t-155 3q-56 0 -137.5 -3t-102.5 -3q-86 0 -86 59q0 25 15.5 40t34 21t34 21.5t15.5 40.5q0 35 -56 103l-137 184q-25 32 -47 44.5t-53 12.5q-63 -3 -125 0q-24 0 -34.5 -11
t-10.5 -36v-233q0 -40 13.5 -65.5t32.5 -37.5t38.5 -21.5t33 -24.5t13.5 -38q0 -25 -19 -42t-55 -17q-19 0 -90.5 3t-136.5 3t-134 -3t-87 -3zM412 1898q0 19 18 35.5t47 16.5q43 0 90 -45l170 -160l170 160q47 45 92 45q28 0 46 -16.5t18 -35.5q0 -22 -25 -61
q-70 -99 -159 -205q-30 -34 -57.5 -45.5t-84.5 -11.5q-55 0 -81.5 11.5t-57.5 45.5q-95 109 -160 205q-26 36 -26 61zM543 735q0 -42 33 -56.5t120 -14.5q176 0 266.5 72t90.5 243q0 164 -99 247t-262 83q-78 0 -113.5 -21.5t-35.5 -77.5v-475z" />
    <glyph glyph-name="rcaron" unicode="&#x159;" horiz-adv-x="1052" 
d="M141 -4q-34 0 -51.5 16.5t-17.5 40.5q0 22 12.5 36t30.5 23t35.5 21t30 39.5t12.5 69.5v432q0 36 -14 58t-34 30.5t-40 15.5t-34 21t-14 39q0 32 39 57.5t158 79.5q149 65 182 65q64 0 64 -98v-168q46 118 145.5 196.5t208.5 78.5q84 0 137 -40.5t53 -97.5
q0 -70 -69 -237q-26 -66 -74 -66q-40 0 -70 62q-30 58 -58.5 86t-67.5 28q-32 0 -66 -21.5t-66 -62.5t-52.5 -112.5t-20.5 -159.5v-186q0 -42 15 -68.5t37 -38t43.5 -20t36.5 -23.5t15 -39q0 -23 -17.5 -40t-51.5 -17q-19 0 -93 3t-139 3q-58 0 -122.5 -3t-82.5 -3z
M262 1520q0 19 18.5 35t47.5 16q43 0 90 -45l170 -160l170 160q47 45 92 45q28 0 45.5 -16t17.5 -35q0 -24 -24 -62q-65 -91 -160 -205q-31 -34 -58 -45.5t-83 -11.5q-55 0 -81.5 11.5t-57.5 45.5q-95 109 -160 205q-27 38 -27 62z" />
    <glyph glyph-name="Sacute" unicode="&#x15a;" horiz-adv-x="1411" 
d="M303 -45q-31 0 -50.5 23.5t-43.5 74.5l-88 189q-28 62 -39 86.5t-20 53t-9 48.5q0 32 17.5 51t42.5 19q17 0 34.5 -9.5t27 -18.5t26.5 -28q60 -63 113.5 -110t125.5 -94.5t155.5 -73t172.5 -25.5q137 0 211 56t74 149q0 26 -6.5 49t-15 41t-28.5 35.5t-34 29.5
t-46.5 26.5t-51.5 22.5t-62 22t-65 20.5t-74 21.5q-66 19 -113.5 34t-111 40.5t-108 51t-92 62.5t-76.5 78t-48 96t-19 118q0 171 131.5 284t327.5 113q73 0 137.5 -12.5t105 -24.5t56.5 -12q24 0 51.5 31.5t55.5 31.5q17 0 29.5 -4.5t25.5 -19.5t19.5 -24t24.5 -39.5
t26 -43.5l55 -94q88 -146 88 -197q0 -24 -15 -39.5t-36 -15.5q-16 0 -31.5 8t-26 17.5t-32.5 31.5q-234 238 -480 238q-94 0 -148 -40.5t-54 -111.5q0 -35 16.5 -63t36.5 -46.5t71.5 -39.5t87 -32.5t116.5 -35.5q13 -4 20 -6q76 -21 129 -38t121 -44t114.5 -54t94.5 -66.5
t77 -84.5t47.5 -105t18.5 -130q0 -212 -156.5 -335.5t-412.5 -123.5q-83 0 -163 15t-133.5 30t-72.5 15q-29 0 -62 -36t-59 -36zM528 1585q0 19 19 53q91 147 160 242q21 30 48 41.5t87 11.5q77 0 103 -11t26 -40q0 -23 -16 -43.5t-62 -64.5q-11 -10 -87.5 -80t-117.5 -105
q-46 -41 -102 -41q-26 0 -42 11t-16 26z" />
    <glyph glyph-name="sacute" unicode="&#x15b;" horiz-adv-x="1148" 
d="M258 -43q-29 0 -47.5 24t-36.5 66l-68 143q-5 10 -14.5 30t-13.5 28.5t-10 23t-8.5 22.5t-4.5 18.5t-2 19.5q0 28 15.5 42.5t37.5 14.5q33 0 78 -45q235 -227 447 -227q80 0 126 35.5t46 89.5q0 29 -15 49.5t-55.5 36.5t-69.5 23.5t-99 23.5q-29 7 -44 10
q-74 17 -132 35.5t-119 48t-101 65t-66 87.5t-26 114q0 136 111.5 226t279.5 90q68 0 152.5 -17.5t93.5 -17.5q20 0 42 20.5t46 20.5q21 0 39.5 -13t27 -24.5t27.5 -40.5l76 -121q53 -79 53 -117q0 -24 -13.5 -38.5t-33.5 -14.5q-14 0 -29.5 8t-23.5 14.5t-27 24.5
q-93 77 -195 125.5t-192 48.5q-61 0 -99 -27.5t-38 -70.5q0 -23 11.5 -40.5t30.5 -30t52 -24t67 -20.5t85 -21q20 -4 30 -7q56 -13 97 -25t91 -30t85.5 -36.5t71 -45.5t57.5 -58t35.5 -72t13.5 -88q0 -105 -63 -183.5t-168 -117.5t-236 -39q-85 0 -173 18.5t-95 18.5
q-25 0 -53 -26.5t-54 -26.5zM414 1206q0 22 18 54q87 139 160 241q21 30 48 41.5t87 11.5q77 0 103 -11t26 -40q0 -23 -16 -43.5t-62 -64.5q-11 -10 -87.5 -80t-117.5 -105q-46 -41 -102 -41q-26 0 -41.5 11t-15.5 26z" />
    <glyph glyph-name="Scircumflex" unicode="&#x15c;" horiz-adv-x="1411" 
d="M303 -45q-31 0 -50.5 23.5t-43.5 74.5l-88 189q-28 62 -39 86.5t-20 53t-9 48.5q0 32 17.5 51t42.5 19q17 0 34.5 -9.5t27 -18.5t26.5 -28q60 -63 113.5 -110t125.5 -94.5t155.5 -73t172.5 -25.5q137 0 211 56t74 149q0 26 -6.5 49t-15 41t-28.5 35.5t-34 29.5
t-46.5 26.5t-51.5 22.5t-62 22t-65 20.5t-74 21.5q-66 19 -113.5 34t-111 40.5t-108 51t-92 62.5t-76.5 78t-48 96t-19 118q0 171 131.5 284t327.5 113q73 0 137.5 -12.5t105 -24.5t56.5 -12q24 0 51.5 31.5t55.5 31.5q17 0 29.5 -4.5t25.5 -19.5t19.5 -24t24.5 -39.5
t26 -43.5l55 -94q88 -146 88 -197q0 -24 -15 -39.5t-36 -15.5q-16 0 -31.5 8t-26 17.5t-32.5 31.5q-234 238 -480 238q-94 0 -148 -40.5t-54 -111.5q0 -35 16.5 -63t36.5 -46.5t71.5 -39.5t87 -32.5t116.5 -35.5q13 -4 20 -6q76 -21 129 -38t121 -44t114.5 -54t94.5 -66.5
t77 -84.5t47.5 -105t18.5 -130q0 -212 -156.5 -335.5t-412.5 -123.5q-83 0 -163 15t-133.5 30t-72.5 15q-29 0 -62 -36t-59 -36zM338 1614q0 24 24 61q65 91 160 205q30 34 57.5 45.5t84.5 11.5q55 0 81.5 -11.5t57.5 -45.5q95 -109 160 -205q26 -36 26 -61q0 -19 -18 -35
t-47 -16q-43 0 -90 45l-170 159l-170 -159q-47 -45 -93 -45q-28 0 -45.5 16t-17.5 35z" />
    <glyph glyph-name="scircumflex" unicode="&#x15d;" horiz-adv-x="1148" 
d="M258 -43q-29 0 -47.5 24t-36.5 66l-68 143q-5 10 -14.5 30t-13.5 28.5t-10 23t-8.5 22.5t-4.5 18.5t-2 19.5q0 28 15.5 42.5t37.5 14.5q33 0 78 -45q235 -227 447 -227q80 0 126 35.5t46 89.5q0 29 -15 49.5t-55.5 36.5t-69.5 23.5t-99 23.5q-29 7 -44 10
q-74 17 -132 35.5t-119 48t-101 65t-66 87.5t-26 114q0 136 111.5 226t279.5 90q68 0 152.5 -17.5t93.5 -17.5q20 0 42 20.5t46 20.5q21 0 39.5 -13t27 -24.5t27.5 -40.5l76 -121q53 -79 53 -117q0 -24 -13.5 -38.5t-33.5 -14.5q-14 0 -29.5 8t-23.5 14.5t-27 24.5
q-93 77 -195 125.5t-192 48.5q-61 0 -99 -27.5t-38 -70.5q0 -23 11.5 -40.5t30.5 -30t52 -24t67 -20.5t85 -21q20 -4 30 -7q56 -13 97 -25t91 -30t85.5 -36.5t71 -45.5t57.5 -58t35.5 -72t13.5 -88q0 -105 -63 -183.5t-168 -117.5t-236 -39q-85 0 -173 18.5t-95 18.5
q-25 0 -53 -26.5t-54 -26.5zM223 1235q0 22 25 61q65 91 160 205q31 34 58 46t83 12q55 0 81.5 -12t57.5 -46q95 -109 160 -205q26 -36 26 -61q0 -19 -18 -35t-47 -16q-43 0 -90 45l-170 160l-170 -160q-47 -45 -92 -45q-28 0 -46 16t-18 35z" />
    <glyph glyph-name="Scedilla" unicode="&#x15e;" horiz-adv-x="1411" 
d="M303 -45q-31 0 -50.5 23.5t-43.5 74.5l-88 189q-28 62 -39 86.5t-20 53t-9 48.5q0 32 17.5 51t42.5 19q17 0 34.5 -9.5t27 -18.5t26.5 -28q60 -63 113.5 -110t125.5 -94.5t155.5 -73t172.5 -25.5q137 0 211 56t74 149q0 26 -6.5 49t-15 41t-28.5 35.5t-34 29.5
t-46.5 26.5t-51.5 22.5t-62 22t-65 20.5t-74 21.5q-66 19 -113.5 34t-111 40.5t-108 51t-92 62.5t-76.5 78t-48 96t-19 118q0 171 131.5 284t327.5 113q73 0 137.5 -12.5t105 -24.5t56.5 -12q24 0 51.5 31.5t55.5 31.5q17 0 29.5 -4.5t25.5 -19.5t19.5 -24t24.5 -39.5
t26 -43.5l55 -94q88 -146 88 -197q0 -24 -15 -39.5t-36 -15.5q-16 0 -31.5 8t-26 17.5t-32.5 31.5q-234 238 -480 238q-94 0 -148 -40.5t-54 -111.5q0 -35 16.5 -63t36.5 -46.5t71.5 -39.5t87 -32.5t116.5 -35.5q13 -4 20 -6q76 -21 129 -38t121 -44t114.5 -54t94.5 -66.5
t77 -84.5t47.5 -105t18.5 -130q0 -212 -156.5 -335.5t-412.5 -123.5h-21l-16 -61q27 8 65 8q89 0 146 -44t57 -112q0 -75 -66.5 -121.5t-169.5 -46.5q-123 0 -196 45q-33 18 -33 50q0 19 11 32t28 13q10 0 49 -13q78 -28 127 -28q41 0 65.5 15t24.5 40q0 51 -80 51
q-35 0 -92 -22q-18 5 -41.5 25.5t-29.5 37.5l41 141q-62 9 -140.5 29.5t-97.5 20.5q-29 0 -62 -36t-59 -36z" />
    <glyph glyph-name="scedilla" unicode="&#x15f;" horiz-adv-x="1148" 
d="M258 -43q-29 0 -47.5 24t-36.5 66l-68 143q-5 10 -14.5 30t-13.5 28.5t-10 23t-8.5 22.5t-4.5 18.5t-2 19.5q0 28 15.5 42.5t37.5 14.5q33 0 78 -45q235 -227 447 -227q80 0 126 35.5t46 89.5q0 29 -15 49.5t-55.5 36.5t-69.5 23.5t-99 23.5q-29 7 -44 10
q-74 17 -132 35.5t-119 48t-101 65t-66 87.5t-26 114q0 136 111.5 226t279.5 90q68 0 152.5 -17.5t93.5 -17.5q20 0 42 20.5t46 20.5q21 0 39.5 -13t27 -24.5t27.5 -40.5l76 -121q53 -79 53 -117q0 -24 -13.5 -38.5t-33.5 -14.5q-14 0 -29.5 8t-23.5 14.5t-27 24.5
q-93 77 -195 125.5t-192 48.5q-61 0 -99 -27.5t-38 -70.5q0 -23 11.5 -40.5t30.5 -30t52 -24t67 -20.5t85 -21q20 -4 30 -7q56 -13 97 -25t91 -30t85.5 -36.5t71 -45.5t57.5 -58t35.5 -72t13.5 -88q0 -105 -63 -183.5t-168 -117.5t-236 -39h-10l-19 -67q27 8 66 8
q89 0 145.5 -44t56.5 -112q0 -75 -66 -121.5t-169 -46.5q-124 0 -197 45q-32 18 -32 50q0 19 10.5 32t27.5 13q11 0 50 -13q78 -28 127 -28q41 0 65.5 15t24.5 40q0 51 -80 51q-35 0 -92 -22q-18 5 -42 25.5t-30 37.5l43 146q-30 5 -63 12.5t-52.5 11.5t-31.5 4
q-25 0 -53 -26.5t-54 -26.5z" />
    <glyph glyph-name="Scaron" unicode="&#x160;" horiz-adv-x="1411" 
d="M303 -45q-31 0 -50.5 23.5t-43.5 74.5l-88 189q-28 62 -39 86.5t-20 53t-9 48.5q0 32 17.5 51t42.5 19q17 0 34.5 -9.5t27 -18.5t26.5 -28q60 -63 113.5 -110t125.5 -94.5t155.5 -73t172.5 -25.5q137 0 211 56t74 149q0 26 -6.5 49t-15 41t-28.5 35.5t-34 29.5
t-46.5 26.5t-51.5 22.5t-62 22t-65 20.5t-74 21.5q-66 19 -113.5 34t-111 40.5t-108 51t-92 62.5t-76.5 78t-48 96t-19 118q0 171 131.5 284t327.5 113q73 0 137.5 -12.5t105 -24.5t56.5 -12q24 0 51.5 31.5t55.5 31.5q17 0 29.5 -4.5t25.5 -19.5t19.5 -24t24.5 -39.5
t26 -43.5l55 -94q88 -146 88 -197q0 -24 -15 -39.5t-36 -15.5q-16 0 -31.5 8t-26 17.5t-32.5 31.5q-234 238 -480 238q-94 0 -148 -40.5t-54 -111.5q0 -35 16.5 -63t36.5 -46.5t71.5 -39.5t87 -32.5t116.5 -35.5q13 -4 20 -6q76 -21 129 -38t121 -44t114.5 -54t94.5 -66.5
t77 -84.5t47.5 -105t18.5 -130q0 -212 -156.5 -335.5t-412.5 -123.5q-83 0 -163 15t-133.5 30t-72.5 15q-29 0 -62 -36t-59 -36zM336 1898q0 19 18 35.5t47 16.5q44 0 91 -45l170 -160l169 160q47 45 93 45q27 0 45 -16.5t18 -35.5q0 -24 -24 -61q-65 -91 -160 -205
q-31 -34 -58 -45.5t-83 -11.5q-55 0 -82.5 11.5t-57.5 45.5q-95 109 -160 205q-26 36 -26 61z" />
    <glyph glyph-name="scaron" unicode="&#x161;" horiz-adv-x="1148" 
d="M258 -43q-29 0 -47.5 24t-36.5 66l-68 143q-5 10 -14.5 30t-13.5 28.5t-10 23t-8.5 22.5t-4.5 18.5t-2 19.5q0 28 15.5 42.5t37.5 14.5q33 0 78 -45q235 -227 447 -227q80 0 126 35.5t46 89.5q0 29 -15 49.5t-55.5 36.5t-69.5 23.5t-99 23.5q-29 7 -44 10
q-74 17 -132 35.5t-119 48t-101 65t-66 87.5t-26 114q0 136 111.5 226t279.5 90q68 0 152.5 -17.5t93.5 -17.5q20 0 42 20.5t46 20.5q21 0 39.5 -13t27 -24.5t27.5 -40.5l76 -121q53 -79 53 -117q0 -24 -13.5 -38.5t-33.5 -14.5q-14 0 -29.5 8t-23.5 14.5t-27 24.5
q-93 77 -195 125.5t-192 48.5q-61 0 -99 -27.5t-38 -70.5q0 -23 11.5 -40.5t30.5 -30t52 -24t67 -20.5t85 -21q20 -4 30 -7q56 -13 97 -25t91 -30t85.5 -36.5t71 -45.5t57.5 -58t35.5 -72t13.5 -88q0 -105 -63 -183.5t-168 -117.5t-236 -39q-85 0 -173 18.5t-95 18.5
q-25 0 -53 -26.5t-54 -26.5zM221 1520q0 19 18.5 35t47.5 16q43 0 90 -45l170 -160l170 160q47 45 92 45q28 0 45.5 -16t17.5 -35q0 -24 -24 -62q-65 -91 -160 -205q-31 -34 -58 -45.5t-83 -11.5q-55 0 -81.5 11.5t-57.5 45.5q-95 109 -160 205q-27 38 -27 62z" />
    <glyph glyph-name="uni0162" unicode="&#x162;" horiz-adv-x="1574" 
d="M532 -4q-36 0 -54.5 17t-18.5 42q0 26 16.5 42t39.5 25.5t46.5 20.5t40 36t16.5 65v962q0 50 -20.5 72t-67.5 22h-43q-86 0 -160 -55.5t-188 -185.5q-27 -30 -44 -42.5t-40 -12.5q-25 0 -42 18.5t-17 50.5q0 36 40 132q5 11 7 16l74 182q23 58 46 81t56 23q24 0 64 -24.5
t84 -24.5h841q44 0 84 24.5t64 24.5q33 0 56 -23t46 -81l74 -182q41 -98 45 -127q2 -10 2 -21q0 -32 -17 -50.5t-42 -18.5q-23 0 -40 12.5t-44 42.5q-113 129 -188 185t-161 56h-43q-47 0 -67.5 -22t-20.5 -72v-962q0 -40 16.5 -65t40 -36t47 -20.5t40 -25.5t16.5 -42
q0 -25 -19 -42t-55 -17q-23 0 -103.5 3t-150.5 3q-71 0 -153 -3t-103 -3zM662 -207q0 54 44 90.5t109 36.5q146 0 146 -145q0 -72 -41 -146.5t-94.5 -119t-94.5 -44.5q-20 0 -32.5 11t-12.5 28q0 6 2 11t3.5 8.5t6.5 9t7 7.5t9 8.5t9 7.5q63 47 63 90q0 6 -1.5 10.5t-5 9
t-6.5 7.5t-9.5 6.5t-10 5.5t-11.5 6t-11 6q-33 15 -51 35.5t-18 60.5z" />
    </font>
</defs>
</svg>
