<?xml version="1.0" standalone="no"?>
<!DOCTYPE svg PUBLIC "-//W3C//DTD SVG 1.1//EN" "http://www.w3.org/Graphics/SVG/1.1/DTD/svg11.dtd" >
<svg xmlns="http://www.w3.org/2000/svg" xmlns:xlink="http://www.w3.org/1999/xlink" version="1.1">
<metadata></metadata>
<defs>
<font id="glyphterregular" horiz-adv-x="2048" >
<font-face units-per-em="2048" ascent="1638" descent="-410" />
<missing-glyph horiz-adv-x="500" />
<glyph horiz-adv-x="0" />
<glyph horiz-adv-x="682" />
<glyph unicode="0" d="M6 1264q21 69 98 84l560 80l250 506q19 34 48 52q29 16 62 16q32 0 64 -16q28 -18 46 -52l250 -506l280 -40q252 -37 280 -42q78 -16 98 -82q21 -70 -32 -126l-404 -394l96 -556q9 -60 -28 -100q-39 -39 -94 -42q-31 0 -56 14l-500 262l-500 -262q-25 -14 -58 -14 q-54 3 -90 42q-39 39 -30 102l96 554l-404 394q-53 56 -32 126zM1024 530l476 -250l-92 528l36 34l34 34l316 308l-532 76l-238 482v-1212z" />
<glyph unicode="1" d="M6 1264q21 69 98 84l560 82l250 506q38 68 110 68t110 -68l250 -506l280 -42q257 -38 280 -40q77 -15 98 -84q21 -70 -32 -126l-404 -394l96 -556q9 -81 -48 -120q-58 -43 -130 -10l-500 264l-500 -264q-71 -32 -128 10q-59 40 -50 120l96 556l-404 394q-53 56 -32 126z M254 1184l384 -376l-90 -530l476 250l476 -250l-46 266q-43 257 -44 264l384 376l-532 78l-238 482l-238 -482z" />
<glyph unicode="2" d="M194 1540q21 56 110 118q75 49 144 82l-20 18q-54 50 -54 121.5t54 122.5q50 50 128 50h888q75 0 128 -50q52 -49 52 -122v-16l142 60q28 13 53.5 -4.5t22.5 -47.5q-3 -29 -32 -42l-106 -46l94 -6q31 -3 43.5 -30.5t-5.5 -51.5q-28 -22 -46 -22l-112 8l24 -16 q89 -64 100 -130l-20 -40q-40 -20 -72 -28q56 -78 80 -164q31 -110 28 -234v-456q6 -248 -126 -392q-128 -143 -394 -170h-8h-544q-246 9 -384 150q-121 127 -156 358v8v472q-9 140 34 278q22 71 66 130q-53 19 -94 48q-3 3 -6.5 8t-9 16.5t-2.5 19.5zM284 1042l2 -472 q27 -202 136 -316q117 -117 326 -126h542q234 24 344 146q109 121 106 340v456q3 109 -24 214q-28 96 -96 170h-12q-50 3 -92 20q-39 15 -82 18q-44 -2 -104 -20q-61 -19 -118 -22q-54 3 -108 22q-40 20 -92 20q-53 -10 -92 -28q-50 -25 -106 -28q-58 3 -104 32 q-33 21 -76 24q-52 -6 -96 -30q-72 -34 -122 -32h-24l-2 2q-50 -62 -74 -136q-41 -129 -32 -254zM286 1542q34 -16 52 -22q36 -14 78 -14q49 3 88 24q60 33 126 36q51 2 116 -32q32 -19 66 -22q37 3 76 22q59 26 116 32q64 3 126 -22q45 -17 82 -20q38 2 94 20q64 19 126 22 q53 0 110 -22q33 -13 64 -16q33 0 70 10l38 10q-27 36 -60 56q-82 57 -184 98l-928 2q-102 -48 -192 -108q-32 -19 -64 -54zM410 722v286q0 79 60 136q59 56 142 56h928h-130q85 0 144 -56q58 -55 58 -136v-286q0 -82 -58 -134q-58 -58 -142 -58h-800q-84 0 -142 58 q-60 57 -60 134zM446.5 1880q1.5 -39 39.5 -68q30 -30 74 -30h888q42 0 72 30q30 28 30 68t-30 68q-33 30 -72 30h-894q-22 0 -43.5 -8.5t-28.5 -21.5q-37 -29 -35.5 -68zM490 722q0 -46 36 -82q34 -34 86 -34h798q51 0 88 34q36 36 36 82v286q0 46 -36 82q-37 34 -88 34 h-798q-52 0 -86 -34q-36 -36 -36 -82v-286z" />
<glyph unicode="3" d="M56 368q0 13 9 22.5t21 9.5h1858q12 0 21 -9.5t9 -22.5t-9 -22.5t-21 -9.5h-1858q-12 0 -21 9.5t-9 22.5zM194 502v4q1 172 38 321t104 260.5t153 193.5t191 133q114 54 234 72q-28 37 -28 90q0 60 38.5 102t93.5 42q54 0 93 -42t39 -102q0 -54 -30 -90q123 -18 234 -72 q105 -51 192 -133t153.5 -194.5t104 -262t38.5 -322.5q0 -13 -9 -22.5t-21 -9.5h-1588q-12 0 -21 9.5t-9 22.5zM254 534h1528q-7 306 -130.5 515.5t-321.5 306.5q-147 72 -312 72t-312 -72q-198 -97 -321.5 -306.5t-130.5 -515.5zM380 760q45 154 138 256q92 100 228 158 l38 -20l-18 -40q-122 -52 -206 -142q-82 -91 -124 -232l-36 -20z" />
<glyph unicode="4" d="M106 938.5q1 108.5 44 209.5h36q49 153 156 274t254 196q145 74 310.5 91.5t339.5 -25.5l18 -32l-214 -676l504 244l138 70l36 -10q81 -133 100 -294q18 -151 -28 -304l-2 -6q-49 -155 -157 -278.5t-251 -189.5q-100 -55 -203 -85t-219.5 -29.5t-225.5 40.5l-6 36 q-168 45 -301.5 144.5t-204.5 231.5q-61 93 -93 188.5t-31 204zM210 1108q-110 -251 96 -562q60 -131 181.5 -229.5t274.5 -124.5q277 -102 608 88q135 53 236.5 163t147.5 257q46 144 28 288q-14 127 -80 252l-92 -46q43 -82 62 -224q13 -133 -24 -250q-40 -125 -127 -224 t-207 -160q-256 -126 -530 -52q-137 37 -243.5 117.5t-172.5 190.5t-81.5 235t23.5 255q40 125 127 224t207 160q244 120 504 58l30 92q-156 36 -304 18t-280 -84q-146 -75 -251.5 -189t-132.5 -253zM362 1068q-88 -205 78 -452q47 -106 144 -185t220 -99q222 -83 490 70 q109 44 190 132t118 206q35 110 22 230q-12 101 -64 200l-568 -290l-10 -4h-2h-2h-2h-4l-18 32l180 568q-124 27 -241 12.5t-223 -68.5q-116 -58 -200.5 -149.5t-107.5 -202.5zM472 830q0 39 30 66.5t72 27.5t72 -27.5t30 -66.5t-30 -66.5t-72 -27.5t-72 27.5t-30 66.5z M600 1058l20 26l40 10q30 13 61 12.5t57 -26.5q28 -12 48 -12l46 -4l20 -26l-30 -18l-36 4q-21 0 -31.5 1t-25 6.5t-25.5 16.5q-3 3 -6 5t-6 3.5t-6.5 2.5t-6 1.5t-7 0t-6 -0.5t-7 -1.5t-7.5 -2t-8 -2.5t-8 -2q-30 -8 -48 -12zM678 1234l128 172l136 -176zM750 630l6 32 q42 26 56 60q18 39 12 92l22 24l26 -20q9 -60 -14 -112q-23 -49 -74 -82zM760 466l20 26q42 7 66 0q36 -7 60 -36l2 -2l24 -2l38 16l6 6q17 16 40.5 17.5t38 -3.5t41.5 -16l20 -16l28 16l20 -26l-6 -14q-8 -14 -23 -16t-26 1.5t-35 14.5q-10 4 -25.5 6.5t-26.5 3.5h-10 l-12 -10q-36 -22 -58 -24q-37 -12 -68 16l-6 6l-32 20q-30 2 -48 -2zM1066 580l136 150l118 -152zM1130 1104l232 732l34 18q161 -44 294 -142q137 -103 214 -236l-10 -34l-726 -368l-36 10zM1216 1176l530 268q-71 92 -162 160q-93 65 -198 106zM1292 892q0 50 38 82 q34 34 88 34q56 0 90 -34q36 -33 36 -82q0 -46 -36 -82q-34 -34 -90 -34q-54 0 -88 34q-38 35 -38 82zM1342 892q0 -9 5.5 -21.5t10.5 -20.5l6 -8q34 -20 54 -20q10 0 24 5t23 10l9 5q22 30 22 50q0 9 -5.5 21.5t-10.5 20.5l-6 8q-34 22 -56 22q-9 0 -22.5 -5.5t-22.5 -10.5 l-9 -6q-22 -30 -22 -50zM1356 1480q0 39 30 66.5t72 27.5t72 -27.5t30 -66.5t-30 -66.5t-72 -27.5t-72 27.5t-30 66.5zM1390 1752q123 -47 216 -114q108 -83 176 -176l68 34q-73 115 -188 200q-107 80 -250 126z" />
<glyph unicode="5" d="M102 1268v26l16 16l6 2h6l128 -2l16 -6l10 -14l108 -300l2 2l6 20q38 103 96 188q54 77 134 144v58l6 30l14 26l22 18l26 6h12l26 40l32 40q28 26 42 38q32 20 50 28l24 8l26 8l10 2l-2 14l-2 24l6 42l22 38l32 24l36 10l38 -10l32 -24l20 -38l8 -42l-2 -22l-2 -12l20 -4 l20 -6q26 -7 60 -26q20 -10 52 -38l40 -44q22 -32 30 -50h12l26 -6l22 -18l16 -26l4 -30v-56q14 -10 58 -44q39 -35 54 -54q96 51 178 36q87 -12 156 -90q38 -41 62 -92q28 -56 40 -116q14 -59 14 -128q2 -52 -12 -128q-32 -144 -134 -240q-100 -94 -246 -116l-6 -2l-2 2 q-27 -37 -70 -74q-36 -30 -84 -56v-54l-6 -40l-20 -34l-28 -22l-34 -8h-616l-32 8l-26 20l-2 2l-16 30l-6 36v54l-40 24l-40 28h-2q-56 7 -92 22q-43 14 -86 42q-45 30 -70 60q-32 35 -56 80q-53 99 -72 186q-10 56 -14 174v32l-2 36q0 32 -4 92q-11 84 -12 88q-8 56 -16 86 q-7 35 -22 82zM168 1246q11 -36 16 -62q9 -36 12 -72q3 -13 5 -29t4 -34.5t3 -28.5l6 -96v-36l2 -34q0 -100 12 -160q15 -77 64 -166q16 -35 46 -68q22 -24 60 -52l38 -20l22 -10l-30 46q-23 42 -36 82l-14 44l-12 48q-1 8 -4 26.5t-4 29.5q-4 40 -4 58q-3 50 2 90 q3 46 12 88l-130 354zM412 736q0 -62 10 -122q12 -52 22 -76q10 -29 32 -70q31 -56 78 -100q42 -42 102 -72h2h716q75 33 126 90q53 53 88 136q23 55 34 106q11 50 14 118q0 65 -8 118q-5 49 -26 116q-36 112 -94 186q-60 82 -138 128l-704 -6h-2l-4 -2q-68 -53 -120 -130 q-52 -70 -88 -170l-16 -48l-12 -50v-2q-12 -81 -12 -150zM688 172l6 -10l18 -8h616l12 2l10 8l6 12l4 14v38h-672v-46v-10zM688 1354l664 6v42l-2 6l-2 4l-2 2h-4h-644h-4l-4 -2l-2 -10v-48zM780 1482h480l-14 18l-22 24l-42 30q-32 16 -50 22l-16 4l-18 4l-20 4h-22l-10 4 l-10 8l-6 24l10 24l6 6l4 10l2 8l2 12l-4 18l-8 14l-14 10l-14 4l-16 -4l-14 -10l-8 -14v-2l-4 -16l2 -12l2 -10l4 -8l8 -8l6 -10l4 -12l-6 -24h-2l-18 -12l-26 -4l-24 -4l-22 -6l-20 -8l-40 -24l-34 -30l-18 -20zM1560 1198q32 -44 52 -88q23 -44 44 -106q20 -69 28 -130 q10 -77 8 -132q-4 -78 -16 -130q-12 -63 -36 -120l-14 -28l-6 -14q107 29 180 102q75 75 102 196q12 54 12 110t-12 110q-12 52 -34 100q-22 47 -52 80q-56 59 -122 70q-61 12 -134 -20z" />
<glyph unicode="6" d="M148 90l320 836q-77 133 -104 284h-80q-24 18 -24 40q0 11 6 21.5t12 15.5l6 5h66q-1 11 -3 34t-3 34q-4 36 8 52l30 18h2l1304 -2h16h4q26 0 36 -30v-34l-6 -72h66q22 -18 22 -42q0 -10 -5.5 -20t-10.5 -15l-6 -5h-78q-31 -157 -108 -288l320 -830l-92 -2l-288 752 l-56 -76l248 -674h-78l-226 630q-176 -137 -396.5 -139t-397.5 131l-218 -624h-78l232 650q-12 11 -22.5 24.5t-17 22.5t-17.5 27.5t-17 27.5l-288 -752h-78zM437 1320q0 -4 0.5 -11t0.5 -11q4 -36 4 -54v4q2 -18 2 -38q0 -8 3.5 -16t6.5 -12l4 -4h-4q28 -126 90 -226l2 -2 l40 -64l-2 -4q8 -10 19.5 -27t22 -29t24.5 -24l8 14v-12l48 -40q156 -103 342 -95t340 117v4l50 32h-2l48 60l4 -4l52 68l-2 2q67 111 90 230l-4 -4q10 18 10 36l4 32l2 2q4 36 4 58v26q-1 10 -10 17t-20 7h-2h-14l-1126 2h-2l-26 -14q-4 -5 -5.5 -10.5t-1.5 -9.5zM589 1726 q-10 58 29 118q25 20 47 20t33 -20v-38q-14 -27 -15 -53.5t4 -42t17 -38.5q17 -35 23 -54.5t-0.5 -51t-34.5 -62.5l-14 -2q-14 -20 -32.5 -10.5t-23.5 34.5l8 30q7 8 11 15.5t3 17.5t-2 15t-6 17.5t-6 16.5q-35 58 -41 88zM817 1892.5q2 10.5 4.5 25t9.5 29t17 29.5 q27 19 49 18.5t31 -18.5v-38q-14 -27 -14.5 -54t4 -40.5t16.5 -39.5q17 -36 23.5 -55t0.5 -50.5t-34 -62.5l-14 -2q-15 -20 -33.5 -10.5t-24.5 34.5l10 30q8 10 10.5 21.5t2 17.5t-6 22.5t-6.5 20.5q-1 2 -10 17t-11 19.5t-9.5 18.5t-8.5 21.5t-4.5 21.5t-1.5 24.5z M1136.5 1711.5q-0.5 9.5 6 24t10 21.5t14.5 24t15 23q1 7 4.5 27.5t4.5 32.5t-2.5 33t-14.5 41q-10 20 -1 39t29 19l30 -20q18 -33 24.5 -62.5t0.5 -58.5t-11 -43t-18 -44q-9 -18 -12.5 -27.5t-1.5 -24.5t14 -28h-4q13 -17 6.5 -37t-26.5 -25l-26 10q-16 14 -26 27t-12.5 26 t-3 22.5zM1367.5 1577q-1.5 9 5.5 24.5t10 21.5t14.5 24t14.5 23q1 6 5 26t5 32.5t-3 34t-15 41.5q-9 20 1 38t29 18l30 -18q22 -45 24.5 -86.5t-5.5 -64.5t-25 -57q-9 -18 -12.5 -27.5t-1.5 -24.5t14 -28h-2q14 -15 8.5 -36.5t-24.5 -27.5l-32 10q-15 14 -25 27t-12 27 t-3.5 23z" />
<glyph unicode="7" d="M44 1332v68h1970v-68h-1970zM136 1394h1808l-90 -1254h-1628zM140 1334v56q0 109 65 186.5t157 77.5h1366q91 0 155.5 -77t64.5 -187v-56h-1808zM204 1338l80 -1120h1502l78 1120h-1660zM210 1400h1682q-5 77 -51.5 129.5t-110.5 52.5h-1358q-65 0 -112 -53t-50 -129z M402 82v130h194v-130h-194zM848 970q0 -185 36 -368q4 -22 22.5 -37t41.5 -15h232q24 0 41.5 14.5t22.5 37.5q36 183 36 368v52q0 27 -18.5 45.5t-45.5 18.5h-304q-27 0 -45.5 -18.5t-18.5 -45.5v-52zM904 830v88v82q0 34 20 34h282q9 0 15.5 -9.5t6.5 -24.5v-82 q0 -15 -1 -44t-1 -44h-322zM910 1624v72q0 35 21.5 58.5t54.5 23.5h120q33 0 54.5 -23.5t21.5 -58.5v-72h-272zM914 786h304q-6 -84 -28 -180q-4 -12 -20 -12h-206q-16 0 -20 12q-24 90 -30 180zM942 474v46h264v-46h-264zM996 694v66h132v-66h-132zM996 896v66h132v-66 h-132zM998 638v32h132v-32h-132zM1496 82v130h194v-130h-194z" />
<glyph unicode="8" d="M286 1022h1542l-78 -916h-1386zM288 1024q0 12 8 20t20 8h1488q12 0 20 -8t8 -20t-8 -20t-20 -8h-1488q-12 0 -20 8t-8 20zM290 1032v770q0 55 37.5 106t106.5 90q145 82 346 82h564q201 0 346 -82q69 -39 106.5 -90t37.5 -106v-770h-1544zM372 1094h1374v664 q0 90 -123 156t-295 66h-540q-172 0 -294 -66t-122 -156v-664zM392 984l64 -778h1216l64 778h-1344zM610 26v98h174v-98h-174zM816 1116h452v278h-452v-278zM940 1268q0 42 32 72t78 30q45 0 75.5 -30t30.5 -72t-31.5 -73t-74.5 -31q-45 0 -77.5 31t-32.5 73zM958 312v538 q0 12 30 20t72 8t72 -8t30 -20v-538q0 -12 -30 -20t-72 -8t-72 8t-30 20zM1390 32v98h174v-98h-174z" />
<glyph unicode="E" d="M0 448v1152q3 75 50 122t120 50h1708q73 -3 120 -50t50 -122v-1152q-3 -73 -50 -120t-120 -50h-1708q-73 3 -120 50t-50 120zM214 576q0 -35 26 -58q23 -26 58 -26q32 0 56 24l390 390l144 -146q54 -54 136 -54q80 0 134 54l144 146l390 -390q27 -24 60 -24q32 0 58 26 q24 24 24 58q0 31 -24 58l-390 390l390 392q24 27 24 60q0 31 -24 58q-27 24 -58 24q-33 0 -60 -24l-622 -624q-21 -18 -46 -18t-46 18l-624 624q-24 24 -56 24q-34 0 -58 -24q-26 -26 -26 -58q0 -33 24 -60l194 -196l196 -196l-390 -392q-24 -24 -24 -56z" />
<glyph unicode="N" d="M0 512v820q104 -14 194 -64q85 -49 138 -122q87 75 198 150q32 22 96 52.5t142.5 64t103.5 45.5l-80 180q7 50 13.5 100t10 74.5l4.5 31.5h1q19 0 203 -70q190 -76 356 -256q369 -105 522 -336q153 -230 146 -260q6 -33 -174 -252q-185 -221 -622 -260 q-118 -121 -222 -164q-92 -40 -106 -40h-2l52 254q-23 6 -119.5 27t-156 38t-102.5 39q-147 74 -250 150q-53 -80 -142 -132q-92 -55 -204 -70zM1436 974q0 -64 44 -108t108 -44q62 0 106 44t44 108q0 62 -44 106q-43 43 -106 46q-65 -3 -108 -46q-44 -44 -44 -106z" />
<glyph unicode="O" d="M0 762v306q3 127 122 216q114 85 292 88q58 -3 114 -20q51 -19 148 -22q125 6 222 68q98 61 112 84q87 71 200 112q117 40 250 40q248 -3 416 -128q166 -124 172 -308v-304q-6 -181 -168 -286q-165 -108 -420 -150q-33 -5 -190 -22q-152 -19 -334 -22q-181 3 -332 22 q-157 17 -190 22q-182 27 -296 104q-115 76 -118 200zM88 1068q0 -41 20 -70l16 -22l16 -16l24 -18l22 -14l26 -14q28 -14 52 -22l58 -20q28 -7 106 -22q4 -1 25 -3.5t66.5 -7.5t92.5 -11q149 -19 324 -22q46 0 72 2q76 4 118 8l118 10l202 24q130 22 268 74q144 54 216 162 q27 51 30 112q-3 148 -146 248q-138 97 -354 100q-114 0 -216 -34q-101 -34 -172 -96q-38 -41 -150 -106q-109 -62 -246 -68q-56 0 -106 10q-10 2 -82 20q-42 14 -74 14q-137 -3 -230 -66t-96 -152zM174 1068q0 31 36 64q32 29 100 52l264 -264l-84 10q-34 3 -50 6 q-117 20 -192 58q-71 32 -74 74zM418 1198q12 -4 20 -6l28 -8q39 -9 90 -18t120 -12l52 4l260 -264h-52q-30 0 -106 4q-80 4 -120 8l-146 146zM828 1180q54 16 100 36q51 22 88 48l4 -4l330 -336l-110 -10l-132 -12zM1090 1320q31 27 42 40q44 34 118 64l424 -422 q-86 -30 -116 -38q-43 -11 -98 -24q-6 4 -8 10zM1346 1446q50 14 114 14q173 -3 290 -78q118 -76 124 -188q-3 -48 -32 -86q-35 -42 -86 -70z" />
<glyph unicode="P" d="M0 936v14q3 90 74 164q68 68 190 126q8 -36 30 -76q21 -39 48 -78q-169 -77 -172 -144q6 -85 236 -166q228 -84 618 -90q389 6 620 90q228 81 234 166q-3 47 -68 94q-71 46 -196 84q-48 73 -86 156l-14 24l-12 26q231 -51 384 -144t162 -232v-14q-27 -299 -178 -500 q-151 -202 -198 -236q-54 -65 -218 -130q-162 -63 -430 -66q-267 3 -426 66q-162 64 -222 130q-49 32 -200 234q-152 200 -176 502zM290 1992q3 25 18 40q13 10 38 14q21 3 42 -8q19 -10 22 -30q10 -85 26 -156q15 -81 118 -202q-1 7 -1 14q0 83 101 180q45 44 115 44 q98 0 247 -86q273 -215 394 -490q122 -276 246 -370q-315 -120 -566 -120q-225 0 -398 96q-351 191 -351 393q0 11 1 23q21 88 60 136q37 46 60 62q23 -44 202 -186q179 -143 522 -250q-551 276 -722 542q-171 264 -174 354z" />
<glyph unicode="Q" d="M0 564q0 29 12 68q8 34 40 82q-52 70 -52 158q0 29 12 68q8 34 40 82q-52 70 -52 156q0 31 12 70q8 35 40 80q-52 73 -52 158q15 227 322 344q300 116 702 116q401 0 704 -116q305 -118 320 -344q0 -85 -52 -158q31 -43 42 -80q10 -43 10 -70q0 -86 -52 -156 q31 -47 42 -82q10 -43 10 -68q0 -88 -52 -158q31 -47 42 -82q10 -43 10 -68q-15 -226 -320 -344q-303 -116 -704 -116q-402 0 -702 116q-307 117 -322 344zM204 564q3 -73 212 -160q207 -87 608 -96q129 0 240 12q33 -12 68 -12q71 3 124 44q186 44 288 106q97 59 100 106 q0 6 -4 18q-66 -38 -142 -64q-73 -27 -168 -50q6 21 6 44v168q153 46 228 98q77 50 80 94q0 6 -4 18q-69 -39 -140 -64q-73 -28 -164 -50v210q153 46 228 98q77 53 80 94q0 8 -4 20q-69 -39 -140 -64q-87 -33 -164 -52v60q49 40 76 88q26 43 26 98q102 39 154 82t52 76 q-3 73 -210 160q-210 87 -610 96q-52 0 -140 -4q-44 4 -64 4q-143 -3 -248 -48q-173 -43 -272 -104q-94 -61 -94 -104q0 -46 94 -104q90 -58 276 -104q16 -8 52 -20q21 -55 70 -98q49 -46 122 -78v-48q-173 14 -338 58q-152 37 -274 106q-4 -12 -4 -20q3 -63 158 -138 q156 -75 458 -108v-10q3 -87 60 -144t144 -60q-240 0 -448 44q-217 45 -368 128q-4 -12 -4 -18q3 -75 212 -162q209 -88 608 -94q68 0 102 2v-106q0 -55 26 -98q-84 -4 -128 -4q-240 0 -448 44q-220 46 -368 130q-4 -16 -4 -20zM512 1486q3 63 90 108q83 43 218 46 q103 -3 178 -30q76 -27 110 -74h18q173 -3 290 -60t120 -144q0 -42 -26 -74t-76 -60v-686q-3 -43 -30 -70q-30 -30 -72 -30q-45 0 -72 30q-29 26 -32 70v622q-36 -7 -75 -7q-13 0 -27 1v-206q0 -44 -28 -72q-30 -30 -74 -30q-45 0 -72 30q-30 27 -30 72v234q-91 26 -148 74 q-55 43 -58 102l4 10q-90 15 -148 54q-57 39 -60 90z" />
<glyph unicode="S" d="M0 1024q9 435 300 726q289 289 724 298q434 -9 726 -298q289 -292 298 -726q-9 -435 -298 -724q-291 -291 -726 -300q-436 9 -724 300q-291 288 -300 724zM198 1024q9 -350 244 -582q232 -235 582 -244q349 9 584 244q233 233 242 582q-9 348 -242 584q-236 233 -584 242 q-349 -9 -582 -242q-235 -235 -244 -584zM324 962h220v166h-110h-110v-166zM406 706l16 -28l16 -30l146 84l-34 58zM406 1384l72 -40q63 -39 72 -42l34 56l-146 84zM662 428l28 -18l28 -16l84 144l-56 34zM662 1664l42 -72q36 -63 42 -72l56 32l-84 144zM1010 312h132v220 h-66h-66v-220zM1010 1024v370v370q314 -9 524 -216q207 -210 216 -524h-740zM1076 1376q0 -10 12 -16q9 -6 26 -6q15 0 28 -10q10 -13 10 -28v-146q0 -16 10 -26q9 -12 22 -12q15 0 24 12q8 8 8 26v246q0 17 -6 26q-9 9 -20 12q-26 -3 -28 -8v-6q-2 -10 -14 -22 q-12 -15 -30 -18q-6 -2 -20 -2q-19 -3 -22 -22zM1316 538l58 34l82 -140q-6 -5 -56 -38l-42 72q-36 63 -42 72zM1318 1182q8 -17 24 -34q27 -24 74 -24q58 0 86 34q28 37 28 80q0 52 -28 80q-29 26 -70 26q-19 0 -34 -6l-12 -6q-5 -2 -6 6q-1 7 2 22q4 18 14 26q13 10 28 10 h56q17 0 28 8q10 7 10 18q0 10 -10 20q-8 4 -28 8h-100q-16 -3 -28 -12q-13 -10 -16 -26l-12 -102q-3 -17 6 -26q5 -11 18 -14q24 3 36 12q1 0 5.5 3.5t8.5 4.5q6 2 20 2q23 0 36 -16q10 -20 10 -42q0 -27 -12 -42q-13 -16 -34 -16q-22 0 -32 10q-7 7 -10 16q-8 13 -36 16 q-13 0 -20 -10q-8 -11 -2 -26zM1536 732l34 58l116 -68l-30 -60l-60 36q-55 32 -60 34z" />
<glyph unicode="T" d="M0 1024q9 435 300 726q289 289 724 298q434 -9 726 -298q289 -292 298 -726q-9 -435 -298 -724q-291 -291 -726 -300q-436 9 -724 300q-291 288 -300 724zM198 1024q9 -350 244 -582q232 -235 582 -244q349 9 584 244q233 233 242 582q-9 348 -242 584q-236 233 -584 242 q-349 -9 -582 -242q-235 -235 -244 -584zM348 942h232v164h-116h-116v-164zM436 666l16 -28l18 -28l150 86l-32 58zM436 1382l76 -44q19 -11 37 -21.5t27.5 -15.5t11.5 -7l32 58l-150 86zM704 374l30 -16l28 -16l88 150l-58 34zM704 1674l44 -76q43 -72 44 -76l58 34 l-88 150zM1010 284v1110v370q314 -9 524 -216q207 -210 216 -524q-9 -315 -216 -522q-209 -209 -524 -218zM1120 918q7 -24 14 -36q29 -50 106 -50q58 0 92 34q32 32 32 78q0 42 -28 70l-12 10q-11 5 -2 14q4 2 12 10q18 21 18 54q0 43 -30 70q-32 26 -84 26q-26 0 -44 -6 q-20 -6 -34 -20q-18 -15 -28 -38l-6 -24q-3 -11 8 -18q8 -8 22 -8q29 3 34 22q2 8 10 20q13 16 36 16q22 0 34 -12q12 -15 12 -34q0 -33 -24 -42q-9 -3 -24 -6q-20 -3 -20 -26t22 -26q20 -4 26 -6q28 -12 28 -46q0 -28 -14 -42t-36 -14q-34 0 -48 26q-1 3 -2 9t-2 9 q-6 15 -36 18h-2q-12 0 -22 -10q-11 -11 -8 -22zM1400 1016q0 -89 28 -136q27 -48 94 -48q69 0 96 48q28 47 28 136q0 86 -28 136q-27 48 -96 48q-67 0 -94 -48q-28 -50 -28 -136zM1470 1018q0 59 10 92q9 32 42 32t42 -30q8 -29 8 -94q0 -67 -8 -96q-9 -34 -40 -34 q-33 0 -42 34q-12 33 -12 96z" />
<glyph unicode="U" d="M0 1024q9 435 300 726q289 289 724 298q434 -9 726 -298q289 -292 298 -726q-9 -435 -298 -724q-291 -291 -726 -300q-436 9 -724 300q-291 288 -300 724zM198 1024q9 -350 244 -582q232 -235 582 -244q349 9 584 244q233 233 242 582q-9 348 -242 584q-236 233 -584 242 q-349 -9 -582 -242q-235 -235 -244 -584zM274 1024h740v370v370q314 -9 524 -216q207 -210 216 -524q-9 -315 -216 -522q-209 -209 -524 -218q-316 9 -522 218q-209 206 -218 522zM386 1348l150 -86l34 56l-76 44q-19 11 -37 21.5t-27.5 15.5t-11.5 7zM654 1640l88 -150 l56 32l-44 76q-11 19 -21.5 37t-15.5 27.5t-7 11.5zM726 608q4 -18 12 -26q10 -10 24 -10h100q14 0 24 -10t10 -24v-24q3 -15 12 -24q10 -10 24 -10h12q16 0 26 10t10 24v24q0 16 8 24q7 10 16 10q8 0 18 10q6 9 6 24t-6 24q-8 8 -18 8q-9 0 -16 10q-8 8 -8 26v198 q0 16 -10 26q-6 6 -26 10h-24q-20 -4 -30 -10q-16 -10 -24 -20l-122 -202q-8 -20 -12 -32q-6 -18 -6 -32v-4zM808 668l36 62q25 47 36 64q16 26 16 -6v-114q0 -16 -10 -26t-24 -10h-38q-31 3 -16 30zM1070 560q13 -38 38 -58q40 -34 102 -34q75 0 114 48q38 44 38 106 q0 67 -40 104q-39 36 -92 36q-28 0 -46 -6l-16 -8q-8 -4 -9 8q0 6 1 16l4 26q3 16 14 24q13 10 26 10h106q14 0 24 10t10 26v2q0 14 -10 24t-24 10h-166q-16 0 -26 -10q-11 -8 -14 -24l-22 -168q-3 -15 8 -26q10 -10 22 -12h6q15 0 30 6q8 2 20 10q7 7 16 10q12 4 26 4 q32 0 48 -22q16 -26 16 -56q0 -34 -16 -56q-19 -22 -46 -22q-30 0 -44 14q-9 9 -12 20q-3 10 -16 16q-12 6 -26 6h-14q-14 0 -24 -10q-9 -9 -6 -24z" />
<glyph unicode="V" d="M0 574q3 233 96 434q92 197 260 340l44 -64q-151 -133 -234 -314q-85 -179 -88 -396h-40h-38zM124 574q3 207 82 374q82 174 220 294l266 -390q-46 -51 -76 -128q-28 -72 -28 -150h-232h-232zM320 1544l86 56l612 -904q16 4 22 2q53 0 90 -34q33 -36 36 -90 q0 -54 -34 -88q-36 -36 -90 -36q-55 0 -88 36q-36 33 -36 88q0 37 18 64zM572 1492q102 51 216 78q118 28 236 28q433 -12 724 -300q288 -291 300 -724h-78q-9 403 -276 670t-670 276q-110 0 -212 -24q-97 -22 -196 -70zM644 1382q169 80 368 80q376 -9 628 -258 q249 -252 258 -630h-464q-3 179 -124 300q-121 118 -298 124q-56 0 -98 -14z" />
<glyph unicode="W" d="M0 574q12 434 302 724q288 291 722 300q401 -9 678 -256q279 -249 336 -634h-78q-54 350 -312 578q-258 225 -624 234q-401 -9 -668 -276q-269 -269 -278 -670h-78zM124 574q3 237 112 434q108 195 294 312q107 70 226 108q123 36 256 36q342 -9 584 -218 q240 -210 294 -542h-476q-45 131 -150 212q-105 79 -252 82q-121 0 -220 -60q-88 -54 -148 -152q-56 -91 -56 -212h-464zM918 576q0 52 36 88q36 33 88 36q41 -3 68 -22q31 -24 44 -52l894 4v-52v-52l-894 -4q-14 -31 -44 -52q-29 -20 -68 -20q-56 3 -88 38q-36 33 -36 88z " />
<glyph unicode="X" d="M0 574q12 434 302 724q288 291 722 300q221 0 418 -88l-38 -68q-177 75 -380 78q-401 -9 -668 -276q-269 -269 -278 -670h-78zM124 574q3 237 112 434q108 195 294 312q107 70 226 108q123 36 256 36q192 0 360 -78l-242 -406q-50 18 -103 18h-15q-121 0 -220 -60 q-88 -54 -148 -152q-56 -91 -56 -212h-464zM916 574q0 54 36 90q33 33 88 36h12l486 820l44 -26l44 -26l-486 -824q24 -27 24 -70q0 -54 -34 -88q-37 -34 -90 -34q-54 0 -88 34q-36 33 -36 88zM1346 834l244 414q146 -124 226 -294q82 -176 82 -380h-232h-232q0 71 -22 140 q-24 66 -66 120zM1624 1306l40 66q174 -138 280 -348q101 -205 104 -450h-38h-40q-3 225 -94 410q-91 186 -252 322z" />
<glyph unicode="Y" d="M0 1426q0 115 70 222q69 105 198 186q126 79 292 122q162 39 342 42q57 0 114 -6h6q60 6 124 6q147 0 288 -30q8 -2 20 -14q7 -10 4 -22q-3 -10 -14 -18q-9 -9 -22 -6q-140 28 -276 28q-67 0 -130 -6q-118 -9 -232 -42q-110 -31 -220 -94q-31 -17 -64 -40t-58 -48 q-31 -26 -70 -76q-55 -73 -68 -170q-2 -16 -2 -31q0 -42 12 -85q24 -90 98 -170q20 -20 20 -48v-180l198 210q-21 75 -24 158q6 228 160 382q152 152 382 158q230 -6 382 -158t158 -382q0 -131 -56 -240q55 -26 98 -72q40 -47 58 -108q21 -75 21 -154q0 -135 -61 -282 q-6 -19 -22 -48q-24 -45 -62 -88q-43 -52 -116 -90q-73 -41 -184 -44h-8q-104 3 -188 54q-83 49 -136 142l-8 18l-184 -192q-16 -16 -36 -16q-22 0 -36 14l-120 114q-10 10 -14 28q-4 19 4 32q16 35 16 68q-3 61 -42 100q-40 40 -100 40h-2q-37 0 -70 -18l-8 -4v-456h1426 v1014q0 28 20 48q108 117 108 250q0 131 -102 248q-47 53 -124 104q-84 50 -162 80q-13 7 -16 18q-6 9 0 22q3 11 16 18q11 4 22 -2q205 -83 314 -206q111 -129 114 -280q-3 -159 -126 -294l-4 -6v-1024q0 -22 -14 -36t-36 -14h-1688q-22 0 -36 14t-14 36v1024l-4 6 q-123 135 -126 294zM60 1426q3 -136 110 -252q20 -20 20 -48v-1014h90h92v474l-112 106q-16 16 -16 36q0 22 14 36l114 120v242l-4 6q-86 95 -112 196q-15 48 -15 95q0 21 3 41v2q15 108 76 192q33 51 78 90q32 28 48 40q78 61 174 104l36 16q18 9 36 12q-98 -13 -208 -50 q-100 -36 -182 -88q-118 -73 -180 -164q-62 -92 -62 -192zM308 730l108 -102q47 22 94 22h2q87 -3 142 -58q57 -57 60 -140v-12q0 -41 -18 -78l108 -104l194 206q-16 54 -16 110q0 28 4 56q3 11 12 20t22 6q11 -3 20 -12q6 -9 6 -22q-4 -25 -4 -49q0 -84 44 -159 q39 -74 112 -120q69 -43 160 -46h6q181 15 256 114t72 116v2q57 138 57 261q0 71 -19 137q-27 84 -98 128q-51 32 -113 32q-23 0 -47 -4q-189 -39 -336 -216l-2 -2q-8 -10 -22 -30q-9 -9 -20 -12q-13 -3 -22 6q-11 5 -14 18t6 22q21 32 28 36q33 38 34 40l-346 328 l-234 -246q-207 -219 -236 -248zM666 1314q3 -62 14 -108l62 68q13 13 36 16q22 0 36 -14l354 -338q133 121 292 154q28 6 57 6l57 -6q54 102 54 222q-3 203 -140 340t-340 140q-203 -3 -340 -140q-136 -136 -142 -340zM702 850q3 22 20 30q16 10 32 0t16 -30t-16 -30 q-19 -9 -34 0t-18 30zM772 978q3 20 20 28q18 11 32 2q15 -9 18 -30q0 -21 -18 -30q-19 -9 -34 0t-18 30zM808 554q0 21 18 30q15 9 34 0q16 -10 16 -30q0 -21 -18 -30q-19 -9 -34 0q-16 10 -16 30zM1042 1410q3 22 20 30q16 10 32 0t16 -30q0 -18 -16 -28q-19 -9 -34 0 t-18 28zM1042 1636q3 22 20 30q18 11 32 2q16 -10 16 -30t-16 -30q-19 -9 -34 0t-18 28zM1170 530q-7 25 -7 51q0 54 31 107q46 72 130 94q24 5 46 5q56 0 108 -31q75 -45 96 -128q7 -26 7 -51q0 -54 -31 -103q-45 -74 -128 -96q-27 -6 -50 -6q-57 0 -108 30q-73 47 -94 128 zM1228 546q15 -58 68 -90q35 -23 75 -23q18 0 37 5q57 15 90 66q21 35 21 74q0 18 -5 38q-15 57 -66 90q-38 22 -74 22q-41 -3 -72 -20q-35 -19 -56 -52q-23 -37 -23 -75q0 -17 5 -35zM1420 1234q0 21 18 30q16 10 32 0q15 -9 18 -30q0 -21 -18 -30q-19 -9 -34 0 q-16 10 -16 30z" />
<glyph unicode="Z" d="M0 1024q9 435 300 726q289 289 724 298q433 -12 724 -300q288 -291 300 -724q-9 -435 -298 -724q-291 -291 -726 -300q-436 9 -724 300q-291 288 -300 724zM68 1024q9 -405 280 -676t676 -280q405 9 676 280t280 676q-9 405 -280 676t-676 280q-405 -9 -676 -280 t-280 -676zM344 972q-3 30 -3 59q0 207 131 395q8 11 24 14q12 3 24 -6q10 -8 14 -22q3 -14 -6 -26q-60 -85 -88 -172q-30 -93 -30 -190q0 -121 46 -234q46 -114 132 -200q10 -10 10 -24t-10 -24t-24 -10t-24 10q-178 187 -196 430zM580 1194v308q0 14 10 24t24 10t24 -10 t10 -24v-294l92 -92q13 -10 10 -26l-30 -596q0 -22 14 -36t34 -14q18 0 34 16q15 15 12 34l-28 596q-3 16 10 26l92 92v294q0 14 10 24t24 10t24 -10t10 -24v-308q0 -14 -10 -24l-92 -92l30 -592q-3 -48 -38 -80q-28 -28 -73 -28h-9q-50 3 -80 36q-32 32 -32 82l30 582 l-92 92q-10 10 -10 24zM682 1228v274q3 15 12 24q10 10 22 10q16 0 26 -10q8 -8 8 -24v-274q0 -14 -8 -22q-10 -10 -24 -10t-24 10t-12 22zM764 1618q-6 14 0 28q7 13 20 16q93 35 198 44q20 1 41 1l163 -19q12 -2 22 -16q5 -10 2 -26q-2 -12 -14 -20q-10 -8 -28 -4 q-71 16 -155 16h-27q-94 -6 -178 -38q-8 -4 -12 -4q-24 3 -32 22zM786 1228v274q0 14 10 24t24 10t24 -10q6 -7 10 -24v-274q-3 -15 -10 -22q-10 -10 -24 -10t-24 10t-10 22zM914 384q3 16 14 24q9 9 24 6q36 -4 72 -4l72 4h2q15 0 26 -8q10 -10 10 -22q3 -17 -6 -26 t-24 -12q-40 -4 -80 -4l-80 4q-14 3 -22 14q-11 11 -8 24zM1098 1170q-5 34 -5 68q0 61 17 120l22 72q13 35 38 60q23 26 60 38q25 8 50 9q35 0 70 -17q57 -27 78 -90l12 -36l10 -36q17 -60 18 -120q0 -34 -6 -68q-9 -41 -32 -72t-60 -50l26 -552v-8q0 -43 -28 -74l-8 -8 q-36 -30 -77 -30h-7q-50 3 -82 38q-30 33 -30 76v8l26 548q-39 22 -60 52q-23 31 -32 72zM1166 1182q7 -30 24 -50q20 -23 46 -32q22 -9 22 -34l-26 -574q-3 -15 14 -32q16 -16 34 -16q19 0 38 16q10 13 10 30l-26 576q0 25 22 34q26 9 46 32q17 20 24 50q6 28 6 58 q0 48 -16 98l-20 72q-14 36 -52 52q-17 6 -33 6q-18 0 -35 -8q-32 -14 -48 -50l-20 -72q-16 -50 -15 -98q-1 -30 5 -58zM1448 566q0 12 10 22q171 177 180 410v25q0 215 -144 397q-10 14 -8 26q3 13 12 22q14 10 26 8q13 -3 22 -12q161 -200 160 -435v-33 q-12 -259 -200 -456q-10 -10 -24 -10q-15 0 -24 12q-10 10 -10 24z" />
<glyph unicode="a" d="M0 222v1160q0 16 10 26q8 8 24 8t24 -8q10 -10 10 -26v-546h188h188q27 0 48 -18q20 -20 20 -50v-34q-3 -38 -34 -58v-454q0 -14 -10 -24t-24 -10t-24 10t-10 24v68h-342v-68q0 -14 -10 -24t-24 -10t-24 10t-10 24zM68 358h170h172v308h-342v-308zM68 734h188h188v34 h-376v-34zM546 358v752q0 14 10 24t24 10h102q3 15 12 24q10 10 22 10v40q-31 12 -48 38t-20 58v68q0 16 10 26q8 8 24 8h138q16 0 24 -8q6 -6 10 -26v-68q-3 -32 -20 -58t-48 -38v-40q14 0 24 -10q6 -6 10 -24h136q0 14 10 24t24 10v308h-136q-14 0 -24 10t-10 24v170 q0 14 10 24t24 10t24 -10t10 -24v-136h102v136q0 14 10 24t24 10t24 -10t10 -24v-136h102v136q0 14 10 24t26 10q14 0 24 -10q8 -8 8 -24v-170q0 -16 -8 -24q-10 -10 -26 -10h-136v-308q14 0 24 -10t10 -24h136q3 15 12 24q10 10 22 10v40q-31 12 -48 38t-20 58v68 q4 17 12 26q8 8 22 8h138q16 0 24 -8q10 -10 10 -26v-68q-3 -32 -20 -58t-48 -38v-40q14 0 24 -10q6 -6 10 -24h50h52q14 0 24 -10t10 -24v-752q0 -8 -2 -12q-6 -15 -18 -18q-14 -6 -28 0l-20 8v-114q0 -14 -10 -24t-24 -10t-24 10t-10 24v112q-14 -3 -27 -3q-22 0 -43 9 q-18 9 -36 0q-22 -9 -45 -9l-45 9q-20 9 -38 0q-22 -9 -45 -9l-45 9q-18 9 -36 0q-22 -9 -45 -9l-45 9q-18 9 -38 0q-22 -9 -45 -9l-45 9q-18 9 -36 0q-21 -9 -43 -9q-13 0 -27 3v-112q0 -16 -8 -24q-10 -10 -24 -10q-16 0 -26 10t-10 24v114l-20 -8q-8 -4 -14 -4 q-14 0 -24 10t-10 24zM614 408q17 4 33 4q22 0 41 -8q20 -9 38 0q22 9 45 9l45 -9q18 -9 36 0q22 9 45 9l45 -9q18 -9 38 0q22 9 45 9l45 -9q18 -9 36 0q22 9 45 9l45 -9q18 -9 36 0q22 9 45 9l45 -9q18 -9 38 0q19 8 41 8q16 0 33 -4v668h-820v-668zM716 1314q3 -15 12 -24 q10 -10 24 -10t24 10q6 6 10 24v34h-36h-34v-34zM820 1792v34q0 14 10 24t24 10t24 -10t10 -24v-34q0 -14 -10 -24t-24 -10t-24 10t-10 24zM990 1792v34q0 14 10 24t24 10t24 -10t10 -24v-34q0 -14 -10 -24t-24 -10t-24 10t-10 24zM1160 1792v34q0 14 10 24t24 10 q16 0 26 -10q8 -8 8 -24v-34q0 -16 -8 -24q-10 -10 -24 -10q-16 0 -26 10t-10 24zM1262 1314q3 -15 12 -24q10 -10 24 -10t24 10q6 6 10 24v34h-34h-36v-34zM1536 734v34q0 30 20 50q21 18 48 18h376v546q0 16 10 26q8 8 24 8t24 -8q10 -10 10 -26v-1160q0 -14 -10 -24 t-24 -10t-24 10t-10 24v68h-342v-68q0 -14 -10 -24t-24 -10t-24 10t-10 24v454q-31 20 -34 58zM1604 734h188h188v34h-376v-34zM1638 358h172h170v308h-342v-308z" />
<glyph unicode="b" d="M476 1440l124 -1372q0 -28 20 -48q17 -20 48 -20h714q28 0 48 20t20 48l124 1372q0 27 -18 48q-20 20 -50 20h-278l64 328l246 124l22 88l-330 -170l-72 -370h-614q-31 0 -48 -20q-20 -20 -20 -48zM544 1440h600l-86 -414h-412l78 -888h602l76 888h-136h-138l86 414h292 l-124 -1372h-714z" />
<glyph unicode="c" d="M2 1100v4v10q0 54 60 120q66 72 258 134q152 48 352 72q12 77 60 146q44 59 44 132q0 72 -44 134q-11 14 -8 34q3 18 18 30q16 13 32 10q17 -3 32 -18q62 -86 62 -188q0 -104 -62 -190q-30 -40 -38 -80q55 6 164 10q16 71 58 128t42 130q0 72 -44 134v2q-11 14 -8 34 q3 18 18 30q18 11 34 8t30 -20q62 -86 62 -186q0 -104 -62 -190q-26 -36 -34 -68q52 0 160 -4q12 69 56 128t44 132q0 72 -44 134v2q-11 14 -8 34q3 18 18 30q18 11 34 8t30 -20q62 -86 62 -186q0 -104 -62 -190q-30 -40 -38 -80q127 -9 242 -30q105 -20 208 -52 q191 -62 260 -134q60 -69 60 -125v-5l-2 -4q0 -193 -76 -372q-79 -180 -224 -316q-143 -138 -330 -214q-184 -74 -392 -74q-211 0 -392 74q-188 76 -332 214q-146 137 -222 316q-78 177 -78 372zM94 1104q0 -41 54 -80q49 -41 146 -78q134 47 334 76q182 26 398 26t398 -26 q197 -28 332 -76q95 37 148 78q52 40 52 80q0 44 -66 92q-70 46 -188 84q-88 26 -196 48q-108 21 -228 30q9 -52 40 -94q13 -16 10 -34q-3 -21 -18 -30q-17 -10 -28 -10q-23 0 -38 18q-51 72 -60 156q-104 4 -160 4h-4q6 -56 42 -104q13 -16 10 -34q-3 -21 -18 -30 q-17 -10 -28 -10q-23 0 -38 18q-53 74 -62 160q-58 -2 -160 -10q9 -52 40 -94q13 -16 10 -34q-3 -21 -18 -30q-17 -10 -30 -10q-21 0 -36 18q-49 68 -58 140q-176 -20 -326 -68q-120 -39 -186 -84q-68 -47 -68 -92zM110 936q68 -311 320 -514q248 -200 594 -206 q350 6 598 206q250 201 318 514q-69 -51 -210 -96q-146 -46 -322 -70q-183 -24 -382 -24q-202 0 -382 24q-174 23 -322 70q-145 46 -212 96zM460 898q117 -28 266 -44q154 -16 300 -16q144 0 298 16q149 16 266 44q-141 31 -266 44q-134 14 -298 14q-166 0 -300 -14 q-125 -13 -266 -44z" />
<glyph unicode="d" d="M0 320v1024q3 109 76 182q71 71 180 74h384v256q3 55 38 90t90 38h512q55 -3 90 -38t38 -90v-256h192h192q108 -3 182 -74q71 -74 74 -182v-1024q-3 -109 -74 -180q-73 -73 -182 -76h-1536q-110 3 -180 76q-73 70 -76 180zM512 704h384v-384h256v384h192h192v256h-384 v384h-256v-384h-384v-256zM768 1600h512v256h-256h-256v-256z" />
<glyph unicode="e" d="M0 1024q9 -436 300 -724q288 -291 724 -300q435 9 726 300q289 289 298 724q-9 434 -298 726q-292 289 -726 298q-435 -9 -724 -298q-291 -291 -300 -726zM444 444l182 398q168 371 180 400l798 362l-362 -798zM922 1024q0 -45 30 -72q27 -30 72 -30q44 0 74 30 q28 28 28 72q0 43 -28 74q-31 28 -74 28q-44 0 -72 -28q-30 -30 -30 -74z" />
<glyph unicode="f" d="M138 1002v9q0 107 68 181q68 77 180 86q-10 34 -10 71q0 16 2 33q15 108 96 174q71 55 163 55q13 0 27 -1l14 -2q-28 65 -28 132q3 131 90 218t216 90h102q13 0 24 -8q10 -10 12 -22q0 -15 -8 -26q-17 -21 -20 -40q-3 -14 -3 -26q0 -29 15 -52q22 -37 64 -46l114 -26 q65 -16 104 -66q40 -52 40 -116q0 -47 -22 -88l104 -12q83 -12 138 -70q51 -60 54 -144q-3 -69 -42 -126l86 -6q75 -9 128 -56q52 -49 64 -124q2 -17 2 -33q0 -68 -40 -123q-51 -69 -140 -84l-232 -730q-9 -21 -32 -24h-888q-23 3 -32 24l-236 742q-76 27 -122 92 q-49 64 -52 144zM206 1014q3 -84 58 -136q52 -55 136 -58h1300q60 0 98 38q38 35 44 92v10q0 55 -32 96q-38 41 -98 50l-1168 88l6 68l992 -74q33 23 46 52q16 32 16 66q0 59 -36 98t-94 48l-146 16l-476 34l4 68l442 -32q22 22 32 58q2 13 2 25q0 34 -18 63q-26 38 -74 50 l-126 30q-67 23 -100 86q-20 37 -20 77q0 26 8 53h-46q-86 -3 -152 -54q-75 -69 -84 -162q-1 -12 -1 -25q0 -82 53 -151q14 -16 4 -36q-12 -21 -34 -18l-84 8q-11 1 -21 1q-49 0 -95 -23q-69 -42 -90 -116q-7 -26 -7 -52q0 -47 25 -94q8 -17 -2 -34q-13 -19 -32 -16l-36 2 q-77 -3 -132 -52q-31 -28 -46 -64q-16 -42 -16 -80zM342 1024v34v34h68v-68h-68zM388 750l110 -340q93 -300 108 -342h140l-92 682h-266zM512 888v34v34h68v-68h-68zM580 1332v34v34h70v-68h-70zM722 750l94 -682h86h88v682h-268zM786 1740v34v36h68v-70h-68zM820 1024v34 v34h68v-68h-68zM990 1638v34v34h68v-68h-68zM1058 68h142l124 682h-266v-340v-342zM1092 1366v34v34h70v-68h-70zM1162 922v34v34h68v-68h-68zM1270 68h86h88l216 682h-266zM1400 1262v36v34h68v-70h-68zM1604 990v34v34h70v-68h-70z" />
<glyph unicode="g" d="M224 1660l734 -638v-826l-404 -196h948l-404 196v826l362 318q90 79 177 155.5t131 115.5t56 49h-398l204 354l-60 34l-224 -388h-1122zM394 1594l912 -2l-82 -142h-670l-80 72q-20 18 -39 35t-29 26t-12 11zM1024 1246q0 30 22 52q20 20 52 20t52 -20t20 -52t-20 -52 q-22 -22 -52 -22t-52 22t-22 52zM1304 1450l84 142l132 2h134l-160 -144h-190z" />
<glyph unicode="h" d="M512 1024v384h256v192q3 189 132 318q127 127 316 130h320v-384h-160h-160q-26 0 -44 -18q-20 -20 -20 -46v-192h384l-64 -384h-320v-1024h-384v1024h-256z" />
<glyph unicode="i" d="M0 1024q0 224 2 274q4 100 6 148q3 92 16 142q13 62 32 108q17 46 46 94q26 43 72 86q44 44 86 72q49 30 94 48q48 18 108 30q66 13 142 16q48 2 148 6h274h274q100 -4 148 -6q74 -3 140 -16q63 -13 110 -32q52 -23 94 -48q40 -24 86 -70t70 -86q25 -42 48 -94 q18 -52 30 -110q13 -66 16 -140q2 -48 6 -148v-274v-274q-4 -100 -6 -148q-3 -76 -16 -142q-12 -60 -30 -108q-18 -45 -48 -94q-28 -42 -72 -86q-46 -46 -86 -70q-46 -31 -92 -48q-47 -19 -110 -32q-66 -13 -142 -16q-96 -4 -146 -4q-50 -2 -274 -2q-226 0 -276 2 q-52 0 -148 4q-74 3 -140 16q-64 13 -108 32q-47 16 -94 48q-40 24 -86 70q-46 43 -72 86q-31 52 -46 94q-19 47 -32 110q-13 48 -16 140q-2 48 -6 148q-2 50 -2 274zM186 1026q0 -220 2 -270q0 -50 4 -146q2 -60 14 -118q8 -41 22 -72q20 -44 32 -62q20 -30 44 -54 q30 -30 54 -46q21 -14 64 -32q42 -14 72 -20q58 -12 116 -14q96 -4 146 -4q50 -2 270 -2q218 0 268 2q48 0 148 4q61 3 118 14q25 5 70 20q44 20 62 32q30 20 56 46q24 24 44 54q12 18 32 62q14 42 20 72q12 58 14 118q4 96 6 146v270v268q-2 50 -6 146q-3 61 -14 118 q-5 25 -20 70q-18 43 -32 64q-20 30 -44 54q-20 20 -56 44q-21 14 -64 32q-33 15 -70 22q-58 12 -116 14q-25 1 -74 3t-74 3h-268h-270q-50 -2 -146 -6q-58 -2 -116 -14q-41 -8 -72 -22q-43 -18 -64 -32q-30 -20 -54 -44t-44 -54q-19 -24 -32 -64q-15 -33 -22 -70 q-11 -57 -14 -118q-4 -96 -4 -146q-2 -50 -2 -268zM500 1024q3 224 154 372q148 148 372 154q221 -6 372 -154q148 -148 154 -372q-6 -224 -154 -372q-151 -148 -372 -154q-224 6 -372 154q-151 148 -154 372zM684 1024q3 -145 100 -242t242 -100q143 3 240 100t100 242 q-3 142 -100 242q-97 97 -240 100q-145 -3 -242 -100q-97 -100 -100 -242zM1450 1570q0 -53 36 -86q34 -34 86 -34q51 0 88 34q34 34 34 86q0 51 -34 88q-37 34 -88 34q-52 0 -86 -34q-36 -36 -36 -88z" />
<glyph unicode="j" d="M0 382q51 -6 100 -6q147 0 282 48q132 45 240 132q-139 3 -244 84q-107 83 -148 208q35 -8 80 -8q60 0 110 14q-148 33 -240 146q-95 113 -98 266v6q89 -49 192 -52q-83 54 -136 148q-49 86 -52 202q3 120 58 210q155 -191 380 -308q218 -115 486 -130q-12 45 -12 94 q3 180 124 298q119 119 296 122q90 0 170 -34q81 -38 136 -98q144 29 268 102q-24 -75 -72 -132q-50 -62 -114 -100q128 15 242 66q-86 -127 -210 -218q2 -18 2 -54q-3 -439 -308 -804q-306 -369 -888 -390q-181 0 -340 50q-161 47 -304 138z" />
<glyph unicode="k" d="M2 628q0 16 12 28q9 12 28 12q16 0 28 -12q9 -12 12 -28q0 -35 24 -56q21 -24 56 -24q34 0 58 24q22 22 22 56h80q3 -35 24 -56q21 -24 56 -24q34 0 58 24q22 22 22 56h82q0 -35 24 -56q21 -24 56 -24t56 24q21 21 24 56h80q3 -35 24 -56q21 -24 56 -24q34 0 58 24 q22 22 22 56h82q0 -35 24 -56q21 -24 56 -24t56 24q21 21 24 56h80q0 -35 24 -56q21 -24 56 -24q34 0 58 24q22 22 22 56h80q3 -36 26 -56q21 -24 56 -24t56 24q21 21 24 56h80q0 -35 24 -56q21 -24 56 -24q34 0 58 24q22 22 22 56q0 16 12 28t28 12q18 0 30 -12 q10 -13 10 -28q0 -68 -46 -114q-45 -45 -114 -48q-34 0 -66 16q-35 16 -54 40q-18 -23 -52 -40q-35 -16 -68 -16q-34 0 -66 16q-34 16 -56 40q-18 -23 -52 -40q-35 -16 -68 -16q-34 0 -66 16q-35 16 -54 40q-18 -23 -52 -40q-35 -16 -68 -16q-34 0 -66 16q-34 16 -56 40 q-18 -23 -52 -40q-35 -16 -68 -16q-34 0 -66 16q-35 16 -54 40q-18 -23 -52 -40q-35 -16 -68 -16q-34 0 -66 16q-35 16 -54 40q-21 -23 -54 -40q-35 -16 -68 -16q-34 0 -66 16q-35 16 -54 40q-18 -23 -52 -40q-35 -16 -68 -16q-69 3 -114 48q-46 46 -46 114zM2 864 q0 61 42 106t118 66v132q0 6 2 10l2 4q4 8 8 10l842 844q15 12 30 12q16 0 28 -12l842 -844q4 -2 8 -10l2 -4l2 -10v-100v-98q57 -21 90 -54q30 -33 30 -72q-3 -81 -100 -120q-96 -42 -220 -42q-71 0 -138 16q-72 17 -110 40q-39 -23 -102 -40q-64 -16 -132 -16 q-67 0 -134 16q-54 13 -106 44q-52 -31 -106 -44q-67 -16 -136 -16q-65 0 -118 14q-53 11 -102 34q-87 -45 -222 -48q-145 3 -228 52q-89 50 -92 130zM82 864q0 -32 64 -66q63 -33 176 -36q75 3 118 16q50 12 82 32l20 16l8 8l10 14q1 3 2 8t2 8q0 5 -6 14l-2 6h-354 q-19 0 -28 12q-12 9 -12 28v26q-41 -15 -60 -40q-20 -23 -20 -46zM162 40v322q0 16 12 28q9 12 28 12h844h842q18 0 30 -12q10 -13 10 -28v-322q0 -15 -10 -28q-12 -12 -30 -12h-1686q-19 0 -28 12q-12 12 -12 28zM242 80h804h802v242h-1606v-242zM242 1004l2 -14 q0 -14 2 -18q2 -2 10 -4q16 -4 46 -4h1212h2h332v160h-1606v-120zM298 1204h1494l-374 374q-342 342 -372 374zM322 160q0 23 22 36q20 9 40 0q18 -12 18 -34q0 -25 -20 -36q-20 -12 -38 0q-19 8 -22 34zM604 1326q0 23 20 34q20 9 40 0q18 -9 18 -34t-20 -34q-20 -12 -38 0 q-20 9 -20 34zM614 786q69 -22 148 -22q81 0 138 18q58 18 84 44l6 8q4 2 8 10l4 4q2 6 2 16q0 2 -4 14l-2 6h-356q2 -6 2 -20t-2 -20v-2l-6 -18q-10 -24 -22 -38zM644 240q0 25 20 36q20 9 40 0q17 -11 20 -34q0 -25 -20 -34q-22 -12 -40 0q-20 9 -20 32zM884 1406 q3 23 22 34t40 2q18 -12 18 -36q0 -25 -20 -34q-20 -12 -38 0q-19 8 -22 34zM964 1686q3 25 22 36q20 9 40 0q18 -12 18 -34q0 -25 -20 -36q-20 -12 -38 0q-19 8 -22 34zM1004 160q3 25 22 36q20 9 40 0q18 -12 18 -34q0 -25 -20 -36q-20 -12 -38 0q-19 8 -22 34zM1066 800 q30 -16 82 -26q44 -9 98 -12q79 3 122 16q58 17 82 34l2 2q6 4 16 14l14 20q4 12 4 16q0 8 -2 12l-4 8h-396q2 -6 2 -20q0 -12 -2 -18l-4 -18l-6 -14l-8 -12v-2zM1126 1446q0 23 20 34q19 11 40 2q18 -12 18 -36q0 -25 -20 -34q-20 -12 -38 0q-20 9 -20 34zM1286 240 q0 23 22 36q20 9 40 0q18 -12 18 -34q0 -25 -20 -34q-22 -12 -40 0q-17 8 -20 32zM1406 1326q3 23 22 34q20 9 40 0q18 -9 18 -34t-20 -34q-20 -12 -38 0q-19 8 -22 34zM1544 794q27 -11 84 -22q31 -6 100 -10q108 3 176 32q64 27 64 50q3 13 -40 40h-362q2 -6 2 -18 q0 -14 -2 -20l-4 -16l-8 -18zM1608 160q0 25 20 36q20 9 40 0q18 -12 18 -34q0 -25 -20 -36q-20 -12 -38 0q-20 9 -20 34z" />
<glyph unicode="l" d="M2 422l136 876q-47 27 -74 74q-20 34 -20 75q0 14 2 29l36 296q4 19 16 26q14 11 28 8q18 -4 26 -14q10 -18 8 -30l-36 -296v-10q0 -32 16 -54q19 -29 50 -40l28 -2l48 390q4 18 14 26q14 11 30 8q18 -4 26 -14q10 -18 8 -30l-48 -390l28 -4q32 3 60 28q25 22 28 56 l36 296q3 18 16 28q14 11 30 8q18 -4 26 -14q10 -17 8 -32l-36 -296q-9 -58 -44 -96q-37 -40 -88 -52l-82 -882q-6 -58 -50 -96q-37 -29 -88 -32l-18 2q-59 9 -92 54q-30 37 -30 82q0 11 2 22zM80 410q-3 -21 14 -44q14 -19 38 -22q25 -3 46 12q19 16 22 40l78 876l-62 8z M420 968q6 256 178 428q169 169 428 178q259 -9 428 -178t178 -428q-9 -259 -178 -428q-172 -172 -428 -178q-256 6 -428 178t-178 428zM500 968q3 -224 154 -372q148 -151 372 -154q221 3 372 154q148 148 154 372q-6 221 -154 372q-151 148 -372 154q-224 -6 -372 -154 q-151 -151 -154 -372zM616 968q6 172 122 288q114 117 288 120q31 0 64 -6q18 -4 26 -14q9 -15 6 -30v-4q-2 -12 -16 -22q-14 -11 -28 -8q-36 4 -52 4q-139 -3 -232 -96q-95 -95 -98 -232q3 -137 98 -232t232 -98q137 3 232 98q93 93 96 232q0 82 -40 156q-8 12 -4 30 q3 15 18 24h2q12 8 30 4q14 -3 24 -20q50 -88 50 -194q-3 -174 -120 -288q-116 -116 -288 -122q-175 6 -288 122q-116 113 -122 288zM1212 1274l2 10l6 12l4 6l6 4l8 4l6 2q8 3 16 0l8 -2l6 -4l6 -4q12 -12 12 -28v-8l-2 -8l-4 -6l-6 -6l-6 -6l-6 -4l-8 -2h-8h-8l-6 2l-8 4 l-6 6l-4 6l-4 6l-2 8zM1612 1700q-3 30 12 54q11 22 40 38q25 11 54 8q23 -5 46 -28l4 -4q51 -58 80 -108q55 -95 70 -208l64 -530q16 -131 31 -257t23 -189.5t10 -81.5q3 -33 -6 -60l-4 -12l-6 -12q-14 -25 -42 -44q-29 -19 -60 -22l-16 -2q-48 0 -84 30q-39 30 -48 76z M1692 1710l104 -846l110 14l-68 564q-12 94 -60 178q-21 40 -68 94l-4 4l-6 2l-4 -2zM1806 786l50 -414q3 -22 22 -38q18 -15 40 -12q34 6 46 36q7 13 4 26l-52 414z" />
<glyph unicode="m" d="M0 412q0 16 10 26q6 6 24 10h360q-136 70 -214 198q-78 126 -78 278q9 256 176 432q163 175 404 184h206q203 -3 376 -88l78 78q28 28 70 44q26 8 54 8q14 0 28 -2l52 52q10 10 0 20q-38 38 -38 92q0 52 40 92q38 38 90 38q54 0 92 -38l6 -6q38 -38 38 -92v-28h30 q54 0 92 -38l6 -6q38 -38 38 -92t-38 -92q-40 -40 -92 -40q-54 0 -94 40l-2 2q-10 6 -18 -2l-52 -54q2 -14 2 -28q0 -28 -8 -54q-16 -42 -44 -70l-48 -48q94 -118 144 -254q50 -135 50 -288q0 -69 -30 -132q-28 -60 -84 -106h194h194q18 -4 24 -10q10 -10 10 -26 q-3 -101 -70 -168t-168 -70h-1572q-101 3 -168 70t-70 168zM72 378q15 -60 60 -96q43 -37 106 -40h786h786q65 3 108 40q42 34 58 96h-1904zM170 924q6 -207 148 -340t364 -136h752q103 3 170 70q65 65 68 168q0 133 -42 256q-40 117 -124 226l-2 -12q-2 -6 -2 -18v-128 q-3 -165 -114 -276q-113 -113 -278 -116h-34q-165 3 -278 116t-116 276q3 165 116 278q111 111 278 114h92q14 0 20 2l10 4q-142 61 -310 64h-206q-210 -9 -356 -164q-147 -159 -156 -384zM750 1010q3 -138 96 -228q93 -93 230 -96h34q137 3 230 96q91 91 94 228v128 q0 63 40 112l26 32l2 -2l44 44q32 32 32 78t-32 78q-31 31 -78 34q-46 0 -78 -32l-64 -64h2l-36 -34h-2q-50 -47 -122 -50h-92q-139 -3 -230 -94q-93 -93 -96 -230zM1564 1554q33 -21 54 -54l30 30q27 24 60 24q32 0 56 -24q21 -18 44 -18t44 18q17 17 20 44q0 23 -18 44 l-6 6q-21 18 -44 18h-98v96q0 26 -18 44l-6 6q-18 18 -42 18t-42 -18q-20 -17 -20 -42q-3 -24 16 -46q24 -27 24 -58q0 -34 -24 -58z" />
<glyph unicode="n" d="M0 120v1050q0 43 22 90l58 118v150q3 51 36 84t84 36h100l72 368q3 14 16 24q8 8 24 8h80q15 0 26 -8q12 -12 14 -24l72 -368h100q51 -3 84 -36t36 -84v-150l30 -60q23 -44 28 -58q22 -44 22 -90v-1050q-3 -51 -36 -84t-84 -36h-664q-51 3 -84 36t-36 84zM80 120 q0 -16 12 -28t28 -12h664q16 0 28 12t12 28v40h-744v-40zM80 240h372h372v928h-744v-928zM104 1248h696l-40 80h-308h-308zM160 464v480q0 16 12 28t28 12h252h252q16 0 28 -12t12 -28v-480q0 -16 -12 -28t-28 -12h-504q-16 0 -28 12t-12 28zM160 1408h92v160h-52 q-16 0 -28 -12t-12 -28v-120zM240 504h424v160h-132q-16 0 -28 12t-12 28t12 28t28 12h66h66v160h-424v-400zM332 704q0 16 12 28t28 12t28 -12t12 -28t-12 -28t-28 -12t-28 12t-12 28zM332 1408h80v160h-80v-160zM380 1648h144l-64 320h-8h-8zM492 1408h80v160h-80v-160z M652 1408h92v120q0 16 -12 28t-28 12h-26h-26v-160zM1144 120v1050q0 43 22 90l70 120v148q3 51 36 84t84 36h86l62 366q3 16 16 26q8 8 24 8h80q15 0 26 -8q9 -9 12 -24l86 -368h88q51 -3 84 -36t36 -84v-148l70 -118v-2q22 -44 22 -90v-1050q-3 -51 -36 -84t-84 -36h-664 q-51 3 -84 36t-36 84zM1224 120q0 -16 12 -28t28 -12h664q16 0 28 12t12 28v40h-744v-40zM1224 240h372h372v928h-744v-928zM1252 1248h688l-46 80h-298h-298zM1316 464v480q0 16 12 28t28 12h240h240q16 0 28 -12t12 -28v-480q0 -16 -12 -28t-28 -12h-480q-16 0 -28 12 t-12 28zM1316 1408h80v160h-40q-16 0 -28 -12t-12 -28v-120zM1396 504h400v160h-120q-16 0 -28 12t-12 28t12 28t28 12h60h60v160h-400v-400zM1476 704q0 16 12 28t28 12t28 -12t12 -28t-12 -28t-28 -12t-28 12t-12 28zM1476 1408h80v160h-40h-40v-160zM1524 1648h142 l-74 320h-8h-6zM1636 1408h80v160h-80v-160zM1796 1408h80v120q0 16 -12 28t-28 12h-20h-20v-160z" />
<glyph unicode="o" d="M0 374h238q15 146 120 242q106 97 254 100h70q14 0 24 -10t10 -24t-10 -24t-24 -10h-70q-120 -3 -206 -80q-85 -76 -100 -194h34q15 99 92 170q76 67 180 70h138q18 -4 24 -10q10 -10 10 -24t-10 -24q-9 -9 -24 -12h-138q-78 0 -132 -48q-55 -46 -70 -122h34q15 59 60 98 q44 38 108 38h172q14 0 24 -10t10 -24t-10 -24t-24 -10h-172q-34 0 -58 -18q-26 -20 -38 -50h62q0 14 10 24t24 10h172q14 0 24 -10t10 -24h34q-9 410 -270 410h-4q-14 0 -24 -10t-10 -24t-10 -24t-24 -10t-24 10t-10 24q0 44 30 74q27 27 72 30h14q114 0 212 -92 q104 -98 116 -388h34v12q0 147 -70 312q-75 175 -306 190q-73 -3 -120 -50q-49 -49 -52 -122v-34q0 -16 -8 -24q-10 -10 -24 -10q-16 0 -26 10t-10 24v34q3 103 70 170t170 70q205 -3 320 -154q117 -153 126 -428h34q-3 239 -114 422q-112 185 -366 194h-34 q-117 -3 -194 -80t-80 -194v-172q0 -14 -10 -24t-24 -10t-24 10t-10 24v172q3 147 100 244q95 95 242 98h34h15q195 0 353 -152q162 -159 180 -532h36q0 14 10 24t24 10h170q16 0 26 -10q6 -7 10 -24h62q-12 30 -38 50q-27 18 -60 18h-170q-14 0 -24 10t-10 24t10 24t24 10 h170q66 0 110 -38q46 -40 58 -98h36q-15 76 -70 122q-57 48 -134 48h-204q-15 3 -24 12q-10 10 -10 24t10 24q6 6 24 10h204q108 -3 184 -70q73 -67 88 -170h36q-15 118 -100 194q-89 77 -208 80h-240q-14 0 -24 10t-10 24t10 24t24 10h240q150 -3 256 -100 q105 -96 120 -242h306l-104 -158q-38 -55 -96 -86q-57 -30 -124 -30h-1400q-67 0 -124 30q-58 31 -96 86zM128 304l34 -50q29 -41 70 -62q42 -24 92 -24h1400q50 0 92 24q41 21 70 62l34 50h-1792zM134 1642q0 14 10 24t22 10h138v34h-138q-12 0 -22 10t-10 26q0 14 10 24 q8 8 22 8h138v36h-138q-12 0 -22 10t-10 24t10 24t22 10h138v34q0 14 10 24t24 10t24 -10t10 -24v-388q0 -12 -10 -22t-24 -10t-24 10t-10 22v80h-138q-12 0 -22 10t-10 24zM304 1094v342q0 14 10 24t24 10t24 -10t10 -24v-342q0 -14 -10 -24t-24 -10t-24 10t-10 24z M406 1128v342q3 15 12 24q10 10 24 10t24 -10t10 -24v-342q0 -14 -10 -24t-24 -10t-24 10q-9 9 -12 24zM406 1574v342q3 15 12 24q10 10 24 10t24 -10t10 -24v-342q0 -14 -10 -24q-9 -9 -24 -12q-15 3 -24 12t-12 24zM510 1574v342q0 14 10 24t24 10t24 -10t10 -24h172 q42 0 78 -18q37 -23 58 -50h960q44 -3 74 -30q28 -31 28 -74q0 -44 -28 -72q-30 -30 -74 -30h-960q-22 -30 -58 -50q-36 -18 -78 -18h-172q0 -14 -10 -24q-9 -9 -24 -12q-15 3 -24 12q-10 10 -10 24zM578 1642h172q54 3 84 42l4 10q8 16 10 24l2 2q2 8 2 26q0 16 -2 24l-2 2 q-2 8 -10 24l-4 8q-29 41 -84 44h-172v-70h138q16 0 24 -8q10 -10 10 -24q0 -16 -10 -26t-24 -10h-138v-68zM784 1058q3 75 50 122t122 50h68q189 -3 316 -130q124 -127 130 -316q0 -14 -10 -24t-24 -10t-24 10t-10 24q-3 158 -110 268q-110 107 -268 110h-68 q-45 -3 -72 -30q-29 -29 -32 -74q0 -12 -10 -22t-24 -10t-24 10t-10 22zM886 990q3 59 42 98q37 37 96 40q144 -3 244 -100q95 -98 98 -244q0 -16 -8 -24q-10 -10 -26 -10q-14 0 -24 10t-10 24q-3 119 -80 196q-78 75 -194 78q-30 0 -48 -18q-20 -20 -20 -50q0 -14 -10 -24 t-24 -10t-24 10q-9 9 -12 24zM918 1710h928q16 0 26 10q8 8 8 26q0 16 -8 24t-26 8h-928q4 -20 4 -34t-4 -34zM990 888q0 14 10 24t24 10q61 -3 98 -40t40 -98q-4 -18 -10 -24q-10 -10 -24 -10q-16 0 -26 10t-10 24q0 29 -18 50q-20 17 -50 20q-14 0 -24 10t-10 24zM990 990 q0 14 10 24t24 10q103 -3 170 -70t70 -170q0 -14 -10 -24t-24 -10t-24 10t-10 24q-3 75 -50 122q-50 47 -122 50q-14 0 -24 10t-10 24z" />
<glyph unicode="p" d="M2 44l66 272q2 12 16 22q13 7 26 4q12 -2 22 -16q5 -10 2 -26l-50 -210l284 108q-80 71 -124 162q-48 98 -56 196l-16 192q-3 15 8 26q9 10 22 12h2q16 0 24 -8q9 -9 12 -24l16 -192q9 -98 54 -182q42 -80 122 -148l6 -8l400 152q-212 99 -358 274q-144 170 -208 400 q-8 34 -20 102q-3 14 6 26q10 10 22 12q14 3 26 -6q12 -12 14 -22q42 -260 204 -458q159 -197 406 -294l242 92q-56 20 -82 32q-224 118 -396 296q-193 193 -294 392q-55 109 -55 189q0 67 39 113q28 25 62 34q22 6 44 6q13 0 26 -2q12 -2 22 -12q8 -8 8 -24q-3 -15 -12 -24 q-11 -11 -24 -8q-11 2 -22 2q-31 0 -56 -20q-20 -23 -20 -61q0 -61 50 -163q76 -164 280 -374q165 -171 378 -282q75 -38 136 -44q15 -2 28 -2q35 0 56 18q18 18 18 55v11q-3 42 -24 106h-2q-3 16 2 26q6 12 20 18q14 3 26 0q12 -6 18 -20q30 -86 30 -138q0 -13 -2 -24 q-9 -56 -38 -82q-30 -30 -72 -36l-6 -4l-1262 -478q-6 -2 -22 2q-12 3 -20 14q-8 8 -4 26zM2 1888q-3 12 6 24q10 10 22 12l100 14l46 90q3 8 12 14q16 6 28 4q11 -3 20 -18l46 -90l100 -14q20 -3 26 -24q6 -20 -8 -34l-72 -72l16 -98q3 -11 -4 -24t-18 -16q-16 -3 -26 4 l-90 46l-90 -48q-13 -4 -22 -2q-14 3 -22 14q-9 9 -6 26l18 98l-72 72q-7 7 -10 22zM108 1866l36 -34q13 -16 10 -32l-8 -48l44 22q16 10 32 0l44 -22l-8 48q-3 19 10 32l36 34l-50 8q-17 3 -26 18l-22 44l-22 -44q-9 -15 -26 -18zM662 1106l50 118q57 138 72 286q3 41 3 81 q0 107 -23 211h-2q-3 16 6 28q12 12 22 14q14 3 26 -6q12 -12 14 -22q24 -115 24 -223q0 -45 -4 -89q-15 -162 -74 -306l-50 -118q-8 -19 -32 -22q-2 0 -14 4q-13 7 -16 18q-5 10 -2 26zM684 1980q0 37 36 58q17 11 34 11q16 0 32 -9q32 -20 32 -60q0 -39 -34 -58 q-16 -10 -33 -10l-33 10q-31 17 -34 58zM820 1060q0 15 12 24l340 306q13 10 26 10q13 -3 22 -12q10 -10 10 -24q-3 -15 -12 -24l-342 -306q-11 -11 -24 -8q-12 0 -22 10t-10 24zM958 1674q0 42 30 72q28 28 70 28q43 0 74 -28q28 -31 28 -72q0 -44 -28 -72q-30 -30 -72 -30 q-45 0 -72 30q-30 27 -30 72zM992 848q-3 14 6 26q7 11 22 14l120 20q94 16 186 16q54 0 108 -6q146 -15 284 -66q21 -9 24 -32q-4 -18 -10 -24q-10 -10 -24 -10l-12 2q-128 46 -268 62q-47 4 -96 4q-88 0 -180 -14l-122 -20q-15 -3 -24 6q-11 8 -14 22zM1026 1674 q0 -16 10 -26t22 -10q16 0 26 10q8 8 8 26q0 16 -8 24t-24 8t-24 -8q-10 -10 -10 -24zM1062 1010q-6 12 0 26q2 10 16 20l716 340q13 5 28 2q12 -3 18 -18q5 -13 2 -26q-3 -11 -18 -20l-716 -340q-13 -5 -26 -2q-14 3 -20 18zM1262 1468v172q3 15 12 24q7 7 22 10h86h86 q18 -4 24 -10q10 -10 10 -24v-172q0 -14 -10 -24t-24 -10h-172q-12 0 -22 10q-9 9 -12 24zM1330 1502h52h52v104h-104v-104zM1538 552q3 14 14 22q9 9 24 6q110 -19 194 -74q88 -57 148 -148l14 -20q84 -54 108 -142q7 -29 7 -58q0 -61 -31 -120v-2q-8 -11 -20 -14 q-16 -3 -26 4q-13 5 -16 20q-3 13 2 26q22 39 22 80v10q-3 50 -28 86q-3 -52 -22 -86q-28 -48 -82 -64q-19 -5 -38 -5q-33 0 -66 17q-48 25 -64 80q-6 21 -6 41q0 33 16 63q23 37 60 62q31 23 78 32q-50 56 -118 96q-63 34 -144 50q-12 3 -20 14q-9 9 -6 24zM1570 1912 q0 14 10 24t24 10h18h16q16 0 26 -10q8 -8 8 -24t-8 -24q-10 -10 -26 -10h-34q-14 0 -24 10t-10 24zM1672 1810v34q3 15 12 24q6 6 24 10q18 -4 24 -10t10 -24v-34q-4 -18 -10 -24q-10 -10 -24 -10t-24 10q-9 9 -12 24zM1672 1980v34q3 15 12 24q10 10 24 10t24 -10 q6 -6 10 -24v-34q-4 -18 -10 -24q-10 -10 -24 -10t-24 10q-9 9 -12 24zM1690 1486q0 14 10 24t24 10q12 0 22 -10l14 -12l12 -12q8 -8 8 -22t-10 -24q-9 -12 -22 -12t-26 10l-24 24q-8 8 -8 24zM1742 188q9 -26 34 -40q24 -15 50 -6q28 9 42 32q14 29 14 59v11q-3 39 -24 54 q-12 4 -18 4q-58 -9 -92 -62q-15 -26 -6 -52zM1742 1912q0 14 10 24t24 10h16h18q14 0 24 -10t10 -24t-10 -24t-24 -10h-34q-14 0 -24 10t-10 24zM1776 718q0 42 30 72q27 27 72 30q45 -3 72 -30q28 -31 28 -72q0 -44 -28 -72q-27 -30 -72 -30t-72 30q-30 27 -30 72z M1810 1194v36q0 14 10 24q6 6 24 10q18 -4 24 -10q10 -10 10 -24v-36q0 -12 -10 -22t-24 -10t-24 10t-10 22zM1810 1502v34q0 14 10 24t24 10t24 -10t10 -24v-34q0 -14 -10 -24t-24 -10t-24 10t-10 24zM1844 718q0 -14 10 -24t24 -10t24 10t10 24t-10 24t-24 10t-24 -10 t-10 -24zM1906 1270q0 12 10 22t24 10q16 0 24 -8l12 -12l12 -12q10 -13 10 -24q0 -14 -10 -24t-24 -10q-13 -3 -24 8l-24 24q-10 13 -10 26zM1906 1462q0 14 10 24l24 24q10 10 24 10t24 -10t10 -24t-10 -24l-24 -24q-10 -10 -24 -10t-24 10t-10 24zM1946 1366q0 14 10 24 t24 10h18h16q14 0 24 -10t10 -24t-10 -24t-24 -10h-34q-14 0 -24 10t-10 24z" />
<glyph unicode="q" d="M252 280q-6 14 -6 27q0 19 14 37l326 380h-162q-38 3 -52 34q-6 13 -6 26q0 19 12 38l318 382h-32q-38 3 -52 34q-7 14 -7 28q0 17 11 34l310 414q-37 24 -58 64q-21 39 -24 86q3 76 54 130q52 52 128 52t128 -52q50 -53 50 -130q0 -45 -22 -86q-21 -40 -58 -64l308 -414 q12 -19 12 -37q0 -13 -6 -25q-14 -31 -54 -34h-30l318 -382q12 -18 12 -36q0 -13 -6 -26q-15 -33 -54 -36h-160l164 -190q146 -174 162 -190q14 -18 14 -37q0 -13 -6 -27q-15 -33 -54 -36h-540v-184q0 -26 -16 -42q-18 -18 -44 -18h-240q-25 0 -40 18q-17 14 -20 42v184 h-540q-37 3 -52 36zM436 364h652q-113 54 -214 130q-108 82 -184 166l-128 -148q-85 -98 -126 -148zM554 844h230q162 3 276 102q113 98 140 254l-6 8q-108 15 -190 74q-83 59 -132 154l-2 2l-86 -114h40q40 -3 54 -34q6 -14 6 -28q0 -18 -12 -36l-160 -192 q-127 -148 -158 -190zM794 724q156 -168 372 -262q218 -95 448 -98l-326 380q-14 18 -14 37q0 13 6 27q15 33 54 36h162l-200 242q-57 -159 -192 -258q-134 -98 -310 -104zM844 1024q3 35 32 52q30 15 60 0q28 -16 28 -50q0 -37 -30 -52q-30 -18 -58 -2q-29 14 -32 52z M952 1546l28 -56q39 -77 110 -122q67 -44 158 -44h16l-120 160l-58.5 78t-43 57t-18.5 25zM964 120h60h60v124h-120v-124zM966 1864q0 -27 18 -42q15 -18 42 -18q24 0 42 18q16 16 16 42q0 24 -16 46q-18 18 -44 18q-25 0 -40 -18q-18 -21 -18 -46zM1084 664q3 35 32 52 q30 15 60 0q28 -16 28 -50q0 -37 -30 -52q-30 -18 -58 -2q-29 14 -32 52z" />
<glyph unicode="r" d="M0 624q3 53 36 86q31 31 84 34h40v132l-2 2q-23 19 -54 28q-40 10 -64 10q-16 0 -28 12t-12 28t12 28q9 12 28 12q25 0 58 -6q35 -6 62 -20v104q-36 14 -58 48q-16 26 -16 64v12q42 293 252 476q208 184 502 190h368q293 -6 504 -190q208 -184 250 -476v-12 q0 -38 -16 -64q-22 -34 -58 -48v-106q22 11 62 22q33 6 58 6q15 0 28 -10q12 -12 12 -28q0 -18 -10 -28q-11 -11 -30 -14q-23 0 -60 -10q-34 -9 -56 -28l-4 -6v-128h40q51 -3 84 -36t36 -84q-3 -45 -30 -78q-25 -30 -70 -40q8 -20 8 -42q0 -18 -6 -36q-39 -110 -132 -176 q-92 -65 -210 -68h-1168q-118 3 -210 68q-93 66 -132 176q-6 18 -6 36q0 21 8 42q-47 9 -72 40q-28 34 -28 78zM80 624q0 -16 12 -28t28 -12h904h904q16 0 28 12t12 28t-12 28t-28 12h-1808q-16 0 -28 -12t-12 -28zM166 1188q-3 -17 10 -30q11 -14 30 -14h1640q18 4 28 16 q11 14 8 28q-39 262 -224 426q-188 164 -450 170h-368q-263 -6 -448 -170q-187 -163 -226 -426zM174 454q32 -85 104 -136q69 -51 162 -54h1168q92 3 164 54q70 52 102 136q3 22 -8 36t-32 14h-1620q-21 0 -32 -14t-8 -36zM240 744h1568v42v42q-31 -11 -61 -11q-24 0 -47 7 q-51 11 -98 52q-46 40 -96 40t-94 -38q-66 -60 -146 -60t-146 60q-44 38 -94 38t-94 -38q-66 -60 -146 -60t-146 60q-44 38 -94 38t-94 -38q-66 -60 -146 -60q-29 0 -66 10v-84zM240 916q31 -19 65 -19q8 0 17 1q36 3 78 38q66 60 146 60t146 -60q44 -38 94 -38t94 38 q66 60 146 60t146 -60q44 -38 94 -38t94 38q66 60 146 60t146 -60q35 -32 78 -38q8 -1 16 -1q30 0 62 17v150h-1568v-148zM424 1344q0 16 12 28l80 80q12 12 28 12t28 -12t12 -28t-12 -28l-80 -80q-12 -12 -28 -12t-28 12t-12 28zM704 1504q0 16 12 28l80 80q12 12 28 12 t28 -12t12 -28t-12 -28l-80 -80q-12 -12 -28 -12t-28 12t-12 28zM904 1344q0 16 12 28l80 80q12 12 28 12t28 -12t12 -28t-12 -28l-80 -80q-12 -12 -28 -12t-28 12t-12 28zM1184 1504q0 16 12 28l80 80q12 12 28 12t28 -12t12 -28t-12 -28l-80 -80q-12 -12 -28 -12t-28 12 t-12 28zM1384 1344q0 16 12 28l80 80q12 12 28 12t28 -12t12 -28t-12 -28l-80 -80q-12 -12 -28 -12t-28 12t-12 28z" />
<glyph unicode="s" d="M0 1024q0 26 18 44t44 18h64v164q0 36 10 66q9 27 18 42q49 92 128 168q84 81 182 134q143 79 310 112q-22 41 -22 88q3 81 56 134q51 51 132 54h168q80 -3 134 -54q51 -54 54 -134q0 -47 -22 -88q167 -33 310 -112q95 -52 184 -134q78 -78 126 -168q15 -25 20 -40 q8 -24 8 -68v-164h32h32q26 0 44 -18t18 -44t-18 -44t-44 -18h-64v-564q-3 -114 -74 -188q-72 -75 -182 -84q-15 -59 -58 -90q-45 -33 -104 -36h-42q-57 3 -102 36t-60 90h-552q-15 -57 -60 -90t-102 -36h-42q-59 3 -104 36q-43 31 -58 90q-110 9 -182 84q-71 74 -74 188 v564h-64q-26 0 -44 18t-18 44zM250 398q3 -66 44 -104q38 -41 104 -44h40q28 0 46 -18q15 -18 18 -44v-20q0 -18 12 -30t30 -12h42q16 0 28 12t12 30v20q3 27 20 44q15 18 44 18h668q28 0 46 -18q15 -18 18 -44v-20q0 -18 12 -30t28 -12h42q18 0 30 12t12 30v20q3 27 20 44 q15 18 44 18h40q65 3 106 44q39 39 42 104v814h-460v-84q-3 -71 -48 -116q-47 -47 -120 -50h-292q-74 3 -118 50q-47 44 -50 116v84h-460v-814zM286 1338h1476q-104 152 -300 242q-193 89 -438 92q-245 -3 -438 -92q-196 -90 -300 -242zM836 1128q0 -19 12 -28 q11 -11 30 -14h292q19 3 30 14q12 9 12 28v42v42h-376v-84zM838 564q0 80 54 134q51 51 132 54q80 -3 134 -54q52 -55 52 -134q0 -80 -52 -132q-54 -54 -134 -54q-81 0 -132 54q-54 51 -54 132zM878 1860q0 -26 18 -44t44 -18h168q26 0 44 18t18 44t-18 44t-44 18h-84h-84 q-26 0 -44 -18t-18 -44zM962 564q0 -26 18 -44t44 -18t44 18t18 44t-18 44t-44 18t-44 -18t-18 -44z" />
<glyph unicode="t" d="M2 232q3 41 40 72v1188q0 8 2 14l102 234v166q0 16 10 26q6 6 24 10h622q20 -4 26 -10t10 -26v-166l100 -234q4 -12 4 -14v-830h68v310q0 16 10 26q6 6 24 10h970q18 -4 24 -10q10 -10 10 -26v-206q-3 -78 -50 -134q-48 -57 -124 -72q-9 -75 -44 -136q-35 -62 -94 -108 h312v-70h-152l-58 -118q-11 -20 -32 -20h-1696q-53 3 -86 42q-23 33 -23 67q0 8 1 15zM74 206q9 -28 36 -28h180l-38 190l-166 -118q-21 -18 -12 -44zM110 354l132 92q3 30 26 60q23 26 52 34l168 48q10 24 20 36q32 35 82 38h74v794h-276h-278v-1102zM128 1526h548l74 174 h-274h-274zM214 1768h554v104h-276h-278v-104zM250 730v36v34h276v-70h-276zM250 868v36v34h276v-70h-276zM250 1146q0 58 40 98q37 37 98 40q61 -3 98 -40q38 -38 38 -98t-38 -98q-40 -40 -98 -40t-98 40t-40 98zM310 428l26 -126q14 -74 24 -124h172l-46 338l-148 -42 q-12 -2 -22 -16q-9 -15 -6 -30zM320 1146q0 -31 20 -48q16 -19 48 -22q31 3 50 22q18 18 18 48q0 29 -18 50q-21 18 -50 18q-30 0 -48 -18q-20 -20 -20 -50zM550 546l26 -184q22 -173 24 -184h458l-34 68h-152v70h278q-67 52 -102 122q-38 70 -38 154h-424q-18 -3 -26 -14 q-10 -17 -10 -32zM734 662h138v398v396h-138v-794zM752 1526h50h52l-52 120zM1078 592q3 -115 82 -194q76 -79 196 -82h86h86q120 3 196 82q79 79 82 194v346h-728v-346zM1100 246l36 -68h648l18 34l18 34h-720zM1148 626v36h70v-36q3 -73 50 -120q46 -49 122 -52h34v-70 h-34q-101 3 -170 72t-72 170zM1148 730v36v34h70v-70h-70zM1148 1076q3 75 52 124q47 47 122 50h502q20 0 36 16q14 14 14 36t-14 36q-13 13 -36 16h-416q-52 0 -86 34t-34 86t34 86q33 33 86 36h156q44 0 74 30q27 30 30 74h68q-3 -75 -50 -122q-46 -49 -122 -52h-156 q-22 0 -36 -14q-16 -16 -16 -38q0 -20 16 -36t36 -16h208h208q50 0 84 -34q34 -37 34 -86q0 -52 -34 -86q-33 -33 -84 -36h-502q-44 0 -74 -30t-30 -74h-70zM1876 632q48 13 74 50q28 37 28 84v172h-52h-50v-306z" />
<glyph unicode="u" d="M2 1310q3 14 18 20l988 496q16 6 32 0l988 -496q10 -3 16 -16q5 -10 2 -26q-3 -14 -18 -20l-122 -62v-514q26 -10 40 -24q32 -32 32 -76q0 -42 -32 -74l64 -160q2 -4 2 -12q0 -16 -10 -26t-24 -10h-212q-6 0 -14 4q-15 3 -18 18q-5 10 -2 26l64 160q-14 17 -24 40 q-6 18 -6 35q0 22 10 45q18 39 60 54v480l-176 -88v-562q-6 -137 -184 -224q-179 -91 -452 -94q-273 3 -452 94q-178 87 -184 224v562l-368 184q-10 3 -16 16q-5 10 -2 26zM114 1300l910 -456l722 362l-556 56q-20 -32 -62 -50q-45 -18 -104 -18q-78 0 -126 30 q-48 27 -48 76q0 46 48 76q48 27 126 30q66 -3 106 -22q45 -21 62 -52l336 -34q327 -33 336 -34l70 36l-910 454zM360 268l28 22l28 22q25 -30 62 -54l-38 -58q-46 27 -80 68zM460 522q3 -94 154 -168q153 -75 410 -78q257 3 410 78q151 74 154 168v30q-83 -80 -226 -124 q-150 -46 -338 -46q-186 0 -336 46q-145 45 -228 124v-30zM460 698q3 -92 154 -166q157 -77 410 -80q253 3 410 80q151 74 154 166v350l-548 -274q-16 -10 -32 0l-548 274v-350zM514 158l30 64q219 -88 464 -88h16q128 0 242 20l10 -70q-117 -20 -252 -20h-30 q-246 0 -480 94zM918 1300q0 -8 28 -20q25 -14 78 -14q55 0 80 14q26 12 26 20t-26 22q-27 12 -80 12q-51 0 -78 -12q-28 -16 -28 -22zM1818 382h54h54l-44 106h-10h-12zM1836 594q0 -16 10 -26t26 -10q14 0 24 10t10 26q0 14 -10 24t-24 10q-16 0 -26 -10t-10 -24z" />
<glyph unicode="v" d="M0 848v354q-1 25 -1 49q0 104 11 193q9 102 64 172q49 66 166 100q111 30 310 30h948q193 0 304 -30t166 -94q53 -65 68 -170q12 -88 12 -203v-47v-354q0 -163 -28 -272q-27 -104 -88 -162q-63 -57 -164 -84q-101 -26 -270 -26h-948q-338 0 -450 136q-101 123 -101 367 q0 20 1 41zM788 810q3 -36 32 -56q17 -10 34 -10q19 0 32 8l214 112q49 26 103.5 54.5t78.5 41t32 16.5q34 22 34 60q0 37 -34 56l-428 224q-16 8 -32 8q-17 0 -32 -10q-31 -20 -34 -56v-448z" />
<glyph unicode="w" d="M2 1024v12q0 268 136 502q138 236 374 374q236 136 514 136q275 0 514 -136q235 -139 372 -374q136 -239 136 -514t-136 -514q-138 -237 -372 -372q-237 -138 -516 -138q-149 0 -290 42q76 119 104 220l72 280q27 -52 98 -90q67 -38 152 -38q160 0 288 92q127 94 196 252 q68 157 68 360q0 151 -78 286q-82 133 -230 216q-153 84 -340 84q-142 0 -262 -38q-117 -37 -206 -104q-81 -61 -144 -146q-62 -83 -90 -172q-30 -90 -30 -180q0 -139 54 -244q55 -106 156 -148q11 -4 20 -4q23 0 30 30l22 82q9 29 -14 58q-68 80 -68 200q0 202 140 348 q138 144 364 144q201 0 314 -110q112 -112 112 -284q0 -225 -90 -384q-94 -160 -236 -160q-78 0 -130 58q-36 40 -36 94q0 22 6 46q9 47 36 124q29 95 40 138q14 53 14 100q0 65 -36 110q-35 44 -102 44q-82 0 -140 -76t-58 -188q0 -96 34 -164l-132 -556q-18 -81 -18 -201 v-35q-274 120 -444 374q-168 251 -168 553v11z" />
<glyph unicode="x" d="M2 1512l2 16l4 6q16 22 62 22l292 2l24 -6q5 -2 11 -5.5t7 -4.5l4 -4q16 -11 26 -34q10 -25 50 -110q36 -76 42 -88l18 -30q33 -70 60 -110q24 -42 52 -74q15 -19 44 -40q22 -16 36 -16q13 0 28 6l6 4q8 10 14 24q8 18 14 50q1 9 4.5 37.5t5.5 48.5q2 28 2 62t-2 72 q-4 53 -10 78q-11 39 -16 48l-6 14q-28 37 -90 46q-15 3 6 24q15 18 40 32q55 26 219 26h35q91 0 144 -14q17 -2 36 -14q10 -6 22 -26q9 -15 12 -34q2 -12 2 -48l-4 -134v-88l-2 -44v-52q0 -10 4 -42q3 -27 12 -42q8 -17 24 -26l18 -6q10 -3 28 12q25 21 40 38q27 27 56 72 q33 48 72 114q63 111 114 240q3 9 12 18l10 12l10 6l14 2q14 3 22 0l306 2q19 3 35 3q21 0 35 -5q26 -9 32 -18l6 -10q3 -7 3 -17q0 -77 -163 -297l-70 -90q-79 -102 -96 -140q-6 -15 -6 -29q0 -28 22 -57q27 -32 86 -88l6 -4q151 -142 204 -236q4 -6 6 -12q7 -21 8 -28 q3 -22 0 -38q-6 -16 -28 -28q-20 -14 -62 -14l-274 -4q-27 -6 -60 6q-30 8 -54 22l-22 14q-26 17 -74 68q-41 41 -74 84q-25 30 -64 62q-35 23 -60 14l-10 -4q-8 -6 -16 -14q-16 -16 -24 -32q-9 -18 -18 -54q-8 -35 -8 -84q0 -20 -2 -28q-2 -10 -10 -22l-4 -4 q-18 -21 -56 -24h-122h-19q-66 0 -137 18q-72 19 -140 56q-49 27 -110 70q-48 34 -76 62l-26 26q-4 4 -28 32q-21 21 -78 96q-62 82 -112 162q-50 74 -130 224q-87 163 -140 290q-9 18 -6 30z" />
<glyph unicode="y" d="M124 748l26 12q244 132 368 198q122 64 366 196l26 12q152 -197 370 -230q46 -7 90 -7q166 0 310 97q184 133 232 340q14 63 14 124q0 144 -76 280q-119 192 -316 254q-79 25 -159 25q-122 0 -247 -57q-204 -102 -282 -312q-36 -98 -36 -193q0 -126 62 -247l-12 -10 q-136 -75 -714 -388l-8 -4l-10 -4q1 -12 1 -25q0 -29 -5 -61zM500 76h24h24h4v96q0 12 4 24q6 18 12 24q8 4 16 4q16 -5 22 -10l18 42q-12 6 -32 10q-15 0 -24 -6q-12 -8 -20 -24v24h-48v-184zM504 504v4h48v78l42 42l68 -120h68l-102 158l98 100h-68l-102 -116v110h-52 v-128v-128zM632 214l22 -4l22 -4q3 13 16 20q10 6 22 4q19 3 26 -4q5 -5 8 -20v-6q-17 -7 -46 -12q-23 -5 -40 -12q-14 -6 -20 -18q-8 -13 -8 -28q-2 -10 2 -22q2 -6 14 -18q21 -18 46 -18q15 0 30 6q12 2 26 16v-4l4 -14h48q-8 13 -8 26q-6 9 -6 34v56q0 33 -8 44 q-9 12 -22 20q-11 7 -46 10q-38 0 -56 -12q-18 -15 -26 -40zM680 132q0 13 8 18q9 5 28 10q21 6 28 6h4v-34q-7 -13 -12 -16q-13 -8 -26 -8t-22 6q-8 5 -8 18zM748 602q-3 -31 18 -46q6 -12 14 -20q5 -8 20 -14q20 -14 46 -14q42 0 68 26q26 23 26 68q0 41 -24 68 q-26 26 -70 26q-29 0 -52 -10q-19 -11 -32 -34q-14 -20 -14 -50zM800 598q0 28 14 42q11 14 32 14q20 0 34 -14t14 -42t-14 -42t-34 -14q-21 0 -32 14q-14 14 -14 42zM838 260h4v-260h48v94q11 -14 26 -20t28 -6q33 0 56 26q19 24 22 72q0 20 -4 44q-6 15 -18 30 q-23 26 -56 26q-23 -3 -34 -10q-18 -9 -26 -20v24h-22h-24zM876 1492q0 28 4 80q24 0 44 10q18 9 24 32t-4 42q-10 17 -34 32l104 154q45 -42 78 -84q33 -45 54 -96q29 -76 29 -150q0 -56 -17 -110q-39 -128 -154 -214l-10 -8q-8 -4 -16 4q-33 39 -58 104q-30 69 -36 122 q36 -9 68 -38q29 -32 62 -86q29 14 54 22q-56 133 -192 184zM884 170q0 33 14 44q12 12 30 12t30 -12t12 -44t-12 -44q-11 -14 -30 -14q-18 0 -30 12q-14 17 -14 46zM984 500h46v86q0 20 2 28l2 14q0 10 14 18q5 5 20 8q10 3 20 -4q8 -8 10 -12q3 -9 0 -40v-94h24h24h8v120 q0 14 -2 20t-2 14q-3 14 -8 22q-12 8 -20 12q-16 7 -32 4h-5q-30 0 -55 -30v26h-46v-192zM1030 1128q91 70 142 160q51 87 60 204q1 14 1 28q0 98 -37 182q-47 96 -132 170q96 85 234 106q39 6 77 6q88 0 169 -34q-143 -63 -222 -172q-78 -107 -78 -259v-11q3 -181 102 -292 q100 -112 270 -160q-94 -67 -239 -67q-17 0 -35 1q-168 9 -312 138zM1056 0h46v94q15 -15 28 -20q15 -6 28 -6q33 0 56 26q19 24 22 72q0 20 -4 44q-6 15 -18 30q-23 26 -56 26q-8 0 -14 -2q-8 -3 -16 -8q-18 -9 -26 -20v24h-22h-24v-260zM1108 170q0 32 12 44t30 12t30 -12 t12 -44t-12 -44q-11 -14 -30 -14q-18 0 -30 12q-12 18 -12 46zM1180 654h22v-116q0 -8 2 -12l2 -4q3 -6 18 -12q12 -6 24 -6q24 4 38 8l-4 40q-15 -6 -22 -4l-2 2l-6 4l-4 2v26v72h34v20v18h-30v68l-50 -30v-38h-22v-38zM1266 170q-3 -30 16 -46q6 -12 14 -20t20 -14 q20 -14 48 -14q42 0 68 26t26 68q0 43 -24 70q-26 26 -70 26q-31 0 -52 -12q-19 -11 -32 -34q-14 -20 -14 -50zM1296 1488v20q0 144 80 250q86 113 236 152q10 2 26 -4q123 -73 188 -218q-38 -12 -50 -32q-13 -19 -10 -48q9 -26 30 -32q18 -8 60 2q9 -48 9 -95 q0 -75 -23 -145q-9 -20 -30 -26q-60 -24 -115 -24q-70 0 -131 38q-115 70 -130 212v14h-64q3 -160 132 -262q68 -50 142 -62q32 -7 68 -7q41 0 86 9q-27 -29 -64 -80q-20 -26 -42 -32q-22 -5 -52 -2q-144 21 -240 126q-97 100 -106 246zM1316 170q0 27 14 44q15 12 34 12 q20 0 34 -14q12 -15 12 -40q0 -27 -12 -42q-14 -14 -34 -14t-34 14t-14 40zM1316 504h24h24h4v60q-1 15 -1 27q0 27 5 37q6 18 12 24q9 4 16 2q2 -1 6.5 -2t9 -2.5t8.5 -3.5l16 42q-9 5 -32 10q-15 0 -24 -6q-12 -8 -20 -26v26h-48v-188zM1444 602q0 -31 18 -46 q6 -12 14 -20t20 -14q20 -14 48 -14q42 0 68 26q26 23 26 68q0 42 -26 68t-68 26q-32 0 -52 -10q-16 -9 -34 -34q-14 -20 -14 -50zM1496 76h24h24v56q-1 11 -1 21q0 34 9 43q6 18 12 24q8 4 16 4q12 -4 22 -10l18 42q-12 6 -32 10q-15 0 -24 -6q-12 -8 -20 -24v24h-48v-184z M1496 598q0 28 14 42q11 14 34 14q20 0 34 -14q12 -15 12 -42t-12 -42q-14 -14 -34 -14q-23 0 -34 14q-14 14 -14 42zM1522 1628q0 -26 16 -42t38 -16q23 -3 40 14q16 16 16 40q0 27 -14 44q-16 16 -40 16q-28 0 -42 -14q-17 -17 -14 -42zM1612 222h20v-116l6 -6l4 -10 q3 -6 18 -12q12 -6 24 -6q25 4 38 10l-4 38q-15 -6 -22 -4l-2 2l-6 4l-4 2v98h34v20v18v6h-34v64l-52 -30v-40h-20v-38zM1676 504h46v256h-46v-128v-128z" />
<glyph unicode="z" d="M8 1264q21 69 98 84l560 82l124 252q116 232 126 254q38 68 110 68q70 0 108 -68l250 -506l560 -82q77 -15 98 -84q6 -20 6 -39q0 -46 -36 -87l-404 -394l94 -556q1 -11 1 -21q0 -65 -49 -99q-33 -24 -70 -24q-28 0 -58 14l-500 264l-502 -264q-30 -14 -58 -14 q-37 0 -70 24q-49 34 -49 99q0 10 1 21l94 556l-404 394q-36 40 -36 87q0 19 6 39z" />
<glyph unicode="&#x2000;" horiz-adv-x="1040" />
<glyph unicode="&#x2001;" horiz-adv-x="2080" />
<glyph unicode="&#x2002;" horiz-adv-x="1040" />
<glyph unicode="&#x2003;" horiz-adv-x="2080" />
<glyph unicode="&#x2004;" horiz-adv-x="693" />
<glyph unicode="&#x2005;" horiz-adv-x="520" />
<glyph unicode="&#x2006;" horiz-adv-x="346" />
<glyph unicode="&#x2007;" horiz-adv-x="346" />
<glyph unicode="&#x2008;" horiz-adv-x="260" />
<glyph unicode="&#x2009;" horiz-adv-x="416" />
<glyph unicode="&#x200a;" horiz-adv-x="115" />
<glyph unicode="&#x202f;" horiz-adv-x="416" />
<glyph unicode="&#x205f;" horiz-adv-x="520" />
<glyph unicode="&#x25fc;" horiz-adv-x="1610" d="M0 0v1610h1610v-1610h-1610z" />
</font>
</defs>
</svg>
