<?xml version="1.0" standalone="no"?>
<!DOCTYPE svg PUBLIC "-//W3C//DTD SVG 1.1//EN" "http://www.w3.org/Graphics/SVG/1.1/DTD/svg11.dtd" >
<svg xmlns="http://www.w3.org/2000/svg" xmlns:xlink="http://www.w3.org/1999/xlink" version="1.1">
<metadata>
Created by FontForge 20160405 at Thu Aug  2 07:30:26 2018
 By www-data
Copyright (c) 2009 by JT Types Ltd. All rights reserved.
</metadata>
<defs>
<font id="Aspect2-Heavy" horiz-adv-x="776" >
  <font-face 
    font-family="Aspect 2 Heavy"
    font-weight="900"
    font-stretch="normal"
    units-per-em="1000"
    panose-1="2 0 0 4 4 0 0 2 0 4"
    ascent="763"
    descent="-237"
    x-height="497"
    cap-height="659"
    bbox="-347 -406 1940 1024"
    underline-thickness="70"
    underline-position="-140"
    stemh="142"
    stemv="167"
    unicode-range="U+000D-FB04"
  />
<missing-glyph horiz-adv-x="585" 
d="M60 0v659h465v-659h-465zM111 50h363v559h-363v-559zM257 271l-4 81h25c72 2 94 28 94 58c0 32 -29 56 -80 56c-43 0 -76 -16 -105 -38l-30 37c30 27 80 51 139 51c69 0 132 -34 132 -104c0 -66 -53 -95 -124 -99l-2 -42h-45zM279 144c-21 0 -38 15 -38 37
c0 21 17 36 38 36c22 0 38 -15 38 -36c0 -22 -16 -37 -38 -37z" />
    <glyph glyph-name="f_b" unicode="fb" horiz-adv-x="1003" 
d="M108 -38v406h-107v129h107v13c0 136 104 214 261 214c75 0 161 -15 240 -38v-222v-39h2c38 52 96 82 166 82c107 0 191 -78 191 -205c0 -184 -150 -312 -337 -312c-52 0 -118 10 -173 35v559c-28 7 -58 11 -87 11c-62 0 -112 -23 -112 -86v-12h122v-129h-122v-404
c0 -143 -98 -201 -215 -201c-53 0 -103 9 -143 29l39 119c42 -16 71 -19 90 -19c45 0 78 11 78 70zM644 120c89 0 173 64 173 166c0 57 -26 89 -70 89c-72 0 -142 -77 -142 -240v-9c6 -3 21 -6 39 -6z" />
    <glyph glyph-name="f_b.salt" unicode="f&#xe05a;" horiz-adv-x="1003" 
d="M108 -38v406h-107v129h107v13c0 136 104 214 261 214c75 0 161 -15 240 -38v-261h2c38 51 100 82 164 82c113 0 193 -78 193 -205c0 -181 -146 -312 -302 -312c-137 0 -208 88 -208 206v388c-28 7 -58 11 -87 11c-62 0 -112 -23 -112 -86v-12h122v-129h-122v-404
c0 -143 -98 -201 -215 -201c-53 0 -103 9 -143 29l39 119c42 -16 71 -19 90 -19c45 0 78 11 78 70zM676 120c68 0 141 67 141 169c0 55 -27 86 -70 86c-71 0 -142 -76 -142 -173c0 -45 20 -82 71 -82z" />
    <glyph glyph-name="f_f_b" unicode="ffb" horiz-adv-x="1353" 
d="M108 -21v389h-107v129h107v14c0 130 103 215 253 215c60 0 117 -12 175 -35c45 33 108 51 183 51s161 -15 240 -38v-239v-40h2c38 52 96 82 166 82c107 0 191 -78 191 -205c0 -184 -150 -312 -337 -312c-52 0 -118 10 -173 35v577c-28 7 -58 11 -87 11
c-62 0 -112 -23 -112 -86v-30h122v-129h-122v-358c0 -130 -103 -215 -253 -215c-55 0 -107 10 -159 29c-42 -40 -102 -61 -176 -61c-72 0 -141 19 -182 37l34 119c27 -10 80 -27 131 -27c64 0 104 27 104 87zM259 497h199v31c0 20 2 39 7 56c-28 10 -57 15 -88 15
c-66 0 -118 -26 -118 -88v-14zM255 -64c27 -9 55 -14 85 -14c66 0 118 26 118 88v358h-199v-384c0 -17 -2 -33 -4 -48zM955 126c6 -3 21 -6 39 -6c89 0 173 64 173 166c0 57 -26 89 -70 89c-72 0 -142 -77 -142 -240v-9z" />
    <glyph glyph-name="f_f_b.salt" unicode="ff&#xe05a;" horiz-adv-x="1353" 
d="M108 -21v389h-107v129h107v14c0 130 103 215 253 215c60 0 117 -12 175 -35c45 33 108 51 183 51s161 -15 240 -38v-279h2c38 51 100 82 164 82c113 0 193 -78 193 -205c0 -181 -146 -312 -302 -312c-137 0 -208 88 -208 206v406c-28 7 -58 11 -87 11
c-62 0 -112 -23 -112 -86v-30h122v-129h-122v-358c0 -130 -103 -215 -253 -215c-55 0 -107 10 -159 29c-42 -40 -102 -61 -176 -61c-72 0 -141 19 -182 37l34 119c27 -10 80 -27 131 -27c64 0 104 27 104 87zM259 497h199v31c0 20 2 39 7 56c-28 10 -57 15 -88 15
c-66 0 -118 -26 -118 -88v-14zM255 -64c27 -9 55 -14 85 -14c66 0 118 26 118 88v358h-199v-384c0 -17 -2 -33 -4 -48zM1026 120c68 0 141 67 141 169c0 55 -27 86 -70 86c-71 0 -142 -76 -142 -173c0 -45 20 -82 71 -82z" />
    <glyph glyph-name="ff" unicode="ff" horiz-adv-x="731" 
d="M108 -21v389h-107v129h107v14c0 130 103 215 253 215c59 0 115 -11 172 -33c40 32 96 49 163 49c72 0 141 -19 182 -37l-34 -119c-27 10 -80 27 -131 27c-64 0 -104 -27 -104 -87v-29h122v-129h-122v-358c0 -130 -103 -215 -253 -215c-55 0 -107 10 -159 29
c-42 -40 -102 -61 -176 -61c-72 0 -141 19 -182 37l34 119c27 -10 80 -27 131 -27c64 0 104 27 104 87zM255 -64c27 -9 55 -14 85 -14c66 0 118 26 118 88v358h-199v-384c0 -17 -2 -33 -4 -48zM259 497h199v24c0 22 2 44 7 63c-28 10 -57 15 -88 15c-66 0 -118 -26 -118 -88
v-14z" />
    <glyph glyph-name="f_h" unicode="fh" horiz-adv-x="1083" 
d="M108 -38v406h-107v129h107v13c0 136 104 214 261 214c75 0 161 -15 240 -38v-304h2c43 71 115 125 204 125c109 0 164 -65 164 -166v-185c0 -26 15 -32 30 -32c14 0 28 4 39 9l25 -118c-30 -12 -65 -20 -103 -20c-78 0 -142 37 -142 138v174c0 38 -18 57 -49 57
c-68 0 -135 -79 -158 -168c-13 -51 -12 -98 -12 -166v-30h-151v584c-28 7 -58 11 -87 11c-62 0 -112 -23 -112 -86v-12h122v-129h-122v-404c0 -143 -98 -201 -215 -201c-53 0 -103 9 -143 29l39 119c42 -16 71 -19 90 -19c45 0 78 11 78 70z" />
    <glyph glyph-name="f_h.salt" unicode="f&#xe05d;" horiz-adv-x="1107" 
d="M108 -38v406h-107v129h107v13c0 136 104 214 261 214c75 0 161 -15 240 -38v-189h423l60 -98c-108 -111 -190 -238 -190 -382c0 -131 71 -201 186 -203c59 -1 121 14 189 56l61 -110c-71 -48 -160 -76 -264 -75c-190 2 -319 134 -319 314c0 144 59 273 142 369h-288v-368
h-151v584c-28 7 -58 11 -87 11c-62 0 -112 -23 -112 -86v-12h122v-129h-122v-404c0 -143 -98 -201 -215 -201c-53 0 -103 9 -143 29l39 119c42 -16 71 -19 90 -19c45 0 78 11 78 70z" />
    <glyph glyph-name="f_f_h" unicode="ffh" horiz-adv-x="1433" 
d="M108 -21v389h-107v129h107v14c0 130 103 215 253 215c60 0 117 -12 175 -35c45 33 108 51 183 51s161 -15 240 -38v-322h2c43 71 115 125 204 125c109 0 164 -65 164 -166v-185c0 -26 15 -32 30 -32c14 0 28 4 39 9l25 -118c-30 -12 -65 -20 -103 -20
c-78 0 -142 37 -142 138v174c0 38 -18 57 -49 57c-68 0 -135 -79 -158 -168c-13 -51 -12 -98 -12 -166v-30h-151v602c-28 7 -58 11 -87 11c-62 0 -112 -23 -112 -86v-30h122v-129h-122v-358c0 -130 -103 -215 -253 -215c-55 0 -107 10 -159 29c-42 -40 -102 -61 -176 -61
c-72 0 -141 19 -182 37l34 119c27 -10 80 -27 131 -27c64 0 104 27 104 87zM259 497h199v31c0 20 2 39 7 56c-28 10 -57 15 -88 15c-66 0 -118 -26 -118 -88v-14zM255 -64c27 -9 55 -14 85 -14c66 0 118 26 118 88v358h-199v-384c0 -17 -2 -33 -4 -48z" />
    <glyph glyph-name="f_f_h.salt" unicode="ff&#xe05d;" horiz-adv-x="1435" 
d="M108 -21v389h-107v129h107v14c0 130 103 215 253 215c60 0 117 -12 175 -35c45 33 108 51 183 51s161 -15 240 -38v-207h423l60 -98c-108 -111 -190 -238 -190 -382c0 -131 71 -201 186 -203c59 -1 121 14 189 56l61 -110c-71 -48 -160 -76 -264 -75
c-190 2 -319 134 -319 314c0 144 59 273 142 369h-288v-368h-151v602c-28 7 -58 11 -87 11c-62 0 -112 -23 -112 -86v-30h122v-129h-122v-358c0 -130 -103 -215 -253 -215c-55 0 -107 10 -159 29c-42 -40 -102 -61 -176 -61c-72 0 -141 19 -182 37l34 119
c27 -10 80 -27 131 -27c64 0 104 27 104 87zM259 497h199v31c0 20 2 39 7 56c-28 10 -57 15 -88 15c-66 0 -118 -26 -118 -88v-14zM255 -64c27 -9 55 -14 85 -14c66 0 118 26 118 88v358h-199v-384c0 -17 -2 -33 -4 -48z" />
    <glyph glyph-name="fi" unicode="fi" horiz-adv-x="713" 
d="M108 -38v406h-107v129h107v13c0 133 100 214 255 214c65 0 126 -11 201 -42l-39 -121c-46 17 -100 34 -154 34c-62 0 -112 -23 -112 -86v-12h350v-341c0 -26 15 -32 30 -32c14 0 28 4 39 9l25 -118c-30 -12 -65 -20 -103 -20c-78 0 -142 37 -142 138v235h-199v-404
c0 -143 -98 -201 -215 -201c-53 0 -103 9 -143 29l39 119c42 -16 71 -19 90 -19c45 0 78 11 78 70z" />
    <glyph glyph-name="ffi" unicode="ffi" horiz-adv-x="1063" 
d="M108 -21v389h-107v129h107v14c0 130 103 215 253 215c60 0 116 -12 175 -35c43 33 101 51 170 51c63 0 133 -11 208 -42l-39 -121c-46 17 -100 34 -154 34c-62 0 -112 -23 -112 -86v-30h350v-341c0 -26 15 -32 30 -32c14 0 28 4 39 9l25 -118c-30 -12 -65 -20 -103 -20
c-78 0 -142 37 -142 138v235h-199v-358c0 -130 -103 -215 -253 -215c-55 0 -107 10 -159 29c-42 -40 -102 -61 -176 -61c-72 0 -141 19 -182 37l34 119c27 -10 80 -27 131 -27c64 0 104 27 104 87zM259 497h199v19c0 24 3 47 8 68c-28 9 -58 15 -89 15
c-66 0 -118 -26 -118 -88v-14zM255 -64c27 -9 55 -14 85 -14c66 0 118 26 118 88v358h-199v-384c0 -17 -2 -33 -4 -48z" />
    <glyph glyph-name="f_j" unicode="fj" horiz-adv-x="679" 
d="M108 -38v406h-107v129h107v13c0 133 100 214 255 214c65 0 126 -11 201 -42l-39 -121c-46 17 -100 34 -154 34c-62 0 -112 -23 -112 -86v-12h350v-568c0 -99 -67 -166 -181 -166c-40 0 -78 7 -113 21l43 118c16 -6 34 -10 52 -10c30 0 48 12 48 39v437h-199v-404
c0 -143 -98 -201 -215 -201c-53 0 -103 9 -143 29l39 119c42 -16 71 -19 90 -19c45 0 78 11 78 70z" />
    <glyph glyph-name="f_f_j" unicode="ffj" horiz-adv-x="1029" 
d="M108 -21v389h-107v129h107v14c0 130 103 215 253 215c60 0 116 -12 175 -35c43 33 101 51 170 51c63 0 133 -11 208 -42l-39 -121c-46 17 -100 34 -154 34c-62 0 -112 -23 -112 -86v-30h350v-568c0 -99 -67 -166 -181 -166c-40 0 -78 7 -113 21l43 118
c16 -6 34 -10 52 -10c30 0 48 12 48 39v437h-199v-358c0 -130 -103 -215 -253 -215c-55 0 -107 10 -159 29c-42 -40 -102 -61 -176 -61c-72 0 -141 19 -182 37l34 119c27 -10 80 -27 131 -27c64 0 104 27 104 87zM259 497h199v19c0 24 3 47 8 68c-28 9 -58 15 -89 15
c-66 0 -118 -26 -118 -88v-14zM255 -64c27 -9 55 -14 85 -14c66 0 118 26 118 88v358h-199v-384c0 -17 -2 -33 -4 -48z" />
    <glyph glyph-name="f_k" unicode="fk" horiz-adv-x="1001" 
d="M108 -38v406h-107v129h107v13c0 136 104 214 261 214c75 0 161 -15 240 -38v-278h2c38 59 115 99 195 99c99 0 162 -54 162 -141c0 -93 -65 -146 -208 -166v-2c29 -13 54 -54 89 -69c10 -4 22 -7 34 -7c19 0 39 4 63 15l45 -117c-35 -19 -81 -27 -113 -27
c-31 0 -58 6 -82 16c-92 38 -142 134 -172 156c-4 3 -8 5 -11 5c-5 -30 -8 -64 -8 -101v-69h-147v584c-28 7 -58 11 -87 11c-62 0 -112 -23 -112 -86v-12h122v-129h-122v-404c0 -143 -98 -201 -215 -201c-53 0 -103 9 -143 29l39 119c42 -16 71 -19 90 -19c45 0 78 11 78 70
zM648 281c108 8 168 46 168 76c0 16 -14 24 -36 24c-39 0 -94 -28 -132 -100z" />
    <glyph glyph-name="f_k.salt" unicode="f&#xe05e;" horiz-adv-x="1000" 
d="M108 -38v406h-107v129h107v13c0 136 104 214 261 214c75 0 161 -15 240 -38v-278h2c38 59 115 99 195 99c99 0 162 -54 162 -141c0 -88 -68 -141 -184 -160v-2c140 -127 119 -333 326 -333c31 0 70 6 99 19l42 -120c-43 -17 -93 -28 -146 -28c-305 0 -332 323 -457 416
c-11 8 -22 14 -34 19c-6 -32 -9 -68 -9 -108v-69h-147v584c-28 7 -58 11 -87 11c-62 0 -112 -23 -112 -86v-12h122v-129h-122v-404c0 -143 -98 -201 -215 -201c-53 0 -103 9 -143 29l39 119c42 -16 71 -19 90 -19c45 0 78 11 78 70zM648 281c108 8 168 46 168 76
c0 16 -14 24 -36 24c-39 0 -94 -28 -132 -100z" />
    <glyph glyph-name="f_f_k" unicode="ffk" horiz-adv-x="1351" 
d="M108 -21v389h-107v129h107v14c0 130 103 215 253 215c60 0 117 -12 175 -35c45 33 108 51 183 51s161 -15 240 -38v-296h2c38 59 115 99 195 99c99 0 162 -54 162 -141c0 -93 -65 -146 -208 -166v-2c29 -13 54 -54 89 -69c10 -4 22 -7 34 -7c19 0 39 4 63 15l45 -117
c-35 -19 -81 -27 -113 -27c-31 0 -58 6 -82 16c-92 38 -142 134 -172 156c-4 3 -8 5 -11 5c-5 -30 -8 -64 -8 -101v-69h-147v602c-28 7 -58 11 -87 11c-62 0 -112 -23 -112 -86v-30h122v-129h-122v-358c0 -130 -103 -215 -253 -215c-55 0 -107 10 -159 29
c-42 -40 -102 -61 -176 -61c-72 0 -141 19 -182 37l34 119c27 -10 80 -27 131 -27c64 0 104 27 104 87zM259 497h199v31c0 20 2 39 7 56c-28 10 -57 15 -88 15c-66 0 -118 -26 -118 -88v-14zM255 -64c27 -9 55 -14 85 -14c66 0 118 26 118 88v358h-199v-384
c0 -17 -2 -33 -4 -48zM998 281c108 8 168 46 168 76c0 16 -14 24 -36 24c-39 0 -94 -28 -132 -100z" />
    <glyph glyph-name="f_f_k.salt" unicode="ff&#xe05e;" horiz-adv-x="1322" 
d="M108 -21v389h-107v129h107v14c0 130 103 215 253 215c60 0 117 -12 175 -35c45 33 108 51 183 51s161 -15 240 -38v-296h2c38 59 115 99 195 99c99 0 162 -54 162 -141c0 -88 -68 -141 -184 -160v-2c140 -127 119 -333 326 -333c31 0 70 6 99 19l42 -120
c-43 -17 -93 -28 -146 -28c-305 0 -332 323 -457 416c-11 8 -22 14 -34 19c-6 -32 -9 -68 -9 -108v-69h-147v602c-28 7 -58 11 -87 11c-62 0 -112 -23 -112 -86v-30h122v-129h-122v-358c0 -130 -103 -215 -253 -215c-55 0 -107 10 -159 29c-42 -40 -102 -61 -176 -61
c-72 0 -141 19 -182 37l34 119c27 -10 80 -27 131 -27c64 0 104 27 104 87zM259 497h199v31c0 20 2 39 7 56c-28 10 -57 15 -88 15c-66 0 -118 -26 -118 -88v-14zM255 -64c27 -9 55 -14 85 -14c66 0 118 26 118 88v358h-199v-384c0 -17 -2 -33 -4 -48zM998 281
c108 8 168 46 168 76c0 16 -14 24 -36 24c-39 0 -94 -28 -132 -100z" />
    <glyph glyph-name="fl" unicode="fl" horiz-adv-x="713" 
d="M108 -38v406h-107v129h107v13c0 136 104 214 261 214c75 0 161 -15 240 -38v-530c0 -26 15 -32 30 -32c14 0 28 4 39 9l25 -118c-30 -12 -65 -20 -103 -20c-78 0 -142 37 -142 138v451c-28 7 -58 11 -87 11c-62 0 -112 -23 -112 -86v-12h122v-129h-122v-404
c0 -143 -98 -201 -215 -201c-53 0 -103 9 -143 29l39 119c42 -16 71 -19 90 -19c45 0 78 11 78 70z" />
    <glyph glyph-name="ffl" unicode="ffl" horiz-adv-x="1063" 
d="M108 -21v389h-107v129h107v14c0 130 103 215 253 215c60 0 117 -12 175 -35c45 33 108 51 183 51s161 -15 240 -38v-548c0 -26 15 -32 30 -32c14 0 28 4 39 9l25 -118c-30 -12 -65 -20 -103 -20c-78 0 -142 37 -142 138v469c-28 7 -58 11 -87 11c-62 0 -112 -23 -112 -86
v-30h122v-129h-122v-358c0 -130 -103 -215 -253 -215c-55 0 -107 10 -159 29c-42 -40 -102 -61 -176 -61c-72 0 -141 19 -182 37l34 119c27 -10 80 -27 131 -27c64 0 104 27 104 87zM259 497h199v31c0 20 2 39 7 56c-28 10 -57 15 -88 15c-66 0 -118 -26 -118 -88v-14z
M255 -64c27 -9 55 -14 85 -14c66 0 118 26 118 88v358h-199v-384c0 -17 -2 -33 -4 -48z" />
    <glyph glyph-name="f_thorn" unicode="f&#xfe;" horiz-adv-x="1003" 
d="M458 -237v821c-28 7 -58 11 -87 11c-62 0 -112 -23 -112 -86v-12h122v-129h-122v-404c0 -143 -98 -201 -215 -201c-53 0 -103 9 -143 29l39 119c42 -16 71 -19 90 -19c45 0 78 11 78 70v406h-107v129h107v13c0 136 104 214 261 214c75 0 161 -15 240 -38v-233v-28h2
c38 52 96 82 166 82c107 0 191 -78 191 -205c0 -187 -150 -312 -319 -312c-18 0 -32 2 -40 3v-230h-151zM647 120c88 0 170 63 170 166c0 57 -26 89 -70 89c-72 0 -138 -78 -138 -241v-9c8 -3 24 -5 38 -5z" />
    <glyph glyph-name=".notdef" horiz-adv-x="585" 
d="M60 0v659h465v-659h-465zM111 50h363v559h-363v-559zM257 271l-4 81h25c72 2 94 28 94 58c0 32 -29 56 -80 56c-43 0 -76 -16 -105 -38l-30 37c30 27 80 51 139 51c69 0 132 -34 132 -104c0 -66 -53 -95 -124 -99l-2 -42h-45zM279 144c-21 0 -38 15 -38 37
c0 21 17 36 38 36c22 0 38 -15 38 -36c0 -22 -16 -37 -38 -37z" />
    <glyph glyph-name=".null" horiz-adv-x="0" 
 />
    <glyph glyph-name=".null" horiz-adv-x="0" 
 />
    <glyph glyph-name="CR" unicode="&#xd;" horiz-adv-x="238" 
 />
    <glyph glyph-name="space" unicode=" " horiz-adv-x="238" 
 />
    <glyph glyph-name="space" unicode="&#xa0;" horiz-adv-x="238" 
 />
    <glyph glyph-name="A" unicode="A" horiz-adv-x="782" 
d="M4 0l300 662h149l325 -662h-187l-64 139h-285l-57 -139h-181zM300 279h162l-84 184h-2z" />
    <glyph glyph-name="B" unicode="B" horiz-adv-x="724" 
d="M88 0v659h282c62 0 104 -6 142 -19c70 -24 122 -72 122 -155c0 -66 -35 -114 -100 -133v-2c28 -5 53 -14 73 -27c41 -27 64 -70 64 -126c0 -88 -46 -139 -108 -167c-49 -22 -109 -30 -168 -30h-307zM251 401h118c22 0 43 2 56 7c26 10 38 28 38 53c0 23 -9 38 -28 46
c-15 7 -37 10 -67 10h-117v-116zM251 142h124c33 0 65 2 83 8c30 9 42 27 42 53c0 24 -8 40 -28 50c-14 7 -33 10 -62 10h-159v-121z" />
    <glyph glyph-name="C" unicode="C" horiz-adv-x="722" 
d="M53 320c0 200 156 344 378 344c92 0 176 -21 258 -58l-44 -131c-65 31 -132 45 -204 45c-135 0 -217 -80 -217 -195c0 -113 73 -191 211 -191c75 0 149 15 209 44l50 -133c-107 -45 -195 -55 -273 -55c-231 0 -368 135 -368 330z" />
    <glyph glyph-name="D" unicode="D" horiz-adv-x="833" 
d="M88 0v659h277c68 0 115 -5 158 -15c143 -34 257 -130 257 -304c0 -178 -120 -270 -231 -309c-77 -27 -164 -31 -241 -31h-220zM255 142h63c60 0 107 4 146 15c81 23 145 85 145 183c0 97 -61 147 -129 166c-38 11 -77 11 -141 11h-84v-375z" />
    <glyph glyph-name="E" unicode="E" horiz-adv-x="664" 
d="M88 0v659h512v-142h-345v-114h314v-142h-314v-119h351v-142h-518z" />
    <glyph glyph-name="E.swsh" unicode="&#xe07f;" horiz-adv-x="653" 
d="M351 -10c-154 0 -295 63 -295 201c0 75 48 136 123 147v2c-70 14 -109 65 -109 136c0 107 105 188 272 188c83 0 168 -10 257 -40l-42 -134c-70 22 -139 30 -198 30c-76 0 -117 -21 -117 -58c0 -36 35 -59 105 -59h198v-142h-214c-68 0 -103 -25 -103 -58
c0 -48 61 -69 139 -69c58 0 129 6 202 30l42 -134c-89 -31 -173 -40 -260 -40z" />
    <glyph glyph-name="F" unicode="F" horiz-adv-x="652" 
d="M88 0v659h522v-142h-355v-136h324v-142h-324v-239h-167z" />
    <glyph glyph-name="G" unicode="G" horiz-adv-x="849" 
d="M53 322c0 201 165 342 406 342c115 0 226 -24 309 -62l-44 -131c-66 29 -156 49 -251 49c-159 0 -249 -82 -249 -201c0 -120 81 -185 240 -185c51 0 100 7 140 18v83h-190v142h357v-329c-72 -33 -196 -58 -321 -58c-248 0 -397 123 -397 332z" />
    <glyph glyph-name="G.salt" unicode="&#xe056;" horiz-adv-x="849" 
d="M450 -10c-248 0 -397 123 -397 332c0 201 165 342 406 342c115 0 226 -24 309 -62l-44 -131c-66 29 -156 49 -251 49c-159 0 -249 -82 -249 -201c0 -120 81 -185 240 -185c51 0 100 7 140 18v179h167v-283c-72 -33 -196 -58 -321 -58z" />
    <glyph glyph-name="G.swsh" unicode="&#xe080;" horiz-adv-x="841" 
d="M457 -10c-251 0 -404 125 -404 332c0 208 181 342 416 342c115 0 221 -24 304 -62l-44 -131c-65 29 -151 49 -247 49c-160 0 -258 -82 -258 -201c0 -120 87 -185 231 -185c130 0 173 37 173 74c0 31 -24 50 -74 50c-46 0 -91 -12 -127 -26l-45 132c57 26 124 39 177 39
c132 0 240 -61 240 -189c0 -136 -131 -224 -342 -224z" />
    <glyph glyph-name="H" unicode="H" horiz-adv-x="834" 
d="M88 0v659h167v-256h324v256h167v-659h-167v261h-324v-261h-167z" />
    <glyph glyph-name="I" unicode="I" horiz-adv-x="343" 
d="M88 0v659h167v-659h-167z" />
    <glyph glyph-name="J" unicode="J" horiz-adv-x="554" 
d="M18 49l64 121c41 -25 77 -36 124 -36c48 0 93 16 93 74v451h167v-460c0 -138 -106 -209 -248 -209c-74 0 -139 19 -200 59z" />
    <glyph glyph-name="J.swsh" unicode="&#xe081;" horiz-adv-x="402" 
d="M86 -181c-74 0 -139 19 -200 59l64 121c41 -25 77 -36 124 -36c48 0 93 16 93 74v622h167v-631c0 -138 -106 -209 -248 -209z" />
    <glyph glyph-name="K" unicode="K" horiz-adv-x="713" 
d="M88 0v659h167v-252h2l230 252h210l-293 -293l309 -366h-210l-210 254l-38 -38v-216h-167z" />
    <glyph glyph-name="K.swsh" unicode="&#xe082;" horiz-adv-x="731" 
d="M88 0v659h167v-252h2l230 252h210l-303 -304c139 -80 181 -294 278 -384c32 -30 63 -48 120 -48c24 0 63 6 92 19l46 -130c-43 -17 -97 -28 -153 -28c-102 0 -175 32 -227 83c-117 114 -148 302 -266 378l-29 -29v-216h-167z" />
    <glyph glyph-name="L" unicode="L" horiz-adv-x="586" 
d="M88 0v659h167v-517h329v-142h-496z" />
    <glyph glyph-name="L.swsh" unicode="&#xe083;" horiz-adv-x="508" 
d="M88 0v659h167v-527c217 -16 290 -219 426 -219c27 0 57 6 90 21l52 -125c-44 -25 -102 -37 -151 -37c-266 0 -306 270 -584 228z" />
    <glyph glyph-name="M" unicode="M" horiz-adv-x="986" 
d="M88 0v659h151l254 -302h2l254 302h149v-659h-167v397h-2l-223 -266h-26l-223 266h-2v-397h-167z" />
    <glyph glyph-name="M.swsh" unicode="&#xe084;" horiz-adv-x="1072" 
d="M88 0v659h148c95 -67 207 -133 300 -205c93 72 205 138 300 205h148v-659h-167v459h-2c-42 -28 -107 -65 -167 -107c49 -56 81 -119 81 -185c0 -118 -83 -185 -193 -185s-193 67 -193 185c0 66 31 129 81 185c-61 42 -125 79 -167 107h-2v-459h-167zM536 107
c22 0 46 15 46 54c0 35 -18 69 -46 101c-28 -32 -46 -66 -46 -101c0 -39 24 -54 46 -54z" />
    <glyph glyph-name="N" unicode="N" horiz-adv-x="876" 
d="M88 0v659h145l386 -401h2v401h167v-659h-138l-393 411h-2v-411h-167z" />
    <glyph glyph-name="O" unicode="O" horiz-adv-x="854" 
d="M427 -10c-218 0 -374 128 -374 337s156 337 374 337s374 -128 374 -337s-156 -337 -374 -337zM427 134c136 0 203 81 203 193s-67 193 -203 193s-203 -81 -203 -193s67 -193 203 -193z" />
    <glyph glyph-name="P" unicode="P" horiz-adv-x="690" 
d="M88 0v659h258c56 0 95 -5 130 -15c103 -29 168 -98 168 -207c0 -111 -67 -189 -189 -218c-33 -8 -71 -11 -123 -11h-77v-208h-167zM255 346h71c42 0 64 4 81 9c47 14 66 43 66 80s-19 63 -63 76c-17 5 -35 6 -68 6h-87v-171z" />
    <glyph glyph-name="Q" unicode="Q" horiz-adv-x="874" 
d="M445 -10c-219 0 -392 107 -392 337c0 209 156 337 374 337s374 -130 374 -334c0 -90 -48 -171 -110 -216l1 -2c46 19 105 37 181 37v-149c-232 0 -300 -10 -428 -10zM427 134c66 0 114 18 149 50c37 34 54 85 54 143c0 112 -67 193 -203 193s-203 -81 -203 -193
s67 -193 203 -193z" />
    <glyph glyph-name="Q.swsh" unicode="&#xe085;" horiz-adv-x="854" 
d="M345 -4c-174 29 -292 149 -292 331c0 209 156 337 374 337s374 -128 374 -337c0 -182 -118 -302 -292 -328v-2c19 -44 40 -82 61 -115c72 38 148 68 232 68c137 0 224 -69 224 -168s-94 -171 -227 -171c-95 0 -185 28 -267 102c-87 -52 -180 -102 -285 -102
c-99 0 -182 34 -245 105l95 95c41 -43 82 -70 145 -70c67 0 133 32 203 71c-35 50 -69 111 -100 184zM427 134c136 0 203 81 203 193s-67 193 -203 193s-203 -81 -203 -193s67 -193 203 -193zM658 -215c45 -35 92 -51 139 -51c52 0 78 22 78 46c0 23 -24 46 -72 46
c-49 0 -97 -17 -145 -41z" />
    <glyph glyph-name="Q.salt" unicode="&#xe057;" horiz-adv-x="854" 
d="M332 -1c-167 32 -279 151 -279 328c0 209 156 337 374 337s374 -128 374 -337c0 -181 -118 -302 -289 -328v-2c32 -47 108 -53 155 -53c37 0 82 4 125 17l33 -128c-59 -15 -115 -22 -162 -22c-137 0 -274 56 -331 188zM427 134c136 0 203 81 203 193s-67 193 -203 193
s-203 -81 -203 -193s67 -193 203 -193z" />
    <glyph glyph-name="Q.1" unicode="&#xe063;" horiz-adv-x="854" 
d="M427 -10c-218 0 -374 128 -374 337s156 337 374 337s374 -128 374 -337s-156 -337 -374 -337zM427 134c9 0 17 0 25 1l-128 196h178l85 -134c28 34 43 79 43 130c0 112 -67 193 -203 193s-203 -81 -203 -193s67 -193 203 -193z" />
    <glyph glyph-name="Q.2" unicode="&#xe064;" horiz-adv-x="874" 
d="M437 -10c-220 0 -384 128 -384 337s164 337 384 337s384 -128 384 -337s-164 -337 -384 -337zM422 130c45 0 68 21 68 51c0 27 -19 49 -58 49c-23 0 -49 -7 -72 -23l-60 121c39 26 90 45 140 45c102 0 158 -69 158 -141c0 -17 -3 -42 -10 -57l1 -1c38 34 61 89 61 153
c0 111 -78 193 -213 193s-213 -82 -213 -193c0 -108 78 -197 198 -197z" />
    <glyph glyph-name="R" unicode="R" horiz-adv-x="714" 
d="M255 368h85c37 0 64 4 83 12c32 13 45 35 45 65c0 32 -13 51 -40 62c-18 7 -42 10 -77 10h-96v-149zM88 0v659h265c68 0 119 -7 161 -23c82 -31 125 -93 125 -185c0 -98 -62 -165 -173 -185v-2c42 -24 63 -93 106 -125c14 -10 30 -16 49 -16c18 0 35 4 51 10l30 -126
c-34 -13 -75 -17 -106 -17c-46 0 -83 11 -114 29c-110 65 -135 215 -191 215h-36v-234h-167z" />
    <glyph glyph-name="R.salt" unicode="&#xe058;" horiz-adv-x="714" 
d="M88 0v659h272c180 0 279 -69 279 -208c0 -93 -55 -162 -147 -189l177 -262h-194l-149 234h-71v-234h-167zM255 368h88c89 0 125 28 125 77c0 53 -36 72 -113 72h-100v-149z" />
    <glyph glyph-name="R.swsh" unicode="&#xe086;" horiz-adv-x="714" 
d="M88 0v659h268c77 0 138 -12 183 -35c66 -33 100 -91 100 -173c0 -93 -57 -163 -154 -189v-3c91 -53 116 -212 197 -289c33 -31 73 -48 123 -48c31 0 69 5 98 17l45 -129c-43 -16 -96 -26 -155 -26c-95 0 -178 30 -233 82c-137 131 -151 368 -261 368h-44v-234h-167z
M255 368h84c45 0 75 6 95 17c24 13 34 33 34 60s-9 46 -29 57c-19 11 -46 15 -89 15h-95v-149z" />
    <glyph glyph-name="S" unicode="S" horiz-adv-x="704" 
d="M43 64l65 123c62 -38 151 -57 226 -57c95 0 144 23 144 66c0 77 -253 34 -362 135c-30 28 -49 66 -49 121c0 140 123 212 279 212c100 0 219 -25 292 -68l-56 -123c-60 31 -158 51 -230 51c-82 0 -114 -23 -114 -58c0 -118 411 -6 411 -265c0 -136 -130 -211 -314 -211
c-106 0 -216 24 -292 74z" />
    <glyph glyph-name="T" unicode="T" horiz-adv-x="625" 
d="M229 0v517h-227v142h621v-142h-227v-517h-167z" />
    <glyph glyph-name="U" unicode="U" horiz-adv-x="858" 
d="M429 -10c-172 0 -280 66 -320 176c-14 39 -21 84 -21 137v356h167v-340c0 -52 4 -80 14 -102c26 -58 77 -83 160 -83c79 0 131 24 157 77c12 24 17 52 17 108v340h167v-352c0 -63 -8 -113 -26 -155c-44 -101 -151 -162 -315 -162z" />
    <glyph glyph-name="V" unicode="V" horiz-adv-x="794" 
d="M4 659h190l209 -452h2l197 452h188l-312 -662h-151z" />
    <glyph glyph-name="W" unicode="W" horiz-adv-x="1147" 
d="M4 659h186l157 -416h2l151 416h147l166 -416h2l144 416h184l-257 -662h-140l-171 430h-2l-154 -430h-144z" />
    <glyph glyph-name="W.salt" unicode="&#xe059;" horiz-adv-x="1149" 
d="M4 659h190l206 -448h2l81 175l-137 273h179l50 -112h2l47 112h179l-131 -268l89 -180h2l194 448h188l-310 -662h-148l-108 237h-2l-104 -237h-148z" />
    <glyph glyph-name="W.swsh" unicode="&#xe087;" horiz-adv-x="1161" 
d="M4 659h190l215 -466h2c23 47 52 86 81 122c-58 66 -100 118 -100 198c0 107 89 177 194 177s194 -71 194 -177c0 -80 -43 -132 -101 -198c30 -35 59 -75 82 -122h2l206 466h188l-310 -662h-146c-36 86 -76 155 -115 208c-40 -53 -80 -122 -115 -208h-146zM586 565
c-25 0 -46 -21 -46 -54c0 -29 18 -62 46 -95c27 33 46 66 46 95c0 33 -21 54 -46 54z" />
    <glyph glyph-name="X" unicode="X" horiz-adv-x="810" 
d="M4 0l292 329l-288 330h210l187 -223l190 223h208l-289 -327l292 -332h-210l-191 224l-193 -224h-208z" />
    <glyph glyph-name="Y" unicode="Y" horiz-adv-x="748" 
d="M294 0v244l-290 415h191l184 -274h2l177 274h186l-283 -415v-244h-167z" />
    <glyph glyph-name="Y.swsh" unicode="&#xe088;" horiz-adv-x="741" 
d="M289 0v157c0 216 -120 350 -280 376l42 137c157 -28 280 -122 321 -263h2c41 141 163 235 320 263l42 -137c-160 -26 -280 -160 -280 -376v-157h-167z" />
    <glyph glyph-name="Z" unicode="Z" horiz-adv-x="694" 
d="M116 0l-63 94l339 423h-337v142h515l63 -94l-339 -423h362v-142h-540z" />
    <glyph glyph-name="Agrave" unicode="&#xc0;" horiz-adv-x="782" 
d="M4 0l300 662h149l325 -662h-187l-64 139h-285l-57 -139h-181zM300 279h162l-84 184h-2zM229 896h168l41 -186h-126z" />
    <glyph glyph-name="Aacute" unicode="&#xc1;" horiz-adv-x="782" 
d="M4 0l300 662h149l325 -662h-187l-64 139h-285l-57 -139h-181zM300 279h162l-84 184h-2zM314 710l41 186h168l-83 -186h-126z" />
    <glyph glyph-name="Acircumflex" unicode="&#xc2;" horiz-adv-x="782" 
d="M4 0l300 662h149l325 -662h-187l-64 139h-285l-57 -139h-181zM300 279h162l-84 184h-2zM214 710l81 186h162l81 -186h-128l-34 99l-34 -99h-128z" />
    <glyph glyph-name="Atilde" unicode="&#xc3;" horiz-adv-x="782" 
d="M4 0l300 662h149l325 -662h-187l-64 139h-285l-57 -139h-181zM300 279h162l-84 184h-2zM172 712c-10 28 -13 53 -13 73c0 56 34 105 110 105c82 0 151 -64 183 -64c14 0 22 9 22 24c0 7 -1 15 -7 32h113c10 -28 13 -53 13 -73c0 -56 -34 -105 -110 -105
c-82 0 -151 64 -183 64c-14 0 -22 -9 -22 -24c0 -7 1 -15 7 -32h-113z" />
    <glyph glyph-name="Adieresis" unicode="&#xc4;" horiz-adv-x="782" 
d="M4 0l300 662h149l325 -662h-187l-64 139h-285l-57 -139h-181zM300 279h162l-84 184h-2zM276 705c-48 0 -83 36 -83 83s36 83 83 83c48 0 83 -36 83 -83s-36 -83 -83 -83zM476 705c-47 0 -82 36 -82 83s36 83 82 83c48 0 83 -36 83 -83s-36 -83 -83 -83z" />
    <glyph glyph-name="Amacron" unicode="&#x100;" horiz-adv-x="782" 
d="M4 0l300 662h149l325 -662h-187l-64 139h-285l-57 -139h-181zM300 279h162l-84 184h-2zM205 709v123h344v-123h-344z" />
    <glyph glyph-name="Abreve" unicode="&#x102;" horiz-adv-x="782" 
d="M4 0l300 662h149l325 -662h-187l-64 139h-285l-57 -139h-181zM300 279h162l-84 184h-2zM376 692c-86 0 -175 47 -175 165v16h126v-12c0 -47 18 -64 49 -64s49 17 49 64v12h126v-16c0 -118 -89 -165 -175 -165z" />
    <glyph glyph-name="Aring" unicode="&#xc5;" horiz-adv-x="782" 
d="M4 0l300 662h149l325 -662h-187l-64 139h-285l-57 -139h-181zM300 279h162l-84 184h-2zM378 686c-81 0 -146 40 -146 109c0 68 65 108 146 108s146 -40 146 -108c0 -69 -65 -109 -146 -109zM378 764c22 0 38 12 38 31s-16 31 -38 31s-38 -12 -38 -31s16 -31 38 -31z" />
    <glyph glyph-name="Aringacute" unicode="&#x1fa;" horiz-adv-x="782" 
d="M378 686c-81 0 -146 40 -146 109c0 62 53 100 124 107l34 122h168l-84 -145c31 -19 50 -47 50 -84c0 -69 -65 -109 -146 -109zM378 764c22 0 38 12 38 31s-16 31 -38 31s-38 -12 -38 -31s16 -31 38 -31zM4 0l300 662h149l325 -662h-187l-64 139h-285l-57 -139h-181z
M300 279h162l-84 184h-2z" />
    <glyph glyph-name="Aogonek" unicode="&#x104;" horiz-adv-x="782" 
d="M456 -130c0 80 52 133 118 165l-47 104h-285l-57 -139h-181l300 662h149l325 -662c-107 -6 -170 -56 -170 -95c0 -18 12 -36 43 -36c21 0 46 7 69 17l45 -117c-40 -20 -105 -29 -137 -29c-107 0 -172 46 -172 130zM300 279h162l-84 184h-2z" />
    <glyph glyph-name="AE" unicode="&#xc6;" horiz-adv-x="1140" 
d="M4 0l547 659h525v-142h-345v-138c50 22 103 39 163 39c52 0 101 -11 153 -32l-45 -135c-40 15 -73 22 -108 22c-59 0 -110 -21 -163 -46v-85h351v-142h-518v157c-33 -9 -68 -14 -106 -14c-42 0 -84 7 -114 20l-130 -163h-210zM486 287c26 0 52 5 78 15v135h-2l-116 -145
c9 -3 25 -5 40 -5z" />
    <glyph glyph-name="AEacute" unicode="&#x1fc;" horiz-adv-x="1140" 
d="M4 0l547 659h525v-142h-345v-138c50 22 103 39 163 39c52 0 101 -11 153 -32l-45 -135c-40 15 -73 22 -108 22c-59 0 -110 -21 -163 -46v-85h351v-142h-518v157c-33 -9 -68 -14 -106 -14c-42 0 -84 7 -114 20l-130 -163h-210zM486 287c26 0 52 5 78 15v135h-2l-116 -145
c9 -3 25 -5 40 -5zM698 710l41 186h168l-83 -186h-126z" />
    <glyph glyph-name="Cacute" unicode="&#x106;" horiz-adv-x="722" 
d="M53 320c0 200 156 344 378 344c92 0 176 -21 258 -58l-44 -131c-65 31 -132 45 -204 45c-135 0 -217 -80 -217 -195c0 -113 73 -191 211 -191c75 0 149 15 209 44l50 -133c-107 -45 -195 -55 -273 -55c-231 0 -368 135 -368 330zM372 710l41 186h168l-83 -186h-126z" />
    <glyph glyph-name="Ccircumflex" unicode="&#x108;" horiz-adv-x="722" 
d="M53 320c0 200 156 344 378 344c92 0 176 -21 258 -58l-44 -131c-65 31 -132 45 -204 45c-135 0 -217 -80 -217 -195c0 -113 73 -191 211 -191c75 0 149 15 209 44l50 -133c-107 -45 -195 -55 -273 -55c-231 0 -368 135 -368 330zM265 710l81 186h162l81 -186h-128l-34 99
l-34 -99h-128z" />
    <glyph glyph-name="Ccaron" unicode="&#x10c;" horiz-adv-x="722" 
d="M53 320c0 200 156 344 378 344c92 0 176 -21 258 -58l-44 -131c-65 31 -132 45 -204 45c-135 0 -217 -80 -217 -195c0 -113 73 -191 211 -191c75 0 149 15 209 44l50 -133c-107 -45 -195 -55 -273 -55c-231 0 -368 135 -368 330zM341 710l-81 186h128l34 -99l34 99h128
l-81 -186h-162z" />
    <glyph glyph-name="Cdotaccent" unicode="&#x10a;" horiz-adv-x="722" 
d="M53 320c0 200 156 344 378 344c92 0 176 -21 258 -58l-44 -131c-65 31 -132 45 -204 45c-135 0 -217 -80 -217 -195c0 -113 73 -191 211 -191c75 0 149 15 209 44l50 -133c-107 -45 -195 -55 -273 -55c-231 0 -368 135 -368 330zM418 704c-52 0 -90 39 -90 90
s39 90 90 90c52 0 90 -39 90 -90s-39 -90 -90 -90z" />
    <glyph glyph-name="Ccedilla" unicode="&#xc7;" horiz-adv-x="722" 
d="M217 -202l45 117c25 -13 52 -19 72 -19c24 0 39 7 39 32c0 16 -5 39 -13 66c-194 21 -307 149 -307 326c0 200 156 344 378 344c92 0 176 -21 258 -58l-44 -131c-65 31 -132 45 -204 45c-135 0 -217 -80 -217 -195c0 -113 73 -191 211 -191c75 0 149 15 209 44l50 -133
c-75 -32 -140 -45 -199 -51c12 -36 19 -71 19 -101c0 -80 -49 -126 -162 -126c-43 0 -96 10 -135 31z" />
    <glyph glyph-name="Dcaron" unicode="&#x10e;" horiz-adv-x="833" 
d="M88 0v659h277c68 0 115 -5 158 -15c143 -34 257 -130 257 -304c0 -178 -120 -270 -231 -309c-77 -27 -164 -31 -241 -31h-220zM255 142h63c60 0 107 4 146 15c81 23 145 85 145 183c0 97 -61 147 -129 166c-38 11 -77 11 -141 11h-84v-375zM315 710l-81 186h128l34 -99
l34 99h128l-81 -186h-162z" />
    <glyph glyph-name="Dcroat" unicode="&#x110;" horiz-adv-x="833" 
d="M88 0v263h-88v138h88v258h277c68 0 115 -5 158 -15c143 -34 257 -130 257 -304c0 -178 -120 -270 -231 -309c-77 -27 -164 -31 -241 -31h-220zM255 142h63c60 0 107 4 146 15c81 23 145 85 145 183c0 97 -61 147 -129 166c-38 11 -77 11 -141 11h-84v-116h163v-138h-163
v-121z" />
    <glyph glyph-name="Egrave" unicode="&#xc8;" horiz-adv-x="664" 
d="M88 0v659h512v-142h-345v-114h314v-142h-314v-119h351v-142h-518zM204 896h168l41 -186h-126z" />
    <glyph glyph-name="Eacute" unicode="&#xc9;" horiz-adv-x="664" 
d="M88 0v659h512v-142h-345v-114h314v-142h-314v-119h351v-142h-518zM282 710l41 186h168l-83 -186h-126z" />
    <glyph glyph-name="Ecircumflex" unicode="&#xca;" horiz-adv-x="664" 
d="M88 0v659h512v-142h-345v-114h314v-142h-314v-119h351v-142h-518zM184 710l81 186h162l81 -186h-128l-34 99l-34 -99h-128z" />
    <glyph glyph-name="Ecaron" unicode="&#x11a;" horiz-adv-x="664" 
d="M88 0v659h512v-142h-345v-114h314v-142h-314v-119h351v-142h-518zM260 710l-81 186h128l34 -99l34 99h128l-81 -186h-162z" />
    <glyph glyph-name="Edieresis" unicode="&#xcb;" horiz-adv-x="664" 
d="M88 0v659h512v-142h-345v-114h314v-142h-314v-119h351v-142h-518zM246 705c-48 0 -83 36 -83 83s36 83 83 83c48 0 83 -36 83 -83s-36 -83 -83 -83zM446 705c-47 0 -82 36 -82 83s36 83 82 83c48 0 83 -36 83 -83s-36 -83 -83 -83z" />
    <glyph glyph-name="Emacron" unicode="&#x112;" horiz-adv-x="664" 
d="M88 0v659h512v-142h-345v-114h314v-142h-314v-119h351v-142h-518zM174 709v123h344v-123h-344z" />
    <glyph glyph-name="Ebreve" unicode="&#x114;" horiz-adv-x="664" 
d="M88 0v659h512v-142h-345v-114h314v-142h-314v-119h351v-142h-518zM344 692c-86 0 -175 47 -175 165v16h126v-12c0 -47 18 -64 49 -64s49 17 49 64v12h126v-16c0 -118 -89 -165 -175 -165z" />
    <glyph glyph-name="Edotaccent" unicode="&#x116;" horiz-adv-x="664" 
d="M88 0v659h512v-142h-345v-114h314v-142h-314v-119h351v-142h-518zM341 704c-52 0 -90 39 -90 90s39 90 90 90c52 0 90 -39 90 -90s-39 -90 -90 -90z" />
    <glyph glyph-name="Eogonek" unicode="&#x118;" horiz-adv-x="664" 
d="M286 -130c0 62 40 109 87 128v2h-285v659h512v-142h-345v-114h314v-142h-314v-119h351v-142h-5c-91 0 -163 -41 -163 -91c0 -22 12 -40 45 -40c19 0 44 7 67 17l45 -117c-40 -20 -105 -29 -137 -29c-107 0 -172 46 -172 130z" />
    <glyph glyph-name="Egrave.swsh" unicode="&#xe0e2;" horiz-adv-x="653" 
d="M196 896h168l41 -186h-126zM351 -10c-154 0 -295 63 -295 201c0 75 48 136 123 147v2c-70 14 -109 65 -109 136c0 107 105 188 272 188c83 0 168 -10 257 -40l-42 -134c-70 22 -139 30 -198 30c-76 0 -117 -21 -117 -58c0 -36 35 -59 105 -59h198v-142h-214
c-68 0 -103 -25 -103 -58c0 -48 61 -69 139 -69c58 0 129 6 202 30l42 -134c-89 -31 -173 -40 -260 -40z" />
    <glyph glyph-name="Eacute.swsh" unicode="&#xe0e1;" horiz-adv-x="653" 
d="M276 710l41 186h168l-83 -186h-126zM351 -10c-154 0 -295 63 -295 201c0 75 48 136 123 147v2c-70 14 -109 65 -109 136c0 107 105 188 272 188c83 0 168 -10 257 -40l-42 -134c-70 22 -139 30 -198 30c-76 0 -117 -21 -117 -58c0 -36 35 -59 105 -59h198v-142h-214
c-68 0 -103 -25 -103 -58c0 -48 61 -69 139 -69c58 0 129 6 202 30l42 -134c-89 -31 -173 -40 -260 -40z" />
    <glyph glyph-name="Ecircumflex.swsh" unicode="&#xe0e3;" horiz-adv-x="653" 
d="M351 -10c-154 0 -295 63 -295 201c0 75 48 136 123 147v2c-70 14 -109 65 -109 136c0 107 105 188 272 188c83 0 168 -10 257 -40l-42 -134c-70 22 -139 30 -198 30c-76 0 -117 -21 -117 -58c0 -36 35 -59 105 -59h198v-142h-214c-68 0 -103 -25 -103 -58
c0 -48 61 -69 139 -69c58 0 129 6 202 30l42 -134c-89 -31 -173 -40 -260 -40zM179 710l81 186h162l81 -186h-128l-34 99l-34 -99h-128z" />
    <glyph glyph-name="Ecaron.swsh" horiz-adv-x="653" 
d="M277 710l-81 186h128l34 -99l34 99h128l-81 -186h-162zM351 -10c-154 0 -295 63 -295 201c0 75 48 136 123 147v2c-70 14 -109 65 -109 136c0 107 105 188 272 188c83 0 168 -10 257 -40l-42 -134c-70 22 -139 30 -198 30c-76 0 -117 -21 -117 -58c0 -36 35 -59 105 -59
h198v-142h-214c-68 0 -103 -25 -103 -58c0 -48 61 -69 139 -69c58 0 129 6 202 30l42 -134c-89 -31 -173 -40 -260 -40z" />
    <glyph glyph-name="Edieresis.swsh" unicode="&#xe0e4;" horiz-adv-x="653" 
d="M351 -10c-154 0 -295 63 -295 201c0 75 48 136 123 147v2c-70 14 -109 65 -109 136c0 107 105 188 272 188c83 0 168 -10 257 -40l-42 -134c-70 22 -139 30 -198 30c-76 0 -117 -21 -117 -58c0 -36 35 -59 105 -59h198v-142h-214c-68 0 -103 -25 -103 -58
c0 -48 61 -69 139 -69c58 0 129 6 202 30l42 -134c-89 -31 -173 -40 -260 -40zM239 705c-48 0 -83 36 -83 83s36 83 83 83c48 0 83 -36 83 -83s-36 -83 -83 -83zM439 705c-47 0 -82 36 -82 83s36 83 82 83c48 0 83 -36 83 -83s-36 -83 -83 -83z" />
    <glyph glyph-name="Emacron.swsh" unicode="&#xe0e5;" horiz-adv-x="653" 
d="M351 -10c-154 0 -295 63 -295 201c0 75 48 136 123 147v2c-70 14 -109 65 -109 136c0 107 105 188 272 188c83 0 168 -10 257 -40l-42 -134c-70 22 -139 30 -198 30c-76 0 -117 -21 -117 -58c0 -36 35 -59 105 -59h198v-142h-214c-68 0 -103 -25 -103 -58
c0 -48 61 -69 139 -69c58 0 129 6 202 30l42 -134c-89 -31 -173 -40 -260 -40zM164 709v123h344v-123h-344z" />
    <glyph glyph-name="Ebreve.swsh" horiz-adv-x="653" 
d="M352 692c-86 0 -175 47 -175 165v16h126v-12c0 -47 18 -64 49 -64s49 17 49 64v12h126v-16c0 -118 -89 -165 -175 -165zM351 -10c-154 0 -295 63 -295 201c0 75 48 136 123 147v2c-70 14 -109 65 -109 136c0 107 105 188 272 188c83 0 168 -10 257 -40l-42 -134
c-70 22 -139 30 -198 30c-76 0 -117 -21 -117 -58c0 -36 35 -59 105 -59h198v-142h-214c-68 0 -103 -25 -103 -58c0 -48 61 -69 139 -69c58 0 129 6 202 30l42 -134c-89 -31 -173 -40 -260 -40z" />
    <glyph glyph-name="Edotaccent.swsh" horiz-adv-x="653" 
d="M351 -10c-154 0 -295 63 -295 201c0 75 48 136 123 147v2c-70 14 -109 65 -109 136c0 107 105 188 272 188c83 0 168 -10 257 -40l-42 -134c-70 22 -139 30 -198 30c-76 0 -117 -21 -117 -58c0 -36 35 -59 105 -59h198v-142h-214c-68 0 -103 -25 -103 -58
c0 -48 61 -69 139 -69c58 0 129 6 202 30l42 -134c-89 -31 -173 -40 -260 -40zM349 704c-52 0 -90 39 -90 90s39 90 90 90c52 0 90 -39 90 -90s-39 -90 -90 -90z" />
    <glyph glyph-name="Eogonek.swsh" horiz-adv-x="653" 
d="M348 -10v2h-6c-150 0 -286 63 -286 199c0 75 48 136 123 147v2c-70 14 -109 65 -109 136c0 107 105 188 272 188c83 0 168 -10 257 -40l-42 -134c-70 22 -139 30 -198 30c-76 0 -117 -21 -117 -58c0 -36 35 -59 105 -59h198v-142h-214c-68 0 -103 -25 -103 -58
c0 -48 61 -69 139 -69c58 0 129 6 202 30l42 -134c-127 -31 -167 -86 -167 -122c0 -21 12 -39 45 -39c19 0 44 7 67 17l45 -117c-40 -20 -105 -29 -137 -29c-107 0 -172 46 -172 130c0 53 22 91 56 120z" />
    <glyph glyph-name="F_I.cap" horiz-adv-x="995" 
d="M88 0v659h522v-142h-355v-136h324v-142h-324v-239h-167zM740 0v659h167v-659h-167z" />
    <glyph glyph-name="F_L.cap" horiz-adv-x="1238" 
d="M88 0v659h522v-142h-355v-136h324v-142h-324v-239h-167zM740 0v659h167v-517h329v-142h-496z" />
    <glyph glyph-name="F_L.swshcap" horiz-adv-x="1160" 
d="M88 0v659h522v-142h-355v-136h324v-142h-324v-239h-167zM740 0v659h167v-527c217 -16 290 -219 426 -219c27 0 57 6 90 21l52 -125c-44 -25 -102 -37 -151 -37c-266 0 -306 270 -584 228z" />
    <glyph glyph-name="Gcircumflex" unicode="&#x11c;" horiz-adv-x="849" 
d="M53 322c0 201 165 342 406 342c115 0 226 -24 309 -62l-44 -131c-66 29 -156 49 -251 49c-159 0 -249 -82 -249 -201c0 -120 81 -185 240 -185c51 0 100 7 140 18v83h-190v142h357v-329c-72 -33 -196 -58 -321 -58c-248 0 -397 123 -397 332zM289 710l81 186h162l81 -186
h-128l-34 99l-34 -99h-128z" />
    <glyph glyph-name="Gbreve" unicode="&#x11e;" horiz-adv-x="849" 
d="M53 322c0 201 165 342 406 342c115 0 226 -24 309 -62l-44 -131c-66 29 -156 49 -251 49c-159 0 -249 -82 -249 -201c0 -120 81 -185 240 -185c51 0 100 7 140 18v83h-190v142h357v-329c-72 -33 -196 -58 -321 -58c-248 0 -397 123 -397 332zM438 712
c-86 0 -175 47 -175 165v16h126v-12c0 -47 18 -64 49 -64s49 17 49 64v12h126v-16c0 -118 -89 -165 -175 -165z" />
    <glyph glyph-name="Gdotaccent" unicode="&#x120;" horiz-adv-x="849" 
d="M53 322c0 201 165 342 406 342c115 0 226 -24 309 -62l-44 -131c-66 29 -156 49 -251 49c-159 0 -249 -82 -249 -201c0 -120 81 -185 240 -185c51 0 100 7 140 18v83h-190v142h357v-329c-72 -33 -196 -58 -321 -58c-248 0 -397 123 -397 332zM443 704
c-52 0 -90 39 -90 90s39 90 90 90c52 0 90 -39 90 -90s-39 -90 -90 -90z" />
    <glyph glyph-name="Gcommaaccent" unicode="&#x122;" horiz-adv-x="849" 
d="M53 322c0 201 165 342 406 342c115 0 226 -24 309 -62l-44 -131c-66 29 -156 49 -251 49c-159 0 -249 -82 -249 -201c0 -120 81 -185 240 -185c51 0 100 7 140 18v83h-190v142h357v-329c-72 -33 -196 -58 -321 -58c-248 0 -397 123 -397 332zM443 -306l-108 62
c46 51 61 119 49 191h154c18 -119 -24 -199 -95 -253z" />
    <glyph glyph-name="Gcircumflex.salt" horiz-adv-x="849" 
d="M450 -10c-248 0 -397 123 -397 332c0 201 165 342 406 342c115 0 226 -24 309 -62l-44 -131c-66 29 -156 49 -251 49c-159 0 -249 -82 -249 -201c0 -120 81 -185 240 -185c51 0 100 7 140 18v179h167v-283c-72 -33 -196 -58 -321 -58zM289 710l81 186h162l81 -186h-128
l-34 99l-34 -99h-128z" />
    <glyph glyph-name="Gbreve.salt" unicode="&#xe0e6;" horiz-adv-x="849" 
d="M428 712c-86 0 -175 47 -175 165v16h126v-12c0 -47 18 -64 49 -64s49 17 49 64v12h126v-16c0 -118 -89 -165 -175 -165zM450 -10c-248 0 -397 123 -397 332c0 201 165 342 406 342c115 0 226 -24 309 -62l-44 -131c-66 29 -156 49 -251 49c-159 0 -249 -82 -249 -201
c0 -120 81 -185 240 -185c51 0 100 7 140 18v179h167v-283c-72 -33 -196 -58 -321 -58z" />
    <glyph glyph-name="Gdotaccent.salt" horiz-adv-x="849" 
d="M450 -10c-248 0 -397 123 -397 332c0 201 165 342 406 342c115 0 226 -24 309 -62l-44 -131c-66 29 -156 49 -251 49c-159 0 -249 -82 -249 -201c0 -120 81 -185 240 -185c51 0 100 7 140 18v179h167v-283c-72 -33 -196 -58 -321 -58zM443 704c-52 0 -90 39 -90 90
s39 90 90 90c52 0 90 -39 90 -90s-39 -90 -90 -90z" />
    <glyph glyph-name="Gcommaaccent.salt" horiz-adv-x="849" 
d="M450 -10c-248 0 -397 123 -397 332c0 201 165 342 406 342c115 0 226 -24 309 -62l-44 -131c-66 29 -156 49 -251 49c-159 0 -249 -82 -249 -201c0 -120 81 -185 240 -185c51 0 100 7 140 18v179h167v-283c-72 -33 -196 -58 -321 -58zM443 -306l-108 62
c46 51 61 119 49 191h154c18 -119 -24 -199 -95 -253z" />
    <glyph glyph-name="Gcircumflex.swsh" horiz-adv-x="841" 
d="M457 -10c-251 0 -404 125 -404 332c0 208 181 342 416 342c115 0 221 -24 304 -62l-44 -131c-65 29 -151 49 -247 49c-160 0 -258 -82 -258 -201c0 -120 87 -185 231 -185c130 0 173 37 173 74c0 31 -24 50 -74 50c-46 0 -91 -12 -127 -26l-45 132c57 26 124 39 177 39
c132 0 240 -61 240 -189c0 -136 -131 -224 -342 -224zM281 710l81 186h162l81 -186h-128l-34 99l-34 -99h-128z" />
    <glyph glyph-name="Gbreve.swsh" unicode="&#xe0e7;" horiz-adv-x="841" 
d="M438 712c-86 0 -175 47 -175 165v16h126v-12c0 -47 18 -64 49 -64s49 17 49 64v12h126v-16c0 -118 -89 -165 -175 -165zM457 -10c-251 0 -404 125 -404 332c0 208 181 342 416 342c115 0 221 -24 304 -62l-44 -131c-65 29 -151 49 -247 49c-160 0 -258 -82 -258 -201
c0 -120 87 -185 231 -185c130 0 173 37 173 74c0 31 -24 50 -74 50c-46 0 -91 -12 -127 -26l-45 132c57 26 124 39 177 39c132 0 240 -61 240 -189c0 -136 -131 -224 -342 -224z" />
    <glyph glyph-name="Gdotaccent.swsh" horiz-adv-x="841" 
d="M457 -10c-251 0 -404 125 -404 332c0 208 181 342 416 342c115 0 221 -24 304 -62l-44 -131c-65 29 -151 49 -247 49c-160 0 -258 -82 -258 -201c0 -120 87 -185 231 -185c130 0 173 37 173 74c0 31 -24 50 -74 50c-46 0 -91 -12 -127 -26l-45 132c57 26 124 39 177 39
c132 0 240 -61 240 -189c0 -136 -131 -224 -342 -224zM437 704c-52 0 -90 39 -90 90s39 90 90 90c52 0 90 -39 90 -90s-39 -90 -90 -90z" />
    <glyph glyph-name="Gcommaaccent.swsh" horiz-adv-x="841" 
d="M457 -10c-251 0 -404 125 -404 332c0 208 181 342 416 342c115 0 221 -24 304 -62l-44 -131c-65 29 -151 49 -247 49c-160 0 -258 -82 -258 -201c0 -120 87 -185 231 -185c130 0 173 37 173 74c0 31 -24 50 -74 50c-46 0 -91 -12 -127 -26l-45 132c57 26 124 39 177 39
c132 0 240 -61 240 -189c0 -136 -131 -224 -342 -224zM436 -306l-108 62c46 51 61 119 49 191h154c18 -119 -24 -199 -95 -253z" />
    <glyph glyph-name="Hcircumflex" unicode="&#x124;" horiz-adv-x="834" 
d="M88 0v659h167v-256h324v256h167v-659h-167v261h-324v-261h-167zM254 710l81 186h162l81 -186h-128l-34 99l-34 -99h-128z" />
    <glyph glyph-name="Hbar" unicode="&#x126;" horiz-adv-x="834" 
d="M824 598v-128h-78v-470h-167v261h-324v-261h-167v470h-78v128h78v61h167v-61h324v61h167v-61h78zM255 403h324v67h-324v-67z" />
    <glyph glyph-name="Igrave" unicode="&#xcc;" horiz-adv-x="343" 
d="M88 0v659h167v-659h-167zM35 896h168l41 -186h-126z" />
    <glyph glyph-name="Iacute" unicode="&#xcd;" horiz-adv-x="343" 
d="M88 0v659h167v-659h-167zM98 710l41 186h168l-83 -186h-126z" />
    <glyph glyph-name="Icircumflex" unicode="&#xce;" horiz-adv-x="343" 
d="M88 0v659h167v-659h-167zM10 710l81 186h162l81 -186h-128l-34 99l-34 -99h-128z" />
    <glyph glyph-name="Itilde" unicode="&#x128;" horiz-adv-x="343" 
d="M88 0v659h167v-659h-167zM-31 712c-10 28 -13 53 -13 73c0 56 34 105 110 105c82 0 151 -64 183 -64c14 0 22 9 22 24c0 7 -1 15 -7 32h113c10 -28 13 -53 13 -73c0 -56 -34 -105 -110 -105c-82 0 -151 64 -183 64c-14 0 -22 -9 -22 -24c0 -7 1 -15 7 -32h-113z" />
    <glyph glyph-name="Idieresis" unicode="&#xcf;" horiz-adv-x="343" 
d="M74 705c-48 0 -83 36 -83 83s36 83 83 83c48 0 83 -36 83 -83s-36 -83 -83 -83zM264 705c-47 0 -82 36 -82 83s36 83 82 83c48 0 83 -36 83 -83s-36 -83 -83 -83zM88 0v659h167v-659h-167z" />
    <glyph glyph-name="Imacron" unicode="&#x12a;" horiz-adv-x="343" 
d="M88 0v659h167v-659h-167zM15 709v123h310v-123h-310z" />
    <glyph glyph-name="Ibreve" unicode="&#x12c;" horiz-adv-x="343" 
d="M88 0v659h167v-659h-167zM171 692c-86 0 -175 47 -175 165v16h126v-12c0 -47 18 -64 49 -64s49 17 49 64v12h126v-16c0 -118 -89 -165 -175 -165z" />
    <glyph glyph-name="Idotaccent" unicode="&#xe001;" horiz-adv-x="343" 
d="M88 0v659h167v-659h-167zM171 704c-52 0 -90 39 -90 90s39 90 90 90c52 0 90 -39 90 -90s-39 -90 -90 -90z" />
    <glyph glyph-name="Iogonek" unicode="&#x12e;" horiz-adv-x="343" 
d="M14 -129c0 65 32 114 74 148v640h167v-659c-60 -25 -89 -62 -89 -94c0 -23 16 -38 41 -38c17 0 37 5 53 15l38 -117c-38 -20 -85 -27 -121 -27c-91 0 -163 44 -163 132z" />
    <glyph glyph-name="IJ" unicode="&#x132;" horiz-adv-x="897" 
d="M88 0v659h167v-659h-167zM361 49l64 121c41 -25 77 -36 124 -36c48 0 93 16 93 74v451h167v-460c0 -138 -106 -209 -248 -209c-74 0 -139 19 -200 59z" />
    <glyph glyph-name="Jcircumflex" unicode="&#x134;" horiz-adv-x="554" 
d="M18 49l64 121c41 -25 77 -36 124 -36c48 0 93 16 93 74v451h167v-460c0 -138 -106 -209 -248 -209c-74 0 -139 19 -200 59zM220 710l81 186h162l81 -186h-128l-34 99l-34 -99h-128z" />
    <glyph glyph-name="Jcircumflex.swsh" horiz-adv-x="402" 
d="M86 -181c-74 0 -139 19 -200 59l64 121c41 -25 77 -36 124 -36c48 0 93 16 93 74v622h167v-631c0 -138 -106 -209 -248 -209zM87 710l81 186h162l81 -186h-128l-34 99l-34 -99h-128z" />
    <glyph glyph-name="Kcommaaccent" unicode="&#x136;" horiz-adv-x="713" 
d="M88 0v659h167v-252h2l230 252h210l-293 -293l309 -366h-210l-210 254l-38 -38v-216h-167zM358 -306l-108 62c46 51 61 119 49 191h154c18 -119 -24 -199 -95 -253z" />
    <glyph glyph-name="Kcommaaccent.swsh" horiz-adv-x="731" 
d="M88 0v659h167v-252h2l230 252h210l-303 -304c139 -80 181 -294 278 -384c32 -30 63 -48 120 -48c24 0 63 6 92 19l46 -130c-43 -17 -97 -28 -153 -28c-102 0 -175 32 -227 83c-117 114 -148 302 -266 378l-29 -29v-216h-167zM325 -306l-108 62c46 51 61 119 49 191h154
c18 -119 -24 -199 -95 -253z" />
    <glyph glyph-name="Lacute" unicode="&#x139;" horiz-adv-x="586" 
d="M88 0v659h167v-517h329v-142h-496zM103 710l41 186h168l-83 -186h-126z" />
    <glyph glyph-name="Lcaron" unicode="&#x13d;" horiz-adv-x="586" 
d="M88 0v659h167v-517h329v-142h-496zM361 520l40 220h158l-70 -220h-128z" />
    <glyph glyph-name="Lcommaaccent" unicode="&#x13b;" horiz-adv-x="586" 
d="M88 0v659h167v-517h329v-142h-496zM306 -306l-108 62c46 51 61 119 49 191h154c18 -119 -24 -199 -95 -253z" />
    <glyph glyph-name="Lslash" unicode="&#x141;" horiz-adv-x="609" 
d="M111 0v180l-47 -25l-64 119l111 59v326h167v-238l140 76l64 -119l-204 -110v-126h329v-142h-496z" />
    <glyph glyph-name="Ldot" unicode="&#x13f;" horiz-adv-x="586" 
d="M88 0v659h167v-517h329v-142h-496zM455 266c-52 0 -90 39 -90 90s39 90 90 90c52 0 90 -39 90 -90s-39 -90 -90 -90z" />
    <glyph glyph-name="Lacute.swsh" horiz-adv-x="508" 
d="M103 710l41 186h168l-83 -186h-126zM88 0v659h167v-527c217 -16 290 -219 426 -219c27 0 57 6 90 21l52 -125c-44 -25 -102 -37 -151 -37c-266 0 -306 270 -584 228z" />
    <glyph glyph-name="Lcaron.swsh" horiz-adv-x="508" 
d="M88 0v659h167v-527c217 -16 290 -219 426 -219c27 0 57 6 90 21l52 -125c-44 -25 -102 -37 -151 -37c-266 0 -306 270 -584 228zM330 520l40 220h158l-70 -220h-128z" />
    <glyph glyph-name="Lcommaaccent.swsh" horiz-adv-x="508" 
d="M88 0v659h167v-527c217 -16 290 -219 426 -219c27 0 57 6 90 21l52 -125c-44 -25 -102 -37 -151 -37c-266 0 -306 270 -584 228zM248 -381l-108 62c46 51 61 119 49 191h154c18 -119 -24 -199 -95 -253z" />
    <glyph glyph-name="Lslash.swsh" horiz-adv-x="531" 
d="M111 0v180l-47 -25l-64 119l111 59v326h167v-238l140 76l64 -119l-204 -110v-136c217 -16 290 -219 426 -219c27 0 57 6 90 21l52 -125c-44 -25 -102 -37 -151 -37c-266 0 -306 270 -584 228z" />
    <glyph glyph-name="Ldot.swsh" horiz-adv-x="508" 
d="M88 0v659h167v-527c217 -16 290 -219 426 -219c27 0 57 6 90 21l52 -125c-44 -25 -102 -37 -151 -37c-266 0 -306 270 -584 228zM423 266c-52 0 -90 39 -90 90s39 90 90 90c52 0 90 -39 90 -90s-39 -90 -90 -90z" />
    <glyph glyph-name="Nacute" unicode="&#x143;" horiz-adv-x="876" 
d="M88 0v659h145l386 -401h2v401h167v-659h-138l-393 411h-2v-411h-167zM351 710l41 186h168l-83 -186h-126z" />
    <glyph glyph-name="Ncaron" unicode="&#x147;" horiz-adv-x="876" 
d="M88 0v659h145l386 -401h2v401h167v-659h-138l-393 411h-2v-411h-167zM349 710l-81 186h128l34 -99l34 99h128l-81 -186h-162z" />
    <glyph glyph-name="Ntilde" unicode="&#xd1;" horiz-adv-x="876" 
d="M88 0v659h145l386 -401h2v401h167v-659h-138l-393 411h-2v-411h-167zM231 712c-10 28 -13 53 -13 73c0 56 34 105 110 105c82 0 151 -64 183 -64c14 0 22 9 22 24c0 7 -1 15 -7 32h113c10 -28 13 -53 13 -73c0 -56 -34 -105 -110 -105c-82 0 -151 64 -183 64
c-14 0 -22 -9 -22 -24c0 -7 1 -15 7 -32h-113z" />
    <glyph glyph-name="Ncommaaccent" unicode="&#x145;" horiz-adv-x="876" 
d="M88 0v659h145l386 -401h2v401h167v-659h-138l-393 411h-2v-411h-167zM422 -306l-108 62c46 51 61 119 49 191h154c18 -119 -24 -199 -95 -253z" />
    <glyph glyph-name="Ograve" unicode="&#xd2;" horiz-adv-x="854" 
d="M427 -10c-218 0 -374 128 -374 337s156 337 374 337s374 -128 374 -337s-156 -337 -374 -337zM427 134c136 0 203 81 203 193s-67 193 -203 193s-203 -81 -203 -193s67 -193 203 -193zM279 896h168l41 -186h-126z" />
    <glyph glyph-name="Oacute" unicode="&#xd3;" horiz-adv-x="854" 
d="M427 -10c-218 0 -374 128 -374 337s156 337 374 337s374 -128 374 -337s-156 -337 -374 -337zM427 134c136 0 203 81 203 193s-67 193 -203 193s-203 -81 -203 -193s67 -193 203 -193zM367 710l41 186h168l-83 -186h-126z" />
    <glyph glyph-name="Ocircumflex" unicode="&#xd4;" horiz-adv-x="854" 
d="M427 -10c-218 0 -374 128 -374 337s156 337 374 337s374 -128 374 -337s-156 -337 -374 -337zM427 134c136 0 203 81 203 193s-67 193 -203 193s-203 -81 -203 -193s67 -193 203 -193zM266 710l81 186h162l81 -186h-128l-34 99l-34 -99h-128z" />
    <glyph glyph-name="Otilde" unicode="&#xd5;" horiz-adv-x="854" 
d="M427 -10c-218 0 -374 128 -374 337s156 337 374 337s374 -128 374 -337s-156 -337 -374 -337zM427 134c136 0 203 81 203 193s-67 193 -203 193s-203 -81 -203 -193s67 -193 203 -193zM218 712c-10 28 -13 53 -13 73c0 56 34 105 110 105c82 0 151 -64 183 -64
c14 0 22 9 22 24c0 7 -1 15 -7 32h113c10 -28 13 -53 13 -73c0 -56 -34 -105 -110 -105c-82 0 -151 64 -183 64c-14 0 -22 -9 -22 -24c0 -7 1 -15 7 -32h-113z" />
    <glyph glyph-name="Odieresis" unicode="&#xd6;" horiz-adv-x="854" 
d="M427 -10c-218 0 -374 128 -374 337s156 337 374 337s374 -128 374 -337s-156 -337 -374 -337zM427 134c136 0 203 81 203 193s-67 193 -203 193s-203 -81 -203 -193s67 -193 203 -193zM320 705c-48 0 -83 36 -83 83s36 83 83 83c48 0 83 -36 83 -83s-36 -83 -83 -83z
M520 705c-47 0 -82 36 -82 83s36 83 82 83c48 0 83 -36 83 -83s-36 -83 -83 -83z" />
    <glyph glyph-name="Omacron" unicode="&#x14c;" horiz-adv-x="854" 
d="M427 -10c-218 0 -374 128 -374 337s156 337 374 337s374 -128 374 -337s-156 -337 -374 -337zM427 134c136 0 203 81 203 193s-67 193 -203 193s-203 -81 -203 -193s67 -193 203 -193zM255 709v123h344v-123h-344z" />
    <glyph glyph-name="Obreve" unicode="&#x14e;" horiz-adv-x="854" 
d="M427 -10c-218 0 -374 128 -374 337s156 337 374 337s374 -128 374 -337s-156 -337 -374 -337zM427 134c136 0 203 81 203 193s-67 193 -203 193s-203 -81 -203 -193s67 -193 203 -193zM428 692c-86 0 -175 47 -175 165v16h126v-12c0 -47 18 -64 49 -64s49 17 49 64v12
h126v-16c0 -118 -89 -165 -175 -165z" />
    <glyph glyph-name="Ohungarumlaut" unicode="&#x150;" horiz-adv-x="854" 
d="M427 -10c-218 0 -374 128 -374 337s156 337 374 337s374 -128 374 -337s-156 -337 -374 -337zM427 134c136 0 203 81 203 193s-67 193 -203 193s-203 -81 -203 -193s67 -193 203 -193zM288 710l41 186h158l-83 -186h-116zM466 710l41 186h158l-83 -186h-116z" />
    <glyph glyph-name="Oslash" unicode="&#xd8;" horiz-adv-x="861" 
d="M41 60l75 69c-39 53 -61 120 -61 198c0 209 158 337 378 337c81 0 153 -18 212 -50l87 80l92 -98l-76 -69c40 -54 63 -121 63 -200c0 -209 -158 -337 -378 -337c-82 0 -155 17 -215 50l-85 -78zM241 244l284 260c-27 10 -57 16 -92 16c-134 0 -207 -81 -207 -193
c0 -30 5 -58 15 -83zM339 151c23 -10 56 -17 94 -17c134 0 207 81 207 193c0 31 -6 60 -17 85z" />
    <glyph glyph-name="Oslashacute" unicode="&#x1fe;" horiz-adv-x="861" 
d="M367 710l41 186h168l-83 -186h-126zM41 60l75 69c-39 53 -61 120 -61 198c0 209 158 337 378 337c81 0 153 -18 212 -50l87 80l92 -98l-76 -69c40 -54 63 -121 63 -200c0 -209 -158 -337 -378 -337c-82 0 -155 17 -215 50l-85 -78zM241 244l284 260c-27 10 -57 16 -92 16
c-134 0 -207 -81 -207 -193c0 -30 5 -58 15 -83zM339 151c23 -10 56 -17 94 -17c134 0 207 81 207 193c0 31 -6 60 -17 85z" />
    <glyph glyph-name="OE" unicode="&#x152;" horiz-adv-x="1214" 
d="M416 -10c-211 0 -363 129 -363 337s152 337 361 337c91 0 167 -26 222 -67h2v62h512v-142h-345v-114h314v-142h-314v-119h351v-142h-518v56h-2c-55 -40 -132 -66 -220 -66zM427 134c136 0 208 81 208 193s-72 193 -208 193s-203 -81 -203 -193s67 -193 203 -193z" />
    <glyph glyph-name="Racute" unicode="&#x154;" horiz-adv-x="714" 
d="M255 368h85c37 0 64 4 83 12c32 13 45 35 45 65c0 32 -13 51 -40 62c-18 7 -42 10 -77 10h-96v-149zM88 0v659h265c68 0 119 -7 161 -23c82 -31 125 -93 125 -185c0 -98 -62 -165 -173 -185v-2c42 -24 63 -93 106 -125c14 -10 30 -16 49 -16c18 0 35 4 51 10l30 -126
c-34 -13 -75 -17 -106 -17c-46 0 -83 11 -114 29c-110 65 -135 215 -191 215h-36v-234h-167zM281 710l41 186h168l-83 -186h-126z" />
    <glyph glyph-name="Rcaron" unicode="&#x158;" horiz-adv-x="714" 
d="M255 368h85c37 0 64 4 83 12c32 13 45 35 45 65c0 32 -13 51 -40 62c-18 7 -42 10 -77 10h-96v-149zM88 0v659h265c68 0 119 -7 161 -23c82 -31 125 -93 125 -185c0 -98 -62 -165 -173 -185v-2c42 -24 63 -93 106 -125c14 -10 30 -16 49 -16c18 0 35 4 51 10l30 -126
c-34 -13 -75 -17 -106 -17c-46 0 -83 11 -114 29c-110 65 -135 215 -191 215h-36v-234h-167zM263 710l-81 186h128l34 -99l34 99h128l-81 -186h-162z" />
    <glyph glyph-name="Rcommaaccent" unicode="&#x156;" horiz-adv-x="714" 
d="M255 368h85c37 0 64 4 83 12c32 13 45 35 45 65c0 32 -13 51 -40 62c-18 7 -42 10 -77 10h-96v-149zM88 0v659h265c68 0 119 -7 161 -23c82 -31 125 -93 125 -185c0 -98 -62 -165 -173 -185v-2c42 -24 63 -93 106 -125c14 -10 30 -16 49 -16c18 0 35 4 51 10l30 -126
c-34 -13 -75 -17 -106 -17c-46 0 -83 11 -114 29c-110 65 -135 215 -191 215h-36v-234h-167zM349 -306l-108 62c46 51 61 119 49 191h154c18 -119 -24 -199 -95 -253z" />
    <glyph glyph-name="Racute.salt" horiz-adv-x="714" 
d="M274 710l41 186h168l-83 -186h-126zM88 0v659h272c180 0 279 -69 279 -208c0 -93 -55 -162 -147 -189l177 -262h-194l-149 234h-71v-234h-167zM255 368h88c89 0 125 28 125 77c0 53 -36 72 -113 72h-100v-149z" />
    <glyph glyph-name="Rcaron.salt" horiz-adv-x="714" 
d="M256 710l-81 186h128l34 -99l34 99h128l-81 -186h-162zM88 0v659h272c180 0 279 -69 279 -208c0 -93 -55 -162 -147 -189l177 -262h-194l-149 234h-71v-234h-167zM255 368h88c89 0 125 28 125 77c0 53 -36 72 -113 72h-100v-149z" />
    <glyph glyph-name="Rcommaaccent.salt" horiz-adv-x="714" 
d="M88 0v659h272c180 0 279 -69 279 -208c0 -93 -55 -162 -147 -189l177 -262h-194l-149 234h-71v-234h-167zM255 368h88c89 0 125 28 125 77c0 53 -36 72 -113 72h-100v-149zM341 -306l-108 62c46 51 61 119 49 191h154c18 -119 -24 -199 -95 -253z" />
    <glyph glyph-name="Racute.swsh" horiz-adv-x="714" 
d="M281 710l41 186h168l-83 -186h-126zM88 0v659h268c77 0 138 -12 183 -35c66 -33 100 -91 100 -173c0 -93 -57 -163 -154 -189v-3c91 -53 116 -212 197 -289c33 -31 73 -48 123 -48c31 0 69 5 98 17l45 -129c-43 -16 -96 -26 -155 -26c-95 0 -178 30 -233 82
c-137 131 -151 368 -261 368h-44v-234h-167zM255 368h84c45 0 75 6 95 17c24 13 34 33 34 60s-9 46 -29 57c-19 11 -46 15 -89 15h-95v-149z" />
    <glyph glyph-name="Rcaron.swsh" horiz-adv-x="714" 
d="M263 710l-81 186h128l34 -99l34 99h128l-81 -186h-162zM88 0v659h268c77 0 138 -12 183 -35c66 -33 100 -91 100 -173c0 -93 -57 -163 -154 -189v-3c91 -53 116 -212 197 -289c33 -31 73 -48 123 -48c31 0 69 5 98 17l45 -129c-43 -16 -96 -26 -155 -26
c-95 0 -178 30 -233 82c-137 131 -151 368 -261 368h-44v-234h-167zM255 368h84c45 0 75 6 95 17c24 13 34 33 34 60s-9 46 -29 57c-19 11 -46 15 -89 15h-95v-149z" />
    <glyph glyph-name="Rcommaaccent.swsh" horiz-adv-x="714" 
d="M88 0v659h268c77 0 138 -12 183 -35c66 -33 100 -91 100 -173c0 -93 -57 -163 -154 -189v-3c91 -53 116 -212 197 -289c33 -31 73 -48 123 -48c31 0 69 5 98 17l45 -129c-43 -16 -96 -26 -155 -26c-95 0 -178 30 -233 82c-137 131 -151 368 -261 368h-44v-234h-167z
M255 368h84c45 0 75 6 95 17c24 13 34 33 34 60s-9 46 -29 57c-19 11 -46 15 -89 15h-95v-149zM324 -306l-108 62c46 51 61 119 49 191h154c18 -119 -24 -199 -95 -253z" />
    <glyph glyph-name="Sacute" unicode="&#x15a;" horiz-adv-x="704" 
d="M43 64l65 123c62 -38 151 -57 226 -57c95 0 144 23 144 66c0 77 -253 34 -362 135c-30 28 -49 66 -49 121c0 140 123 212 279 212c100 0 219 -25 292 -68l-56 -123c-60 31 -158 51 -230 51c-82 0 -114 -23 -114 -58c0 -118 411 -6 411 -265c0 -136 -130 -211 -314 -211
c-106 0 -216 24 -292 74zM296 710l41 186h168l-83 -186h-126z" />
    <glyph glyph-name="Scircumflex" unicode="&#x15c;" horiz-adv-x="704" 
d="M43 64l65 123c62 -38 151 -57 226 -57c95 0 144 23 144 66c0 77 -253 34 -362 135c-30 28 -49 66 -49 121c0 140 123 212 279 212c100 0 219 -25 292 -68l-56 -123c-60 31 -158 51 -230 51c-82 0 -114 -23 -114 -58c0 -118 411 -6 411 -265c0 -136 -130 -211 -314 -211
c-106 0 -216 24 -292 74zM190 710l81 186h162l81 -186h-128l-34 99l-34 -99h-128z" />
    <glyph glyph-name="Scaron" unicode="&#x160;" horiz-adv-x="704" 
d="M43 64l65 123c62 -38 151 -57 226 -57c95 0 144 23 144 66c0 77 -253 34 -362 135c-30 28 -49 66 -49 121c0 140 123 212 279 212c100 0 219 -25 292 -68l-56 -123c-60 31 -158 51 -230 51c-82 0 -114 -23 -114 -58c0 -118 411 -6 411 -265c0 -136 -130 -211 -314 -211
c-106 0 -216 24 -292 74zM269 710l-81 186h128l34 -99l34 99h128l-81 -186h-162z" />
    <glyph glyph-name="Scedilla" unicode="&#x15e;" horiz-adv-x="694" 
d="M43 64l65 123c62 -38 151 -57 226 -57c95 0 144 23 144 66c0 77 -253 34 -362 135c-30 28 -49 66 -49 121c0 140 123 212 279 212c100 0 219 -25 292 -68l-56 -123c-60 31 -158 51 -230 51c-82 0 -114 -23 -114 -58c0 -118 411 -6 411 -265c0 -111 -86 -181 -217 -203
c13 -37 21 -73 21 -105c0 -80 -49 -126 -162 -126c-43 0 -96 10 -135 31l45 117c25 -13 52 -19 72 -19c24 0 39 7 39 32c0 15 -5 37 -12 63c-95 4 -190 28 -257 73z" />
    <glyph glyph-name="Scedilla" unicode="&#xf6c1;" horiz-adv-x="694" 
d="M43 64l65 123c62 -38 151 -57 226 -57c95 0 144 23 144 66c0 77 -253 34 -362 135c-30 28 -49 66 -49 121c0 140 123 212 279 212c100 0 219 -25 292 -68l-56 -123c-60 31 -158 51 -230 51c-82 0 -114 -23 -114 -58c0 -118 411 -6 411 -265c0 -111 -86 -181 -217 -203
c13 -37 21 -73 21 -105c0 -80 -49 -126 -162 -126c-43 0 -96 10 -135 31l45 117c25 -13 52 -19 72 -19c24 0 39 7 39 32c0 15 -5 37 -12 63c-95 4 -190 28 -257 73z" />
    <glyph glyph-name="Scommaaccent" unicode="&#x218;" horiz-adv-x="704" 
d="M43 64l65 123c62 -38 151 -57 226 -57c95 0 144 23 144 66c0 77 -253 34 -362 135c-30 28 -49 66 -49 121c0 140 123 212 279 212c100 0 219 -25 292 -68l-56 -123c-60 31 -158 51 -230 51c-82 0 -114 -23 -114 -58c0 -118 411 -6 411 -265c0 -136 -130 -211 -314 -211
c-106 0 -216 24 -292 74zM319 -306l-108 62c46 51 61 119 49 191h154c18 -119 -24 -199 -95 -253z" />
    <glyph glyph-name="S_S.cap" horiz-adv-x="1408" 
d="M747 64l65 123c62 -38 151 -57 226 -57c95 0 144 23 144 66c0 77 -253 34 -362 135c-30 28 -49 66 -49 121c0 140 123 212 279 212c100 0 219 -25 292 -68l-56 -123c-60 31 -158 51 -230 51c-82 0 -114 -23 -114 -58c0 -118 411 -6 411 -265c0 -136 -130 -211 -314 -211
c-106 0 -216 24 -292 74zM43 64l65 123c62 -38 151 -57 226 -57c95 0 144 23 144 66c0 77 -253 34 -362 135c-30 28 -49 66 -49 121c0 140 123 212 279 212c100 0 219 -25 292 -68l-56 -123c-60 31 -158 51 -230 51c-82 0 -114 -23 -114 -58c0 -118 411 -6 411 -265
c0 -136 -130 -211 -314 -211c-106 0 -216 24 -292 74z" />
    <glyph glyph-name="Tcaron" unicode="&#x164;" horiz-adv-x="625" 
d="M229 0v517h-227v142h621v-142h-227v-517h-167zM230 710l-81 186h128l34 -99l34 99h128l-81 -186h-162z" />
    <glyph glyph-name="Tcommaaccent" unicode="&#x162;" horiz-adv-x="625" 
d="M229 0v517h-227v142h621v-142h-227v-517h-167zM298 -306l-108 62c46 51 61 119 49 191h154c18 -119 -24 -199 -95 -253z" />
    <glyph glyph-name="Tcommaaccent" unicode="&#x21a;" horiz-adv-x="625" 
d="M229 0v517h-227v142h621v-142h-227v-517h-167zM298 -306l-108 62c46 51 61 119 49 191h154c18 -119 -24 -199 -95 -253z" />
    <glyph glyph-name="Tbar" unicode="&#x166;" horiz-adv-x="625" 
d="M524 364v-138h-128v-226h-167v226h-128v138h128v153h-227v142h621v-142h-227v-153h128z" />
    <glyph glyph-name="Ugrave" unicode="&#xd9;" horiz-adv-x="858" 
d="M429 -10c-172 0 -280 66 -320 176c-14 39 -21 84 -21 137v356h167v-340c0 -52 4 -80 14 -102c26 -58 77 -83 160 -83c79 0 131 24 157 77c12 24 17 52 17 108v340h167v-352c0 -63 -8 -113 -26 -155c-44 -101 -151 -162 -315 -162zM291 896h168l41 -186h-126z" />
    <glyph glyph-name="Uacute" unicode="&#xda;" horiz-adv-x="858" 
d="M429 -10c-172 0 -280 66 -320 176c-14 39 -21 84 -21 137v356h167v-340c0 -52 4 -80 14 -102c26 -58 77 -83 160 -83c79 0 131 24 157 77c12 24 17 52 17 108v340h167v-352c0 -63 -8 -113 -26 -155c-44 -101 -151 -162 -315 -162zM360 710l41 186h168l-83 -186h-126z" />
    <glyph glyph-name="Ucircumflex" unicode="&#xdb;" horiz-adv-x="858" 
d="M429 -10c-172 0 -280 66 -320 176c-14 39 -21 84 -21 137v356h167v-340c0 -52 4 -80 14 -102c26 -58 77 -83 160 -83c79 0 131 24 157 77c12 24 17 52 17 108v340h167v-352c0 -63 -8 -113 -26 -155c-44 -101 -151 -162 -315 -162zM268 710l81 186h162l81 -186h-128
l-34 99l-34 -99h-128z" />
    <glyph glyph-name="Utilde" unicode="&#x168;" horiz-adv-x="858" 
d="M429 -10c-172 0 -280 66 -320 176c-14 39 -21 84 -21 137v356h167v-340c0 -52 4 -80 14 -102c26 -58 77 -83 160 -83c79 0 131 24 157 77c12 24 17 52 17 108v340h167v-352c0 -63 -8 -113 -26 -155c-44 -101 -151 -162 -315 -162zM225 712c-10 28 -13 53 -13 73
c0 56 34 105 110 105c82 0 151 -64 183 -64c14 0 22 9 22 24c0 7 -1 15 -7 32h113c10 -28 13 -53 13 -73c0 -56 -34 -105 -110 -105c-82 0 -151 64 -183 64c-14 0 -22 -9 -22 -24c0 -7 1 -15 7 -32h-113z" />
    <glyph glyph-name="Udieresis" unicode="&#xdc;" horiz-adv-x="858" 
d="M429 -10c-172 0 -280 66 -320 176c-14 39 -21 84 -21 137v356h167v-340c0 -52 4 -80 14 -102c26 -58 77 -83 160 -83c79 0 131 24 157 77c12 24 17 52 17 108v340h167v-352c0 -63 -8 -113 -26 -155c-44 -101 -151 -162 -315 -162zM330 705c-48 0 -83 36 -83 83
s36 83 83 83c48 0 83 -36 83 -83s-36 -83 -83 -83zM530 705c-47 0 -82 36 -82 83s36 83 82 83c48 0 83 -36 83 -83s-36 -83 -83 -83z" />
    <glyph glyph-name="Umacron" unicode="&#x16a;" horiz-adv-x="858" 
d="M429 -10c-172 0 -280 66 -320 176c-14 39 -21 84 -21 137v356h167v-340c0 -52 4 -80 14 -102c26 -58 77 -83 160 -83c79 0 131 24 157 77c12 24 17 52 17 108v340h167v-352c0 -63 -8 -113 -26 -155c-44 -101 -151 -162 -315 -162zM256 709v123h344v-123h-344z" />
    <glyph glyph-name="Ubreve" unicode="&#x16c;" horiz-adv-x="858" 
d="M429 -10c-172 0 -280 66 -320 176c-14 39 -21 84 -21 137v356h167v-340c0 -52 4 -80 14 -102c26 -58 77 -83 160 -83c79 0 131 24 157 77c12 24 17 52 17 108v340h167v-352c0 -63 -8 -113 -26 -155c-44 -101 -151 -162 -315 -162zM427 692c-86 0 -175 47 -175 165v16h126
v-12c0 -47 18 -64 49 -64s49 17 49 64v12h126v-16c0 -118 -89 -165 -175 -165z" />
    <glyph glyph-name="Uring" unicode="&#x16e;" horiz-adv-x="858" 
d="M429 -10c-172 0 -280 66 -320 176c-14 39 -21 84 -21 137v356h167v-340c0 -52 4 -80 14 -102c26 -58 77 -83 160 -83c79 0 131 24 157 77c12 24 17 52 17 108v340h167v-352c0 -63 -8 -113 -26 -155c-44 -101 -151 -162 -315 -162zM428 686c-81 0 -146 40 -146 109
c0 68 65 108 146 108s146 -40 146 -108c0 -69 -65 -109 -146 -109zM428 764c22 0 38 12 38 31s-16 31 -38 31s-38 -12 -38 -31s16 -31 38 -31z" />
    <glyph glyph-name="Uhungarumlaut" unicode="&#x170;" horiz-adv-x="858" 
d="M429 -10c-172 0 -280 66 -320 176c-14 39 -21 84 -21 137v356h167v-340c0 -52 4 -80 14 -102c26 -58 77 -83 160 -83c79 0 131 24 157 77c12 24 17 52 17 108v340h167v-352c0 -63 -8 -113 -26 -155c-44 -101 -151 -162 -315 -162zM277 710l41 186h158l-83 -186h-116z
M455 710l41 186h158l-83 -186h-116z" />
    <glyph glyph-name="Uogonek" unicode="&#x172;" horiz-adv-x="858" 
d="M355 -7v2c-129 16 -212 77 -246 171c-14 39 -21 84 -21 137v356h167v-340c0 -52 4 -80 14 -102c26 -58 77 -83 160 -83c79 0 131 24 157 77c12 24 17 52 17 108v340h167v-352c0 -63 -7 -113 -26 -155c-47 -106 -140 -123 -235 -172c-46 -24 -72 -47 -72 -75
c0 -18 12 -36 43 -36c21 0 46 7 69 17l45 -117c-40 -20 -105 -29 -137 -29c-107 0 -172 46 -172 130c0 55 30 98 70 123z" />
    <glyph glyph-name="Wgrave" unicode="&#x1e80;" horiz-adv-x="1147" 
d="M4 659h186l157 -416h2l151 416h147l166 -416h2l144 416h184l-257 -662h-140l-171 430h-2l-154 -430h-144zM425 896h168l41 -186h-126z" />
    <glyph glyph-name="Wacute" unicode="&#x1e82;" horiz-adv-x="1147" 
d="M4 659h186l157 -416h2l151 416h147l166 -416h2l144 416h184l-257 -662h-140l-171 430h-2l-154 -430h-144zM512 710l41 186h168l-83 -186h-126z" />
    <glyph glyph-name="Wcircumflex" unicode="&#x174;" horiz-adv-x="1147" 
d="M4 659h186l157 -416h2l151 416h147l166 -416h2l144 416h184l-257 -662h-140l-171 430h-2l-154 -430h-144zM409 710l81 186h162l81 -186h-128l-34 99l-34 -99h-128z" />
    <glyph glyph-name="Wdieresis" unicode="&#x1e84;" horiz-adv-x="1147" 
d="M4 659h186l157 -416h2l151 416h147l166 -416h2l144 416h184l-257 -662h-140l-171 430h-2l-154 -430h-144zM474 705c-48 0 -83 36 -83 83s36 83 83 83c48 0 83 -36 83 -83s-36 -83 -83 -83zM674 705c-47 0 -82 36 -82 83s36 83 82 83c48 0 83 -36 83 -83s-36 -83 -83 -83z
" />
    <glyph glyph-name="Wgrave.salt" horiz-adv-x="1149" 
d="M425 896h168l41 -186h-126zM4 659h190l206 -448h2l81 175l-137 273h179l50 -112h2l47 112h179l-131 -268l89 -180h2l194 448h188l-310 -662h-148l-108 237h-2l-104 -237h-148z" />
    <glyph glyph-name="Wacute.salt" horiz-adv-x="1149" 
d="M512 710l41 186h168l-83 -186h-126zM4 659h190l206 -448h2l81 175l-137 273h179l50 -112h2l47 112h179l-131 -268l89 -180h2l194 448h188l-310 -662h-148l-108 237h-2l-104 -237h-148z" />
    <glyph glyph-name="Wcircumflex.salt" unicode="&#xe0e8;" horiz-adv-x="1149" 
d="M4 659h190l206 -448h2l81 175l-137 273h179l50 -112h2l47 112h179l-131 -268l89 -180h2l194 448h188l-310 -662h-148l-108 237h-2l-104 -237h-148zM409 710l81 186h162l81 -186h-128l-34 99l-34 -99h-128z" />
    <glyph glyph-name="Wdieresis.salt" horiz-adv-x="1149" 
d="M4 659h190l206 -448h2l81 175l-137 273h179l50 -112h2l47 112h179l-131 -268l89 -180h2l194 448h188l-310 -662h-148l-108 237h-2l-104 -237h-148zM476 705c-48 0 -83 36 -83 83s36 83 83 83c48 0 83 -36 83 -83s-36 -83 -83 -83zM676 705c-47 0 -82 36 -82 83
s36 83 82 83c48 0 83 -36 83 -83s-36 -83 -83 -83z" />
    <glyph glyph-name="Wgrave.swsh" horiz-adv-x="1161" 
d="M439 914h168l41 -186h-126zM4 659h190l215 -466h2c23 47 52 86 81 122c-58 66 -100 118 -100 198c0 107 89 177 194 177s194 -71 194 -177c0 -80 -43 -132 -101 -198c30 -35 59 -75 82 -122h2l206 466h188l-310 -662h-146c-36 86 -76 155 -115 208
c-40 -53 -80 -122 -115 -208h-146zM586 565c-25 0 -46 -21 -46 -54c0 -29 18 -62 46 -95c27 33 46 66 46 95c0 33 -21 54 -46 54z" />
    <glyph glyph-name="Wacute.swsh" horiz-adv-x="1161" 
d="M525 728l41 186h168l-83 -186h-126zM4 659h190l215 -466h2c23 47 52 86 81 122c-58 66 -100 118 -100 198c0 107 89 177 194 177s194 -71 194 -177c0 -80 -43 -132 -101 -198c30 -35 59 -75 82 -122h2l206 466h188l-310 -662h-146c-36 86 -76 155 -115 208
c-40 -53 -80 -122 -115 -208h-146zM586 565c-25 0 -46 -21 -46 -54c0 -29 18 -62 46 -95c27 33 46 66 46 95c0 33 -21 54 -46 54z" />
    <glyph glyph-name="Wcircumflex.swsh" unicode="&#xe0e9;" horiz-adv-x="1161" 
d="M4 659h190l215 -466h2c23 47 52 86 81 122c-58 66 -100 118 -100 198c0 107 89 177 194 177s194 -71 194 -177c0 -80 -43 -132 -101 -198c30 -35 59 -75 82 -122h2l206 466h188l-310 -662h-146c-36 86 -76 155 -115 208c-40 -53 -80 -122 -115 -208h-146zM586 565
c-25 0 -46 -21 -46 -54c0 -29 18 -62 46 -95c27 33 46 66 46 95c0 33 -21 54 -46 54zM422 728l81 186h162l81 -186h-128l-34 99l-34 -99h-128z" />
    <glyph glyph-name="Wdieresis.swsh" horiz-adv-x="1161" 
d="M4 659h190l215 -466h2c23 47 52 86 81 122c-58 66 -100 118 -100 198c0 107 89 177 194 177s194 -71 194 -177c0 -80 -43 -132 -101 -198c30 -35 59 -75 82 -122h2l206 466h188l-310 -662h-146c-36 86 -76 155 -115 208c-40 -53 -80 -122 -115 -208h-146zM586 565
c-25 0 -46 -21 -46 -54c0 -29 18 -62 46 -95c27 33 46 66 46 95c0 33 -21 54 -46 54zM486 723c-48 0 -83 36 -83 83s36 83 83 83c48 0 83 -36 83 -83s-36 -83 -83 -83zM686 723c-47 0 -82 36 -82 83s36 83 82 83c48 0 83 -36 83 -83s-36 -83 -83 -83z" />
    <glyph glyph-name="Ygrave" unicode="&#x1ef2;" horiz-adv-x="748" 
d="M294 0v244l-290 415h191l184 -274h2l177 274h186l-283 -415v-244h-167zM227 896h168l41 -186h-126z" />
    <glyph glyph-name="Yacute" unicode="&#xdd;" horiz-adv-x="748" 
d="M294 0v244l-290 415h191l184 -274h2l177 274h186l-283 -415v-244h-167zM315 710l41 186h168l-83 -186h-126z" />
    <glyph glyph-name="Ycircumflex" unicode="&#x176;" horiz-adv-x="748" 
d="M294 0v244l-290 415h191l184 -274h2l177 274h186l-283 -415v-244h-167zM217 710l81 186h162l81 -186h-128l-34 99l-34 -99h-128z" />
    <glyph glyph-name="Ydieresis" unicode="&#x178;" horiz-adv-x="748" 
d="M294 0v244l-290 415h191l184 -274h2l177 274h186l-283 -415v-244h-167zM278 705c-48 0 -83 36 -83 83s36 83 83 83c48 0 83 -36 83 -83s-36 -83 -83 -83zM478 705c-47 0 -82 36 -82 83s36 83 82 83c48 0 83 -36 83 -83s-36 -83 -83 -83z" />
    <glyph glyph-name="Ygrave.swsh" horiz-adv-x="741" 
d="M227 896h168l41 -186h-126zM289 0v157c0 216 -120 350 -280 376l42 137c157 -28 280 -122 321 -263h2c41 141 163 235 320 263l42 -137c-160 -26 -280 -160 -280 -376v-157h-167z" />
    <glyph glyph-name="Yacute.swsh" unicode="&#xe0f1;" horiz-adv-x="741" 
d="M299 710l41 186h168l-83 -186h-126zM289 0v157c0 216 -120 350 -280 376l42 137c157 -28 280 -122 321 -263h2c41 141 163 235 320 263l42 -137c-160 -26 -280 -160 -280 -376v-157h-167z" />
    <glyph glyph-name="Ycircumflex.swsh" unicode="&#xe0f3;" horiz-adv-x="741" 
d="M289 0v157c0 216 -120 350 -280 376l42 137c157 -28 280 -122 321 -263h2c41 141 163 235 320 263l42 -137c-160 -26 -280 -160 -280 -376v-157h-167zM209 710l81 186h162l81 -186h-128l-34 99l-34 -99h-128z" />
    <glyph glyph-name="Ydieresis.swsh" unicode="&#xe0f2;" horiz-adv-x="741" 
d="M289 0v157c0 216 -120 350 -280 376l42 137c157 -28 280 -122 321 -263h2c41 141 163 235 320 263l42 -137c-160 -26 -280 -160 -280 -376v-157h-167zM271 704c-48 0 -83 36 -83 83s36 83 83 83c48 0 83 -36 83 -83s-36 -83 -83 -83zM471 704c-47 0 -82 36 -82 83
s36 83 82 83c48 0 83 -36 83 -83s-36 -83 -83 -83z" />
    <glyph glyph-name="Zacute" unicode="&#x179;" horiz-adv-x="694" 
d="M116 0l-63 94l339 423h-337v142h515l63 -94l-339 -423h362v-142h-540zM256 710l41 186h168l-83 -186h-126z" />
    <glyph glyph-name="Zcaron" unicode="&#x17d;" horiz-adv-x="694" 
d="M116 0l-63 94l339 423h-337v142h515l63 -94l-339 -423h362v-142h-540zM261 710l-81 186h128l34 -99l34 99h128l-81 -186h-162z" />
    <glyph glyph-name="Zdotaccent" unicode="&#x17b;" horiz-adv-x="694" 
d="M116 0l-63 94l339 423h-337v142h515l63 -94l-339 -423h362v-142h-540zM329 704c-52 0 -90 39 -90 90s39 90 90 90c52 0 90 -39 90 -90s-39 -90 -90 -90z" />
    <glyph glyph-name="Eng" unicode="&#x14a;" horiz-adv-x="876" 
d="M528 -37c48 0 93 16 93 66v1l-364 381h-2v-411h-167v659h145l386 -401h2v401h167v-631c0 -138 -106 -209 -248 -209c-74 0 -139 19 -200 59l64 121c41 -25 77 -36 124 -36z" />
    <glyph glyph-name="Eth" unicode="&#xd0;" horiz-adv-x="833" 
d="M88 0v263h-88v138h88v258h277c68 0 115 -5 158 -15c143 -34 257 -130 257 -304c0 -178 -120 -270 -231 -309c-77 -27 -164 -31 -241 -31h-220zM255 142h63c60 0 107 4 146 15c81 23 145 85 145 183c0 97 -61 147 -129 166c-38 11 -77 11 -141 11h-84v-116h163v-138h-163
v-121z" />
    <glyph glyph-name="Thorn" unicode="&#xde;" horiz-adv-x="690" 
d="M88 0v659h167v-102h91c56 0 95 -5 130 -15c103 -29 168 -98 168 -207c0 -111 -67 -189 -189 -218c-33 -8 -71 -11 -123 -11h-77v-106h-167zM255 244h71c42 0 64 4 81 9c47 14 66 43 66 80s-19 63 -63 76c-17 5 -35 6 -68 6h-87v-171z" />
    <glyph glyph-name="a" unicode="a" horiz-adv-x="660" 
d="M229 -10c-113 0 -194 80 -194 211c0 111 56 193 131 244c55 37 131 62 226 62c49 0 117 -5 164 -13v-338c0 -26 15 -32 30 -32c14 0 28 4 39 9l25 -118c-30 -12 -65 -20 -103 -20c-59 0 -102 26 -118 78c-3 10 -6 23 -7 34h-2c-33 -76 -109 -117 -191 -117zM256 121
c72 0 149 80 149 243v9c-7 1 -20 2 -33 2c-50 0 -96 -14 -129 -41c-35 -28 -57 -70 -57 -124s25 -89 70 -89z" />
    <glyph glyph-name="a.fina" unicode="&#xe0c4;" horiz-adv-x="989" 
d="M229 -10c-113 0 -194 80 -194 211c0 111 56 193 131 244c55 37 131 62 226 62c49 0 117 -5 164 -13v-366c4 1 14 2 22 2c66 0 111 -31 168 -31c62 0 88 34 88 73c0 40 -31 79 -101 87l39 118c124 -14 203 -94 203 -199c0 -120 -88 -204 -214 -204c-92 0 -133 34 -214 34
c-28 0 -52 -6 -73 -17l-52 35v35v46h-2c-33 -76 -109 -117 -191 -117zM256 121c72 0 149 80 149 243v9c-7 1 -20 2 -33 2c-50 0 -96 -14 -129 -41c-35 -28 -57 -70 -57 -124s25 -89 70 -89z" />
    <glyph glyph-name="b" unicode="b" horiz-adv-x="638" 
d="M93 25v564h-101v129h252v-265v-28h2c38 52 96 82 166 82c107 0 191 -78 191 -205c0 -184 -150 -312 -337 -312c-52 0 -118 10 -173 35zM279 120c89 0 173 64 173 166c0 57 -26 89 -70 89c-72 0 -142 -77 -142 -240v-9c6 -3 21 -6 39 -6z" />
    <glyph glyph-name="b.swsh" unicode="&#xe08a;" horiz-adv-x="638" 
d="M93 25v405c0 92 12 169 35 234c-67 26 -129 47 -182 47c-68 0 -118 -35 -140 -100l-124 41c36 137 153 185 266 185c86 0 165 -28 242 -59c70 90 172 133 291 133c152 0 241 -75 241 -165c0 -105 -87 -174 -239 -174c-75 0 -147 17 -215 40c-16 -47 -24 -101 -24 -159v-9
v-19h2c38 52 96 82 166 82c107 0 191 -78 191 -205c0 -184 -150 -312 -337 -312c-52 0 -118 10 -173 35zM332 722c48 -16 97 -27 148 -27c73 0 91 23 91 47c0 23 -26 45 -88 45s-113 -24 -151 -65zM240 126c6 -3 21 -6 39 -6c89 0 173 64 173 166c0 57 -26 89 -70 89
c-72 0 -142 -77 -142 -240v-9z" />
    <glyph glyph-name="b.salt" unicode="&#xe05a;" horiz-adv-x="638" 
d="M93 196v393h-101v129h252v-293h2c38 51 100 82 164 82c113 0 193 -78 193 -205c0 -181 -146 -312 -302 -312c-137 0 -208 88 -208 206zM311 120c68 0 141 67 141 169c0 55 -27 86 -70 86c-71 0 -142 -76 -142 -173c0 -45 20 -82 71 -82z" />
    <glyph glyph-name="b.saltswsh" unicode="&#xe0b7;" horiz-adv-x="638" 
d="M93 196v234c0 92 12 169 35 234c-67 26 -129 47 -182 47c-68 0 -118 -35 -140 -100l-124 41c36 137 153 185 266 185c86 0 165 -28 242 -59c70 90 172 133 291 133c152 0 241 -75 241 -165c0 -105 -87 -174 -239 -174c-75 0 -147 17 -215 40c-16 -47 -24 -101 -24 -159
v-28h2c38 52 96 82 166 82c107 0 191 -78 191 -205c0 -181 -146 -312 -302 -312c-137 0 -208 88 -208 206zM311 120c67 0 141 66 141 166c0 57 -26 89 -70 89c-71 0 -142 -76 -142 -173c0 -45 20 -82 71 -82zM332 722c48 -16 97 -27 148 -27c73 0 91 23 91 47
c0 23 -26 45 -88 45s-113 -24 -151 -65z" />
    <glyph glyph-name="c" unicode="c" horiz-adv-x="550" 
d="M315 -10c-179 0 -280 114 -280 252c0 149 111 265 289 265c71 0 136 -16 201 -48l-48 -114c-50 22 -89 33 -142 33c-87 0 -149 -46 -149 -132c0 -88 62 -127 148 -127c50 0 99 12 148 34l45 -115c-67 -33 -142 -48 -212 -48z" />
    <glyph glyph-name="d" unicode="d" horiz-adv-x="660" 
d="M229 -10c-113 0 -194 80 -194 211c0 111 55 194 130 245c55 37 132 61 227 61h13v82h-101v129h252v-562c0 -26 15 -32 30 -32c14 0 28 4 39 9l25 -118c-30 -12 -65 -20 -103 -20c-59 0 -102 26 -118 78c-3 10 -6 23 -7 34h-2c-33 -76 -109 -117 -191 -117zM256 121
c72 0 149 80 149 243v11h-20c-59 0 -110 -13 -143 -40c-35 -29 -56 -72 -56 -127c0 -54 26 -87 70 -87z" />
    <glyph glyph-name="d.swsh" unicode="&#xe08b;" horiz-adv-x="660" 
d="M229 -10c-113 0 -194 80 -194 211c0 111 55 194 130 245c55 37 132 61 227 61h16c5 60 16 111 32 157c-67 26 -129 47 -182 47c-68 0 -118 -35 -140 -100l-124 41c36 137 153 185 266 185c86 0 165 -28 242 -59c70 90 172 133 291 133c152 0 241 -75 241 -165
c0 -105 -87 -174 -239 -174c-75 0 -147 17 -215 40c-16 -47 -24 -101 -24 -159v-297c0 -26 15 -32 30 -32c14 0 28 4 39 9l25 -118c-30 -12 -65 -20 -103 -20c-59 0 -102 26 -118 78c-3 10 -6 23 -7 34h-2c-33 -76 -109 -117 -191 -117zM256 121c72 0 149 80 149 243v11h-20
c-59 0 -110 -13 -143 -40c-35 -29 -56 -72 -56 -127c0 -54 26 -87 70 -87zM644 722c48 -16 97 -27 148 -27c73 0 91 23 91 47c0 23 -26 45 -88 45s-113 -24 -151 -65z" />
    <glyph glyph-name="d.fina" unicode="&#xe0c5;" horiz-adv-x="989" 
d="M229 -10c-113 0 -194 80 -194 211c0 111 55 194 130 245c55 37 132 61 227 61h13v82h-101v129h252v-590c4 1 14 2 22 2c66 0 111 -31 168 -31c62 0 88 34 88 73c0 40 -31 79 -101 87l39 118c124 -14 203 -94 203 -199c0 -120 -88 -204 -214 -204c-92 0 -133 34 -214 34
c-28 0 -52 -6 -73 -17l-52 35v35v46h-2c-33 -76 -109 -117 -191 -117zM256 121c72 0 149 80 149 243v11h-20c-59 0 -110 -13 -143 -40c-35 -29 -56 -72 -56 -127c0 -54 26 -87 70 -87z" />
    <glyph glyph-name="d.finaswsh" unicode="&#xe076;" horiz-adv-x="989" 
d="M229 -10c-113 0 -194 80 -194 211c0 111 55 194 130 245c55 37 132 61 227 61h16c5 59 16 111 32 157c-67 26 -129 47 -182 47c-68 0 -118 -35 -140 -100l-124 41c36 137 153 185 266 185c86 0 165 -28 242 -59c70 90 172 133 291 133c152 0 241 -75 241 -165
c0 -105 -87 -174 -239 -174c-75 0 -147 17 -215 40c-16 -47 -24 -101 -24 -159v-325c4 1 14 2 22 2c66 0 111 -31 168 -31c62 0 88 34 88 73c0 40 -31 79 -101 87l39 118c124 -14 203 -94 203 -199c0 -120 -88 -204 -214 -204c-92 0 -133 34 -214 34c-28 0 -52 -6 -73 -17
l-52 35v35v46h-2c-33 -76 -109 -117 -191 -117zM256 121c72 0 149 80 149 243v11h-20c-59 0 -110 -13 -143 -40c-35 -29 -56 -72 -56 -127c0 -54 26 -87 70 -87zM644 722c48 -16 97 -27 148 -27c73 0 91 23 91 47c0 23 -26 45 -88 45s-113 -24 -151 -65z" />
    <glyph glyph-name="e" unicode="e" horiz-adv-x="577" 
d="M318 -10c-169 0 -283 95 -283 247c0 165 126 270 297 270c123 0 208 -57 208 -157c0 -107 -95 -164 -256 -164c-27 0 -71 3 -95 8c18 -60 83 -78 135 -78c58 0 119 15 168 42l46 -113c-63 -36 -140 -55 -220 -55zM192 302c21 -3 51 -5 74 -5c93 0 123 28 123 51
c0 21 -24 33 -65 33c-57 0 -112 -26 -132 -79z" />
    <glyph glyph-name="e.salt" unicode="&#xe05b;" horiz-adv-x="586" 
d="M321 -10c-173 0 -286 93 -286 258c0 160 113 259 255 259c146 0 252 -91 252 -246c0 -22 -3 -52 -6 -69h-348c20 -62 86 -76 143 -76c55 0 107 10 155 33l45 -114c-65 -31 -134 -45 -210 -45zM188 307h201c-8 51 -50 74 -99 74c-46 0 -88 -21 -102 -74z" />
    <glyph glyph-name="f" unicode="f" horiz-adv-x="381" 
d="M44 -237c-53 0 -103 9 -143 29l39 119c42 -16 71 -19 90 -19c45 0 78 11 78 70v406h-107v129h107v21c0 148 94 206 213 206c45 0 99 -8 140 -26l-34 -121c-27 10 -60 18 -93 18c-45 0 -75 -16 -75 -70v-28h122v-129h-122v-404c0 -143 -98 -201 -215 -201z" />
    <glyph glyph-name="f.calt" unicode="&#xe0d4;" horiz-adv-x="379" 
d="M108 368h-107v129h107v21c0 148 94 206 213 206c45 0 99 -8 140 -26l-34 -121c-27 10 -60 18 -93 18c-45 0 -75 -16 -75 -70v-28h122v-129h-122v-605h-151v605z" />
    <glyph glyph-name="g" unicode="g" horiz-adv-x="632" 
d="M220 238c0 -57 33 -79 70 -79c68 0 126 78 126 203v12c-9 1 -19 1 -22 1c-116 0 -174 -56 -174 -137zM69 245c0 158 142 262 331 262c54 0 122 -6 167 -13v-284c0 -103 20 -156 20 -236c0 -128 -109 -211 -313 -211c-166 0 -279 58 -279 169c0 52 25 92 69 117
c28 16 62 28 101 38v3c-70 23 -96 87 -96 155zM277 -114c106 0 161 40 161 96c0 41 -12 79 -13 107h-2c-31 -33 -83 -52 -132 -67c-75 -22 -145 -36 -145 -79c0 -37 57 -57 131 -57z" />
    <glyph glyph-name="g.salt" unicode="&#xe05c;" horiz-adv-x="609" 
d="M238 -10c-116 0 -204 76 -204 211c0 111 56 193 131 244c55 37 131 62 226 62c49 0 117 -5 164 -13v-267c0 -97 3 -139 3 -174c0 -43 -2 -76 -9 -105c-26 -111 -123 -185 -291 -185c-90 0 -161 18 -228 50l48 119c49 -23 106 -40 172 -40c93 0 139 27 157 87
c6 21 7 50 7 79v35h-2c-30 -64 -94 -103 -174 -103zM255 121c72 0 149 80 149 243v9c-7 1 -20 2 -33 2c-50 0 -96 -14 -129 -41c-35 -28 -57 -70 -57 -124s25 -89 70 -89z" />
    <glyph glyph-name="h" unicode="h" horiz-adv-x="718" 
d="M93 0v589h-101v129h252v-336h2c43 71 115 125 204 125c109 0 164 -65 164 -166v-185c0 -26 15 -32 30 -32c14 0 28 4 39 9l25 -118c-30 -12 -65 -20 -103 -20c-78 0 -142 37 -142 138v174c0 38 -18 57 -49 57c-68 0 -135 -79 -158 -168c-13 -51 -12 -98 -12 -166v-30
h-151z" />
    <glyph glyph-name="h.swsh" unicode="&#xe08d;" horiz-adv-x="718" 
d="M93 0v430c0 92 12 169 35 234c-67 26 -129 47 -182 47c-68 0 -118 -35 -140 -100l-124 41c36 137 153 185 266 185c86 0 165 -28 242 -59c70 90 172 133 291 133c152 0 241 -75 241 -165c0 -105 -87 -174 -239 -174c-75 0 -147 17 -215 40c-16 -47 -24 -101 -24 -179v-51
h2c43 71 115 125 204 125c109 0 164 -65 164 -166v-185c0 -26 15 -32 30 -32c14 0 28 4 39 9l25 -118c-30 -12 -65 -20 -103 -20c-78 0 -142 37 -142 138v174c0 38 -18 57 -49 57c-68 0 -135 -79 -158 -168c-13 -51 -12 -98 -12 -166v-30h-151zM332 722
c48 -16 97 -27 148 -27c73 0 91 23 91 47c0 23 -26 45 -88 45s-113 -24 -151 -65z" />
    <glyph glyph-name="h.fina" unicode="&#xe0c6;" horiz-adv-x="1057" 
d="M93 0v589h-101v129h252v-336h2c43 71 115 125 204 125c109 0 164 -65 164 -166v-213c6 1 18 2 27 2c62 0 116 -31 173 -31c62 0 88 34 88 73c0 40 -31 79 -101 87l39 118c124 -14 203 -94 203 -199c0 -120 -88 -204 -214 -204c-92 0 -133 34 -223 34
c-30 0 -66 -7 -91 -17l-52 35v281c0 38 -18 57 -49 57c-68 0 -135 -79 -158 -168c-13 -51 -12 -98 -12 -166v-30h-151z" />
    <glyph glyph-name="h.finaswsh" unicode="&#xe074;" horiz-adv-x="1057" 
d="M93 0v430c0 92 12 169 35 234c-67 26 -129 47 -182 47c-68 0 -118 -35 -140 -100l-124 41c36 137 153 185 266 185c86 0 165 -28 242 -59c70 90 172 133 291 133c152 0 241 -75 241 -165c0 -105 -87 -174 -239 -174c-75 0 -147 17 -215 40c-16 -47 -24 -101 -24 -179v-51
h2c43 71 115 125 204 125c109 0 164 -65 164 -166v-213c6 1 18 2 27 2c62 0 116 -31 173 -31c62 0 88 34 88 73c0 40 -31 79 -101 87l39 118c124 -14 203 -94 203 -199c0 -120 -88 -204 -214 -204c-92 0 -133 34 -223 34c-30 0 -66 -7 -91 -17l-52 35v281
c0 38 -18 57 -49 57c-68 0 -135 -79 -158 -168c-13 -51 -12 -98 -12 -166v-30h-151zM332 722c48 -16 97 -27 148 -27c73 0 91 23 91 47c0 23 -26 45 -88 45s-113 -24 -151 -65z" />
    <glyph glyph-name="h.salt" unicode="&#xe05d;" horiz-adv-x="742" 
d="M93 0v589h-101v129h252v-221h423l60 -98c-108 -111 -190 -238 -190 -382c0 -131 71 -201 186 -203c59 -1 121 14 189 56l61 -110c-71 -48 -160 -76 -264 -75c-190 2 -319 134 -319 314c0 144 59 273 142 369h-288v-368h-151z" />
    <glyph glyph-name="h.saltswsh" unicode="&#xe0bc;" horiz-adv-x="742" 
d="M93 0v438c0 95 13 157 39 224c-69 27 -132 49 -186 49c-68 0 -118 -35 -140 -100l-124 41c36 137 153 185 266 185c88 0 168 -29 246 -61c71 91 174 135 292 135c149 0 236 -76 236 -165c0 -105 -87 -174 -239 -174c-75 0 -148 17 -216 40c-13 -29 -23 -73 -23 -115h423
l60 -98c-108 -111 -190 -238 -190 -382c0 -131 71 -201 186 -203c59 -1 121 14 189 56l61 -110c-71 -48 -160 -76 -264 -75c-190 2 -319 134 -319 314c0 144 59 273 142 369h-288v-368h-151zM330 723c49 -17 98 -28 150 -28c73 0 91 23 91 47c0 23 -26 45 -88 45
c-64 0 -115 -24 -153 -64z" />
    <glyph glyph-name="i" unicode="i" horiz-adv-x="346" 
d="M4 368v129h238v-341c0 -26 15 -32 30 -32c14 0 28 4 39 9l25 -118c-30 -12 -65 -20 -103 -20c-78 0 -142 37 -142 138v235h-87zM171 537c-52 0 -90 39 -90 90s39 90 90 90c52 0 90 -39 90 -90s-39 -90 -90 -90z" />
    <glyph glyph-name="i.fina" unicode="&#xe0c7;" horiz-adv-x="675" 
d="M91 368h-87v129h238v-369c4 1 14 2 22 2c66 0 111 -31 168 -31c62 0 88 34 88 73c0 40 -31 79 -101 87l39 118c124 -14 203 -94 203 -199c0 -120 -88 -204 -214 -204c-92 0 -133 34 -220 34c-30 0 -63 -6 -84 -17l-52 35v342zM171 537c-52 0 -90 39 -90 90s39 90 90 90
c52 0 90 -39 90 -90s-39 -90 -90 -90z" />
    <glyph glyph-name="j" unicode="j" horiz-adv-x="316" 
d="M4 368v129h238v-562c0 -106 -69 -172 -185 -172c-49 0 -88 10 -127 29l46 117c20 -10 44 -17 67 -17c30 0 48 12 48 39v437h-87zM171 537c-52 0 -90 39 -90 90s39 90 90 90c52 0 90 -39 90 -90s-39 -90 -90 -90z" />
    <glyph glyph-name="k" unicode="k" horiz-adv-x="636" 
d="M93 0v589h-101v129h252v-310h2c38 59 115 99 195 99c99 0 162 -54 162 -141c0 -93 -65 -146 -208 -166v-2c29 -13 54 -54 89 -69c10 -4 22 -7 34 -7c19 0 39 4 63 15l45 -117c-35 -19 -81 -27 -113 -27c-31 0 -58 6 -82 16c-92 38 -142 134 -172 156c-4 3 -8 5 -11 5
c-5 -30 -8 -64 -8 -101v-69h-147zM283 281c108 8 168 46 168 76c0 16 -14 24 -36 24c-39 0 -94 -28 -132 -100z" />
    <glyph glyph-name="k.calt" unicode="&#xe0d5;" horiz-adv-x="636" 
d="M93 0v430c0 92 12 169 35 234c-67 26 -129 47 -182 47c-68 0 -118 -35 -140 -100l-124 41c36 137 153 185 266 185c86 0 165 -28 242 -59c70 90 172 133 291 133c152 0 241 -75 241 -165c0 -105 -87 -174 -239 -174c-75 0 -147 17 -215 40c-16 -47 -24 -101 -24 -179v-25
h2c38 59 115 99 195 99c99 0 162 -54 162 -141c0 -93 -65 -146 -208 -166v-2c29 -13 54 -54 89 -69c10 -4 22 -7 34 -7c19 0 39 4 63 15l45 -117c-35 -19 -81 -27 -113 -27c-31 0 -58 6 -82 16c-92 38 -142 134 -172 156c-4 3 -8 5 -11 5c-5 -30 -8 -64 -8 -101v-69h-147z
M332 722c48 -16 97 -27 148 -27c73 0 91 23 91 47c0 23 -26 45 -88 45s-113 -24 -151 -65zM283 281c108 8 168 46 168 76c0 16 -14 24 -36 24c-39 0 -94 -28 -132 -100z" />
    <glyph glyph-name="k.salt" unicode="&#xe05e;" horiz-adv-x="635" 
d="M93 0v589h-101v129h252v-310h2c38 59 115 99 195 99c99 0 162 -54 162 -141c0 -88 -68 -141 -184 -160v-2c140 -127 119 -333 326 -333c31 0 70 6 99 19l42 -120c-43 -17 -93 -28 -146 -28c-305 0 -332 323 -457 416c-11 8 -22 14 -34 19c-6 -32 -9 -68 -9 -108v-69h-147
zM283 281c108 8 168 46 168 76c0 16 -14 24 -36 24c-39 0 -94 -28 -132 -100z" />
    <glyph glyph-name="k.swsh" unicode="&#xe08e;" horiz-adv-x="635" 
d="M93 0v430c0 92 12 169 35 234c-67 26 -129 47 -182 47c-68 0 -118 -35 -140 -100l-124 41c36 137 153 185 266 185c86 0 165 -28 242 -59c70 90 172 133 291 133c152 0 241 -75 241 -165c0 -105 -87 -174 -239 -174c-75 0 -147 17 -215 40c-16 -47 -24 -101 -24 -179v-25
h2c38 59 115 99 195 99c99 0 162 -54 162 -141c0 -88 -68 -141 -184 -160v-2c140 -127 119 -333 326 -333c31 0 70 6 99 19l42 -120c-43 -17 -93 -28 -146 -28c-305 0 -332 323 -457 416c-11 8 -22 14 -34 19c-6 -32 -9 -68 -9 -108v-69h-147zM332 722
c48 -16 97 -27 148 -27c73 0 91 23 91 47c0 23 -26 45 -88 45s-113 -24 -151 -65zM283 281c108 8 168 46 168 76c0 16 -14 24 -36 24c-39 0 -94 -28 -132 -100z" />
    <glyph glyph-name="l" unicode="l" horiz-adv-x="348" 
d="M-8 589v129h252v-562c0 -26 15 -32 30 -32c14 0 28 4 39 9l25 -118c-30 -12 -65 -20 -103 -20c-78 0 -142 37 -142 138v456h-101z" />
    <glyph glyph-name="l.swsh" unicode="&#xe08f;" horiz-adv-x="348" 
d="M93 133v284c0 95 13 178 38 247c-65 26 -124 47 -171 47c-58 0 -108 -35 -130 -100l-124 41c36 137 153 185 252 185c81 0 157 -29 232 -61c66 88 162 135 278 135c145 0 225 -80 225 -169c0 -100 -75 -170 -221 -170c-70 0 -139 17 -205 39c-15 -53 -23 -117 -23 -192
v-263c0 -26 15 -32 30 -32c14 0 28 4 39 9l25 -118c-30 -12 -65 -20 -103 -20c-78 0 -142 37 -142 138zM323 722c47 -16 95 -27 143 -27c54 0 76 20 76 45s-27 47 -76 47c-59 0 -107 -22 -143 -65z" />
    <glyph glyph-name="l.fina" unicode="&#xe0c8;" horiz-adv-x="687" 
d="M93 589h-101v129h252v-590c6 1 18 2 27 2c62 0 116 -31 173 -31c62 0 88 34 88 73c0 40 -31 79 -101 87l39 118c124 -14 203 -94 203 -199c0 -120 -88 -204 -214 -204c-92 0 -133 34 -223 34c-30 0 -66 -7 -91 -17l-52 35v563z" />
    <glyph glyph-name="l.finaswsh" unicode="&#xe077;" horiz-adv-x="694" 
d="M93 417c0 95 13 178 38 247c-65 26 -124 47 -171 47c-58 0 -108 -35 -130 -100l-124 41c36 137 153 185 252 185c81 0 157 -29 232 -61c66 88 162 135 278 135c145 0 225 -80 225 -169c0 -100 -75 -170 -221 -170c-70 0 -139 17 -205 39c-15 -53 -23 -117 -23 -192v-291
c6 1 18 2 27 2c62 0 116 -31 173 -31c62 0 88 34 88 73c0 40 -31 79 -101 87l39 118c124 -14 203 -94 203 -199c0 -120 -88 -204 -214 -204c-92 0 -133 34 -223 34c-30 0 -66 -7 -91 -17l-52 35v391zM323 722c47 -16 95 -27 143 -27c54 0 76 20 76 45s-27 47 -76 47
c-59 0 -107 -22 -143 -65z" />
    <glyph glyph-name="m" unicode="m" horiz-adv-x="1072" 
d="M0 368v129h252v-115h2c43 71 117 125 204 125c84 0 138 -50 149 -129v-1h2c44 75 121 130 208 130c96 0 151 -65 151 -158v-193c0 -26 15 -32 30 -32c14 0 28 4 39 9l25 -118c-30 -12 -65 -20 -103 -20c-78 0 -142 37 -142 138v170c0 44 -19 61 -52 61
c-65 0 -120 -73 -143 -169c-9 -37 -12 -82 -12 -119v-76h-151v303c0 44 -19 61 -52 61c-65 0 -120 -73 -143 -169c-9 -37 -12 -82 -12 -119v-76h-151v368h-101z" />
    <glyph glyph-name="m.fina" unicode="&#xe0c9;" horiz-adv-x="1411" 
d="M101 0v368h-101v129h252v-115h2c43 71 117 125 204 125c84 0 138 -50 149 -129v-1h2c44 75 121 130 208 130c96 0 151 -65 151 -158v-221c6 1 18 2 27 2c62 0 116 -31 173 -31c62 0 88 34 88 73c0 40 -31 79 -101 87l39 118c124 -14 203 -94 203 -199
c0 -120 -88 -204 -214 -204c-92 0 -133 34 -223 34c-30 0 -66 -7 -91 -17l-52 35v277c0 44 -19 61 -52 61c-65 0 -120 -73 -143 -169c-9 -37 -12 -82 -12 -119v-76h-151v303c0 44 -19 61 -52 61c-65 0 -120 -73 -143 -169c-9 -37 -12 -82 -12 -119v-76h-151z" />
    <glyph glyph-name="n" unicode="n" horiz-adv-x="726" 
d="M0 368v129h252v-115h2c43 71 115 125 204 125c109 0 164 -65 164 -166v-185c0 -26 15 -32 30 -32c14 0 28 4 39 9l25 -118c-30 -12 -65 -20 -103 -20c-78 0 -142 37 -142 138v174c0 38 -18 57 -49 57c-68 0 -135 -79 -158 -168c-13 -51 -12 -98 -12 -166v-30h-151v368
h-101z" />
    <glyph glyph-name="n.fina" unicode="&#xe0ca;" horiz-adv-x="1065" 
d="M101 0v368h-101v129h252v-115h2c43 71 115 125 204 125c109 0 164 -65 164 -166v-213c6 1 18 2 27 2c62 0 116 -31 173 -31c62 0 88 34 88 73c0 40 -31 79 -101 87l39 118c124 -14 203 -94 203 -199c0 -120 -88 -204 -214 -204c-92 0 -133 34 -223 34
c-30 0 -66 -7 -91 -17l-52 35v281c0 38 -18 57 -49 57c-68 0 -135 -79 -158 -168c-13 -51 -12 -98 -12 -166v-30h-151z" />
    <glyph glyph-name="o" unicode="o" horiz-adv-x="626" 
d="M313 -10c-167 0 -278 112 -278 258s111 259 278 259s278 -112 278 -258s-111 -259 -278 -259zM313 119c78 0 127 59 127 130s-49 129 -127 129s-127 -59 -127 -130s49 -129 127 -129z" />
    <glyph glyph-name="p" unicode="p" horiz-adv-x="646" 
d="M101 -237v605h-101v129h252v-44v-28h2c38 52 96 82 166 82c107 0 191 -78 191 -205c0 -187 -150 -312 -319 -312c-18 0 -32 2 -40 3v-230h-151zM252 125c8 -3 24 -5 38 -5c88 0 170 63 170 166c0 57 -26 89 -70 89c-72 0 -138 -78 -138 -241v-9z" />
    <glyph glyph-name="p.swsh" unicode="&#xe090;" horiz-adv-x="646" 
d="M101 32v336h-101v129h252v-36v-36h2c38 52 96 82 166 82c107 0 191 -78 191 -205c0 -187 -150 -312 -319 -312c-18 0 -32 2 -40 3c-7 -71 -24 -132 -47 -183c82 -47 158 -90 229 -90c63 0 104 27 145 70l95 -91c-63 -71 -146 -105 -245 -105c-110 0 -205 55 -295 109
c-70 -75 -163 -109 -261 -109c-133 0 -219 69 -219 168c0 97 80 171 214 171c76 0 146 -23 212 -55c13 42 21 92 21 154zM16 -230c-47 23 -94 39 -143 39c-52 0 -72 -23 -72 -46s23 -46 75 -46c51 0 101 15 140 53zM252 125c8 -3 24 -5 38 -5c88 0 170 63 170 166
c0 57 -26 89 -70 89c-72 0 -138 -78 -138 -241v-9z" />
    <glyph glyph-name="q" unicode="q" horiz-adv-x="616" 
d="M229 -10c-113 0 -194 80 -194 211c0 111 56 193 131 244c55 37 131 62 226 62c49 0 117 -5 164 -13v-602h104v-129h-255v210c0 31 0 81 3 117h-2c-34 -65 -101 -100 -177 -100zM256 121c72 0 149 80 149 243v9c-7 1 -20 2 -33 2c-50 0 -96 -14 -129 -41
c-35 -28 -57 -70 -57 -124s25 -89 70 -89z" />
    <glyph glyph-name="q.finaswsh" unicode="&#xe091;" horiz-adv-x="616" 
d="M229 -10c-113 0 -194 80 -194 211c0 111 56 193 131 244c55 37 131 62 226 62c49 0 117 -5 164 -13v-609c10 2 24 3 38 3c75 0 144 -35 226 -35c33 0 72 7 106 22l47 -113c-57 -30 -105 -34 -140 -34c-91 0 -161 35 -262 35c-43 0 -77 -5 -109 -18l-57 37v191
c0 31 0 81 3 117h-2c-34 -65 -101 -100 -177 -100zM256 121c72 0 149 80 149 243v9c-7 1 -20 2 -33 2c-50 0 -96 -14 -129 -41c-35 -28 -57 -70 -57 -124s25 -89 70 -89z" />
    <glyph glyph-name="q.salt" unicode="&#xe05f;" horiz-adv-x="626" 
d="M236 -1c-123 29 -201 127 -201 249c0 146 111 259 278 259s278 -112 278 -258c0 -118 -72 -213 -187 -246v-2c31 -51 115 -63 163 -63c37 0 81 4 124 17l32 -122c-59 -15 -112 -22 -159 -22c-137 0 -265 51 -328 188zM313 119c78 0 127 59 127 130s-49 129 -127 129
s-127 -59 -127 -130s49 -129 127 -129z" />
    <glyph glyph-name="q.swsh" unicode="&#xe0ba;" horiz-adv-x="626" 
d="M235 -1c-123 29 -200 127 -200 249c0 146 111 259 278 259s278 -112 278 -258c0 -119 -74 -216 -192 -246v-2c20 -47 41 -86 64 -120c72 38 148 69 231 69c137 0 224 -69 224 -168s-94 -171 -227 -171c-95 0 -185 28 -268 102c-87 -52 -179 -102 -284 -102
c-99 0 -182 34 -245 105l95 91c41 -43 82 -70 145 -70c67 0 135 33 204 73c-36 51 -70 113 -103 189zM313 119c78 0 127 59 127 130s-49 129 -127 129s-127 -59 -127 -130s49 -129 127 -129zM550 -215c45 -35 92 -51 139 -51c52 0 78 22 78 46c0 23 -24 46 -72 46
c-49 0 -96 -17 -145 -41z" />
    <glyph glyph-name="r" unicode="r" horiz-adv-x="450" 
d="M0 368v129h252v-127h2c34 84 113 143 204 137l-21 -163c-79 0 -139 -45 -168 -133c-14 -43 -17 -88 -17 -152v-59h-151v368h-101z" />
    <glyph glyph-name="r.salt" unicode="&#xe060;" horiz-adv-x="508" 
d="M101 0v368h-101v129h192c29 -52 61 -79 112 -79s86 29 121 79l112 -96c-68 -92 -134 -112 -198 -112c-30 0 -63 6 -85 18h-2v-307h-151z" />
    <glyph glyph-name="s" unicode="s" horiz-adv-x="533" 
d="M17 50l54 113c48 -29 122 -49 186 -49c53 0 84 10 84 32c0 7 -3 12 -8 16c-40 32 -214 13 -269 106c-11 19 -18 42 -18 71c0 117 105 168 215 168c79 0 155 -19 221 -46l-46 -114c-62 25 -128 36 -176 36c-40 0 -63 -12 -63 -32c0 -8 3 -14 9 -19c41 -34 203 -16 263 -96
c14 -19 23 -43 23 -75c0 -112 -100 -171 -236 -171c-76 0 -167 17 -239 60z" />
    <glyph glyph-name="t" unicode="t" horiz-adv-x="473" 
d="M-8 368v129h124v133h151v-133h166v-129h-166v-198c0 -35 25 -51 61 -51c29 0 63 11 95 29l50 -109c-50 -31 -109 -49 -173 -49c-94 0 -184 43 -184 160v218h-124z" />
    <glyph glyph-name="t.swsh" unicode="&#xe092;" horiz-adv-x="473" 
d="M116 150v218h-124v129h125c2 67 13 118 32 167c-64 26 -121 47 -168 47c-58 0 -108 -35 -130 -100l-124 41c36 137 153 185 252 185c80 0 154 -28 229 -60c66 88 164 134 281 134c145 0 225 -80 225 -169c0 -100 -75 -170 -221 -170c-70 0 -140 17 -207 40
c-10 -34 -16 -72 -17 -115h164v-129h-166v-198c0 -35 25 -51 61 -51c29 0 63 11 95 29l50 -109c-50 -31 -109 -49 -173 -49c-94 0 -184 43 -184 160zM343 723c47 -16 95 -28 144 -28c54 0 76 20 76 45s-27 47 -76 47c-60 0 -108 -22 -144 -64z" />
    <glyph glyph-name="t.fina" unicode="&#xe0cb;" horiz-adv-x="780" 
d="M116 368h-124v129h124v133h151v-133h166v-129h-166v-240c6 1 23 2 30 2c69 0 140 -31 218 -31c82 0 110 37 110 80c0 40 -31 72 -96 80l39 118c124 -14 198 -94 198 -199c0 -120 -99 -204 -239 -204c-109 0 -162 34 -252 34c-30 0 -82 -7 -107 -17l-52 35v342z" />
    <glyph glyph-name="t.finaswsh" unicode="&#xe075;" horiz-adv-x="780" 
d="M-8 368v129h125c2 67 13 118 32 167c-64 26 -121 47 -168 47c-58 0 -108 -35 -130 -100l-124 41c36 137 153 185 252 185c80 0 154 -28 229 -60c66 88 164 134 281 134c145 0 225 -80 225 -169c0 -100 -75 -170 -221 -170c-70 0 -140 17 -207 40
c-10 -34 -16 -72 -17 -115h164v-129h-166v-240c6 1 23 2 30 2c69 0 140 -31 218 -31c82 0 110 37 110 80c0 40 -31 72 -96 80l39 118c124 -14 198 -94 198 -199c0 -120 -99 -204 -239 -204c-109 0 -162 34 -252 34c-30 0 -82 -7 -107 -17l-52 35v342h-124zM343 723
c47 -16 95 -28 144 -28c54 0 76 20 76 45s-27 47 -76 47c-60 0 -108 -22 -144 -64z" />
    <glyph glyph-name="u" unicode="u" horiz-adv-x="644" 
d="M336 -10c-173 0 -255 91 -255 223v155h-87v129h238v-278c0 -58 26 -97 104 -97s104 39 104 97v278h151v-284c0 -132 -82 -223 -255 -223z" />
    <glyph glyph-name="v" unicode="v" horiz-adv-x="607" 
d="M-10 497h167l148 -327h2l145 327h165l-254 -500h-117z" />
    <glyph glyph-name="w" unicode="w" horiz-adv-x="881" 
d="M-10 497h165l112 -308h2l113 308h117l120 -309h2l106 309h164l-218 -500h-119l-114 292h-2l-107 -292h-119z" />
    <glyph glyph-name="w.swsh" unicode="&#xe093;" horiz-adv-x="898" 
d="M-10 497h165l127 -328h2c23 36 50 66 77 91c-52 47 -90 89 -90 161c0 90 73 150 180 150s180 -60 180 -150c0 -72 -39 -114 -91 -161c27 -25 54 -55 78 -91h2l123 328h165l-215 -500h-119c-36 81 -79 137 -122 181h-2c-44 -44 -87 -100 -122 -181h-119zM451 451
c-26 0 -40 -17 -40 -44c0 -24 13 -45 39 -68h2c26 23 39 44 39 68c0 27 -14 44 -40 44z" />
    <glyph glyph-name="x" unicode="x" horiz-adv-x="643" 
d="M0 0l230 252l-219 245h185l123 -147l127 147h184l-221 -244l229 -253h-185l-133 155l-136 -155h-184z" />
    <glyph glyph-name="y" unicode="y" horiz-adv-x="594" 
d="M63 -237l164 311l-237 423h166l149 -281h2l133 281h164l-381 -734h-160z" />
    <glyph glyph-name="y.salt" unicode="&#xe061;" horiz-adv-x="613" 
d="M-23 497h184c68 -85 143 -261 159 -376h3c38 96 88 258 122 376h168c-236 -633 -304 -855 -618 -855c-64 0 -148 17 -215 53l54 118c53 -29 113 -42 163 -42c124 0 206 69 206 205c0 147 -74 305 -226 521z" />
    <glyph glyph-name="y.swsh" unicode="&#xe094;" horiz-adv-x="579" 
d="M219 64l-240 433h166l148 -281h2c13 25 26 53 40 82l94 199h164l-120 -231c-105 -202 -183 -349 -257 -456c77 -42 152 -80 218 -80c63 0 104 27 145 70l95 -91c-63 -71 -146 -105 -245 -105c-110 0 -205 52 -295 103c-75 -78 -154 -113 -261 -113
c-133 0 -219 69 -219 168c0 97 80 171 214 171c82 0 160 -26 233 -62c35 49 73 111 118 193zM16 -228c-46 22 -94 37 -143 37c-52 0 -72 -23 -72 -46s23 -46 75 -46c47 0 91 12 140 55z" />
    <glyph glyph-name="z" unicode="z" horiz-adv-x="526" 
d="M34 86l243 282h-240v129h393l57 -86l-243 -282h260v-129h-413z" />
    <glyph glyph-name="agrave" unicode="&#xe0;" horiz-adv-x="660" 
d="M229 -10c-113 0 -194 80 -194 211c0 111 56 193 131 244c55 37 131 62 226 62c49 0 117 -5 164 -13v-338c0 -26 15 -32 30 -32c14 0 28 4 39 9l25 -118c-30 -12 -65 -20 -103 -20c-59 0 -102 26 -118 78c-3 10 -6 23 -7 34h-2c-33 -76 -109 -117 -191 -117zM256 121
c72 0 149 80 149 243v9c-7 1 -20 2 -33 2c-50 0 -96 -14 -129 -41c-35 -28 -57 -70 -57 -124s25 -89 70 -89zM208 725h168l41 -186h-126z" />
    <glyph glyph-name="aacute" unicode="&#xe1;" horiz-adv-x="660" 
d="M229 -10c-113 0 -194 80 -194 211c0 111 56 193 131 244c55 37 131 62 226 62c49 0 117 -5 164 -13v-338c0 -26 15 -32 30 -32c14 0 28 4 39 9l25 -118c-30 -12 -65 -20 -103 -20c-59 0 -102 26 -118 78c-3 10 -6 23 -7 34h-2c-33 -76 -109 -117 -191 -117zM256 121
c72 0 149 80 149 243v9c-7 1 -20 2 -33 2c-50 0 -96 -14 -129 -41c-35 -28 -57 -70 -57 -124s25 -89 70 -89zM275 539l41 186h168l-83 -186h-126z" />
    <glyph glyph-name="acircumflex" unicode="&#xe2;" horiz-adv-x="660" 
d="M229 -10c-113 0 -194 80 -194 211c0 111 56 193 131 244c55 37 131 62 226 62c49 0 117 -5 164 -13v-338c0 -26 15 -32 30 -32c14 0 28 4 39 9l25 -118c-30 -12 -65 -20 -103 -20c-59 0 -102 26 -118 78c-3 10 -6 23 -7 34h-2c-33 -76 -109 -117 -191 -117zM256 121
c72 0 149 80 149 243v9c-7 1 -20 2 -33 2c-50 0 -96 -14 -129 -41c-35 -28 -57 -70 -57 -124s25 -89 70 -89zM177 539l81 186h162l81 -186h-128l-34 99l-34 -99h-128z" />
    <glyph glyph-name="atilde" unicode="&#xe3;" horiz-adv-x="660" 
d="M229 -10c-113 0 -194 80 -194 211c0 111 56 193 131 244c55 37 131 62 226 62c49 0 117 -5 164 -13v-338c0 -26 15 -32 30 -32c14 0 28 4 39 9l25 -118c-30 -12 -65 -20 -103 -20c-59 0 -102 26 -118 78c-3 10 -6 23 -7 34h-2c-33 -76 -109 -117 -191 -117zM256 121
c72 0 149 80 149 243v9c-7 1 -20 2 -33 2c-50 0 -96 -14 -129 -41c-35 -28 -57 -70 -57 -124s25 -89 70 -89zM133 559c-10 28 -13 53 -13 73c0 56 34 105 110 105c82 0 151 -64 183 -64c14 0 22 9 22 24c0 7 -1 15 -7 32h113c10 -28 13 -53 13 -73c0 -56 -34 -105 -110 -105
c-82 0 -151 64 -183 64c-14 0 -22 -9 -22 -24c0 -7 1 -15 7 -32h-113z" />
    <glyph glyph-name="adieresis" unicode="&#xe4;" horiz-adv-x="660" 
d="M229 -10c-113 0 -194 80 -194 211c0 111 56 193 131 244c55 37 131 62 226 62c49 0 117 -5 164 -13v-338c0 -26 15 -32 30 -32c14 0 28 4 39 9l25 -118c-30 -12 -65 -20 -103 -20c-59 0 -102 26 -118 78c-3 10 -6 23 -7 34h-2c-33 -76 -109 -117 -191 -117zM256 121
c72 0 149 80 149 243v9c-7 1 -20 2 -33 2c-50 0 -96 -14 -129 -41c-35 -28 -57 -70 -57 -124s25 -89 70 -89zM238 544c-48 0 -83 36 -83 83s36 83 83 83c48 0 83 -36 83 -83s-36 -83 -83 -83zM438 544c-47 0 -82 36 -82 83s36 83 82 83c48 0 83 -36 83 -83s-36 -83 -83 -83z
" />
    <glyph glyph-name="amacron" unicode="&#x101;" horiz-adv-x="660" 
d="M229 -10c-113 0 -194 80 -194 211c0 111 56 193 131 244c55 37 131 62 226 62c49 0 117 -5 164 -13v-338c0 -26 15 -32 30 -32c14 0 28 4 39 9l25 -118c-30 -12 -65 -20 -103 -20c-59 0 -102 26 -118 78c-3 10 -6 23 -7 34h-2c-33 -76 -109 -117 -191 -117zM256 121
c72 0 149 80 149 243v9c-7 1 -20 2 -33 2c-50 0 -96 -14 -129 -41c-35 -28 -57 -70 -57 -124s25 -89 70 -89zM174 569v123h344v-123h-344z" />
    <glyph glyph-name="abreve" unicode="&#x103;" horiz-adv-x="660" 
d="M229 -10c-113 0 -194 80 -194 211c0 111 56 193 131 244c55 37 131 62 226 62c49 0 117 -5 164 -13v-338c0 -26 15 -32 30 -32c14 0 28 4 39 9l25 -118c-30 -12 -65 -20 -103 -20c-59 0 -102 26 -118 78c-3 10 -6 23 -7 34h-2c-33 -76 -109 -117 -191 -117zM256 121
c72 0 149 80 149 243v9c-7 1 -20 2 -33 2c-50 0 -96 -14 -129 -41c-35 -28 -57 -70 -57 -124s25 -89 70 -89zM332 544c-86 0 -175 47 -175 165v16h126v-12c0 -47 18 -64 49 -64s49 17 49 64v12h126v-16c0 -118 -89 -165 -175 -165z" />
    <glyph glyph-name="aring" unicode="&#xe5;" horiz-adv-x="660" 
d="M229 -10c-113 0 -194 80 -194 211c0 111 56 193 131 244c55 37 131 62 226 62c49 0 117 -5 164 -13v-338c0 -26 15 -32 30 -32c14 0 28 4 39 9l25 -118c-30 -12 -65 -20 -103 -20c-59 0 -102 26 -118 78c-3 10 -6 23 -7 34h-2c-33 -76 -109 -117 -191 -117zM256 121
c72 0 149 80 149 243v9c-7 1 -20 2 -33 2c-50 0 -96 -14 -129 -41c-35 -28 -57 -70 -57 -124s25 -89 70 -89zM348 550c-81 0 -146 40 -146 109c0 68 65 108 146 108s146 -40 146 -108c0 -69 -65 -109 -146 -109zM348 628c22 0 38 12 38 31s-16 31 -38 31s-38 -12 -38 -31
s16 -31 38 -31z" />
    <glyph glyph-name="aringacute" unicode="&#x1fb;" horiz-adv-x="660" 
d="M348 550c-81 0 -146 40 -146 109c0 62 53 100 124 107l34 122h168l-84 -145c31 -19 50 -47 50 -84c0 -69 -65 -109 -146 -109zM348 628c22 0 38 12 38 31s-16 31 -38 31s-38 -12 -38 -31s16 -31 38 -31zM229 -10c-113 0 -194 80 -194 211c0 111 56 193 131 244
c55 37 131 62 226 62c49 0 117 -5 164 -13v-338c0 -26 15 -32 30 -32c14 0 28 4 39 9l25 -118c-30 -12 -65 -20 -103 -20c-59 0 -102 26 -118 78c-3 10 -6 23 -7 34h-2c-33 -76 -109 -117 -191 -117zM256 121c72 0 149 80 149 243v9c-7 1 -20 2 -33 2
c-50 0 -96 -14 -129 -41c-35 -28 -57 -70 -57 -124s25 -89 70 -89z" />
    <glyph glyph-name="aogonek" unicode="&#x105;" horiz-adv-x="660" 
d="M451 31v2c-9 10 -15 22 -20 35c-4 12 -7 25 -9 39h-2c-33 -76 -109 -117 -191 -117c-113 0 -194 80 -194 211c0 111 56 193 131 244c55 37 131 62 226 62c49 0 117 -5 164 -13v-338c0 -26 15 -32 30 -32c14 0 28 4 39 9l25 -118c-114 -27 -162 -71 -162 -110
c0 -18 12 -36 43 -36c21 0 46 7 69 17l45 -117c-40 -20 -105 -29 -137 -29c-107 0 -172 46 -172 130c0 78 51 129 115 161zM256 121c72 0 149 80 149 243v9c-7 1 -20 2 -33 2c-50 0 -96 -14 -129 -41c-35 -28 -57 -70 -57 -124s25 -89 70 -89z" />
    <glyph glyph-name="agrave.fina" unicode="&#xe10f;" horiz-adv-x="989" 
d="M206 725h168l41 -186h-126zM229 -10c-113 0 -194 80 -194 211c0 111 56 193 131 244c55 37 131 62 226 62c49 0 117 -5 164 -13v-366c4 1 14 2 22 2c66 0 111 -31 168 -31c62 0 88 34 88 73c0 40 -31 79 -101 87l39 118c124 -14 203 -94 203 -199
c0 -120 -88 -204 -214 -204c-92 0 -133 34 -214 34c-28 0 -52 -6 -73 -17l-52 35v35v46h-2c-33 -76 -109 -117 -191 -117zM256 121c72 0 149 80 149 243v9c-7 1 -20 2 -33 2c-50 0 -96 -14 -129 -41c-35 -28 -57 -70 -57 -124s25 -89 70 -89z" />
    <glyph glyph-name="aacute.fina" unicode="&#xe110;" horiz-adv-x="989" 
d="M273 539l41 186h168l-83 -186h-126zM229 -10c-113 0 -194 80 -194 211c0 111 56 193 131 244c55 37 131 62 226 62c49 0 117 -5 164 -13v-366c4 1 14 2 22 2c66 0 111 -31 168 -31c62 0 88 34 88 73c0 40 -31 79 -101 87l39 118c124 -14 203 -94 203 -199
c0 -120 -88 -204 -214 -204c-92 0 -133 34 -214 34c-28 0 -52 -6 -73 -17l-52 35v35v46h-2c-33 -76 -109 -117 -191 -117zM256 121c72 0 149 80 149 243v9c-7 1 -20 2 -33 2c-50 0 -96 -14 -129 -41c-35 -28 -57 -70 -57 -124s25 -89 70 -89z" />
    <glyph glyph-name="acircumflex.fina" unicode="&#xe10e;" horiz-adv-x="989" 
d="M229 -10c-113 0 -194 80 -194 211c0 111 56 193 131 244c55 37 131 62 226 62c49 0 117 -5 164 -13v-366c4 1 14 2 22 2c66 0 111 -31 168 -31c62 0 88 34 88 73c0 40 -31 79 -101 87l39 118c124 -14 203 -94 203 -199c0 -120 -88 -204 -214 -204c-92 0 -133 34 -214 34
c-28 0 -52 -6 -73 -17l-52 35v35v46h-2c-33 -76 -109 -117 -191 -117zM256 121c72 0 149 80 149 243v9c-7 1 -20 2 -33 2c-50 0 -96 -14 -129 -41c-35 -28 -57 -70 -57 -124s25 -89 70 -89zM175 539l81 186h162l81 -186h-128l-34 99l-34 -99h-128z" />
    <glyph glyph-name="atilde.fina" unicode="&#xe10c;" horiz-adv-x="989" 
d="M131 559c-10 28 -13 53 -13 73c0 56 34 105 110 105c82 0 151 -64 183 -64c14 0 22 9 22 24c0 7 -1 15 -7 32h113c10 -28 13 -53 13 -73c0 -56 -34 -105 -110 -105c-82 0 -151 64 -183 64c-14 0 -22 -9 -22 -24c0 -7 1 -15 7 -32h-113zM229 -10c-113 0 -194 80 -194 211
c0 111 56 193 131 244c55 37 131 62 226 62c49 0 117 -5 164 -13v-366c4 1 14 2 22 2c66 0 111 -31 168 -31c62 0 88 34 88 73c0 40 -31 79 -101 87l39 118c124 -14 203 -94 203 -199c0 -120 -88 -204 -214 -204c-92 0 -133 34 -214 34c-28 0 -52 -6 -73 -17l-52 35v35v46
h-2c-33 -76 -109 -117 -191 -117zM256 121c72 0 149 80 149 243v9c-7 1 -20 2 -33 2c-50 0 -96 -14 -129 -41c-35 -28 -57 -70 -57 -124s25 -89 70 -89z" />
    <glyph glyph-name="adieresis.fina" unicode="&#xe10d;" horiz-adv-x="989" 
d="M229 -10c-113 0 -194 80 -194 211c0 111 56 193 131 244c55 37 131 62 226 62c49 0 117 -5 164 -13v-366c4 1 14 2 22 2c66 0 111 -31 168 -31c62 0 88 34 88 73c0 40 -31 79 -101 87l39 118c124 -14 203 -94 203 -199c0 -120 -88 -204 -214 -204c-92 0 -133 34 -214 34
c-28 0 -52 -6 -73 -17l-52 35v35v46h-2c-33 -76 -109 -117 -191 -117zM256 121c72 0 149 80 149 243v9c-7 1 -20 2 -33 2c-50 0 -96 -14 -129 -41c-35 -28 -57 -70 -57 -124s25 -89 70 -89zM236 544c-48 0 -83 36 -83 83s36 83 83 83c48 0 83 -36 83 -83s-36 -83 -83 -83z
M436 544c-47 0 -82 36 -82 83s36 83 82 83c48 0 83 -36 83 -83s-36 -83 -83 -83z" />
    <glyph glyph-name="amacron.fina" unicode="&#xe109;" horiz-adv-x="989" 
d="M229 -10c-113 0 -194 80 -194 211c0 111 56 193 131 244c55 37 131 62 226 62c49 0 117 -5 164 -13v-366c4 1 14 2 22 2c66 0 111 -31 168 -31c62 0 88 34 88 73c0 40 -31 79 -101 87l39 118c124 -14 203 -94 203 -199c0 -120 -88 -204 -214 -204c-92 0 -133 34 -214 34
c-28 0 -52 -6 -73 -17l-52 35v35v46h-2c-33 -76 -109 -117 -191 -117zM256 121c72 0 149 80 149 243v9c-7 1 -20 2 -33 2c-50 0 -96 -14 -129 -41c-35 -28 -57 -70 -57 -124s25 -89 70 -89zM172 569v123h344v-123h-344z" />
    <glyph glyph-name="abreve.fina" horiz-adv-x="989" 
d="M332 544c-86 0 -175 47 -175 165v16h126v-12c0 -47 18 -64 49 -64s49 17 49 64v12h126v-16c0 -118 -89 -165 -175 -165zM229 -10c-113 0 -194 80 -194 211c0 111 56 193 131 244c55 37 131 62 226 62c49 0 117 -5 164 -13v-366c4 1 14 2 22 2c66 0 111 -31 168 -31
c62 0 88 34 88 73c0 40 -31 79 -101 87l39 118c124 -14 203 -94 203 -199c0 -120 -88 -204 -214 -204c-92 0 -133 34 -214 34c-28 0 -52 -6 -73 -17l-52 35v35v46h-2c-33 -76 -109 -117 -191 -117zM256 121c72 0 149 80 149 243v9c-7 1 -20 2 -33 2c-50 0 -96 -14 -129 -41
c-35 -28 -57 -70 -57 -124s25 -89 70 -89z" />
    <glyph glyph-name="aring.fina" unicode="&#xe10b;" horiz-adv-x="989" 
d="M346 550c-81 0 -146 40 -146 109c0 68 65 108 146 108s146 -40 146 -108c0 -69 -65 -109 -146 -109zM346 628c22 0 38 12 38 31s-16 31 -38 31s-38 -12 -38 -31s16 -31 38 -31zM229 -10c-113 0 -194 80 -194 211c0 111 56 193 131 244c55 37 131 62 226 62
c49 0 117 -5 164 -13v-366c4 1 14 2 22 2c66 0 111 -31 168 -31c62 0 88 34 88 73c0 40 -31 79 -101 87l39 118c124 -14 203 -94 203 -199c0 -120 -88 -204 -214 -204c-92 0 -133 34 -214 34c-28 0 -52 -6 -73 -17l-52 35v35v46h-2c-33 -76 -109 -117 -191 -117zM256 121
c72 0 149 80 149 243v9c-7 1 -20 2 -33 2c-50 0 -96 -14 -129 -41c-35 -28 -57 -70 -57 -124s25 -89 70 -89z" />
    <glyph glyph-name="aringacute.fina" horiz-adv-x="989" 
d="M348 550c-81 0 -146 40 -146 109c0 62 53 100 124 107l34 122h168l-84 -145c31 -19 50 -47 50 -84c0 -69 -65 -109 -146 -109zM348 628c22 0 38 12 38 31s-16 31 -38 31s-38 -12 -38 -31s16 -31 38 -31zM229 -10c-113 0 -194 80 -194 211c0 111 56 193 131 244
c55 37 131 62 226 62c49 0 117 -5 164 -13v-366c4 1 14 2 22 2c66 0 111 -31 168 -31c62 0 88 34 88 73c0 40 -31 79 -101 87l39 118c124 -14 203 -94 203 -199c0 -120 -88 -204 -214 -204c-92 0 -133 34 -214 34c-28 0 -52 -6 -73 -17l-52 35v35v46h-2
c-33 -76 -109 -117 -191 -117zM256 121c72 0 149 80 149 243v9c-7 1 -20 2 -33 2c-50 0 -96 -14 -129 -41c-35 -28 -57 -70 -57 -124s25 -89 70 -89z" />
    <glyph glyph-name="aogonek.fina" horiz-adv-x="989" 
d="M256 121c72 0 149 80 149 243v9c-7 1 -20 2 -33 2c-50 0 -96 -14 -129 -41c-35 -28 -57 -70 -57 -124s25 -89 70 -89zM714 -29c-61 0 -100 11 -149 11c-51 0 -77 -26 -77 -62c0 -34 23 -51 54 -51c22 0 43 7 58 16l45 -116c-40 -20 -91 -29 -137 -29
c-84 0 -172 37 -172 137c0 73 44 129 117 159v2c-12 14 -19 25 -24 39c-3 8 -5 20 -7 30h-2c-33 -76 -109 -117 -191 -117c-113 0 -194 80 -194 211c0 111 56 193 131 244c55 37 131 62 226 62c49 0 117 -5 164 -13v-306c0 -69 54 -92 147 -92c99 0 131 37 131 76
c0 40 -31 79 -101 87l39 118c124 -14 203 -94 203 -199c0 -142 -114 -207 -261 -207z" />
    <glyph glyph-name="ae" unicode="&#xe6;" horiz-adv-x="994" 
d="M55 152c0 110 97 162 231 162c45 0 82 -4 117 -6c-20 54 -77 73 -134 73c-52 0 -104 -11 -151 -33l-46 113c67 32 134 46 202 46c106 0 171 -34 218 -94h2c52 57 129 94 223 94c123 0 208 -54 208 -157c0 -107 -95 -166 -256 -166c-32 0 -64 2 -93 5
c22 -53 85 -73 141 -73c50 0 111 15 160 42l46 -113c-61 -35 -129 -55 -212 -55c-99 0 -180 35 -228 95h-2c-46 -58 -125 -95 -220 -95c-115 0 -206 55 -206 162zM578 300c22 -1 46 -3 73 -3c93 0 123 28 123 51c0 21 -24 33 -65 33c-51 0 -114 -24 -131 -81zM206 154
c0 -29 30 -38 67 -38c54 0 116 25 131 78c-30 2 -68 5 -109 5c-61 0 -89 -17 -89 -45z" />
    <glyph glyph-name="aeacute" unicode="&#x1fd;" horiz-adv-x="994" 
d="M55 152c0 110 97 162 231 162c45 0 82 -4 117 -6c-20 54 -77 73 -134 73c-52 0 -104 -11 -151 -33l-46 113c67 32 134 46 202 46c106 0 171 -34 218 -94h2c52 57 129 94 223 94c123 0 208 -54 208 -157c0 -107 -95 -166 -256 -166c-32 0 -64 2 -93 5
c22 -53 85 -73 141 -73c50 0 111 15 160 42l46 -113c-61 -35 -129 -55 -212 -55c-99 0 -180 35 -228 95h-2c-46 -58 -125 -95 -220 -95c-115 0 -206 55 -206 162zM578 300c22 -1 46 -3 73 -3c93 0 123 28 123 51c0 21 -24 33 -65 33c-51 0 -114 -24 -131 -81zM206 154
c0 -29 30 -38 67 -38c54 0 116 25 131 78c-30 2 -68 5 -109 5c-61 0 -89 -17 -89 -45zM437 539l41 186h168l-83 -186h-126z" />
    <glyph glyph-name="cacute" unicode="&#x107;" horiz-adv-x="550" 
d="M315 -10c-179 0 -280 114 -280 252c0 149 111 265 289 265c71 0 136 -16 201 -48l-48 -114c-50 22 -89 33 -142 33c-87 0 -149 -46 -149 -132c0 -88 62 -127 148 -127c50 0 99 12 148 34l45 -115c-67 -33 -142 -48 -212 -48zM254 539l41 186h168l-83 -186h-126z" />
    <glyph glyph-name="ccircumflex" unicode="&#x109;" horiz-adv-x="550" 
d="M315 -10c-179 0 -280 114 -280 252c0 149 111 265 289 265c71 0 136 -16 201 -48l-48 -114c-50 22 -89 33 -142 33c-87 0 -149 -46 -149 -132c0 -88 62 -127 148 -127c50 0 99 12 148 34l45 -115c-67 -33 -142 -48 -212 -48zM146 539l81 186h162l81 -186h-128l-34 99
l-34 -99h-128z" />
    <glyph glyph-name="ccaron" unicode="&#x10d;" horiz-adv-x="550" 
d="M315 -10c-179 0 -280 114 -280 252c0 149 111 265 289 265c71 0 136 -16 201 -48l-48 -114c-50 22 -89 33 -142 33c-87 0 -149 -46 -149 -132c0 -88 62 -127 148 -127c50 0 99 12 148 34l45 -115c-67 -33 -142 -48 -212 -48zM228 539l-81 186h128l34 -99l34 99h128
l-81 -186h-162z" />
    <glyph glyph-name="cdotaccent" unicode="&#x10b;" horiz-adv-x="550" 
d="M315 -10c-179 0 -280 114 -280 252c0 149 111 265 289 265c71 0 136 -16 201 -48l-48 -114c-50 22 -89 33 -142 33c-87 0 -149 -46 -149 -132c0 -88 62 -127 148 -127c50 0 99 12 148 34l45 -115c-67 -33 -142 -48 -212 -48zM312 537c-52 0 -90 39 -90 90s39 90 90 90
c52 0 90 -39 90 -90s-39 -90 -90 -90z" />
    <glyph glyph-name="ccedilla" unicode="&#xe7;" horiz-adv-x="550" 
d="M105 -202l45 117c25 -13 52 -19 72 -19c24 0 39 7 39 32c0 16 -5 40 -14 68c-136 25 -212 126 -212 246c0 149 111 265 289 265c71 0 136 -16 201 -48l-48 -114c-50 22 -89 33 -142 33c-87 0 -149 -46 -149 -132c0 -88 62 -127 148 -127c50 0 99 12 148 34l45 -115
c-46 -23 -95 -37 -144 -43c12 -36 19 -71 19 -102c0 -80 -49 -126 -162 -126c-43 0 -96 10 -135 31z" />
    <glyph glyph-name="dcaron" unicode="&#x10f;" horiz-adv-x="660" 
d="M229 -10c-113 0 -194 80 -194 211c0 111 55 194 130 245c55 37 132 61 227 61h13v82h-101v129h252v-562c0 -26 15 -32 30 -32c14 0 28 4 39 9l25 -118c-30 -12 -65 -20 -103 -20c-59 0 -102 26 -118 78c-3 10 -6 23 -7 34h-2c-33 -76 -109 -117 -191 -117zM256 121
c72 0 149 80 149 243v11h-20c-59 0 -110 -13 -143 -40c-35 -29 -56 -72 -56 -127c0 -54 26 -87 70 -87zM599 520l40 220h158l-70 -220h-128z" />
    <glyph glyph-name="dcroat" unicode="&#x111;" horiz-adv-x="660" 
d="M238 491v98h167v24h-101v105h252v-129h77v-98h-77v-335c0 -26 15 -32 30 -32c14 0 28 4 39 9l25 -118c-30 -12 -65 -20 -103 -20c-59 0 -102 26 -118 78c-3 10 -6 23 -7 34h-2c-33 -76 -109 -117 -191 -117c-111 0 -194 72 -194 201c0 91 38 159 97 204
c65 50 155 73 253 73h20v23h-167zM256 121c72 0 149 79 149 211v11h-20c-64 0 -123 -15 -160 -49c-25 -23 -39 -54 -39 -94c0 -50 29 -79 70 -79z" />
    <glyph glyph-name="dcroat.fina" horiz-adv-x="989" 
d="M238 491v98h167v24h-101v105h252v-129h77v-98h-77v-363c4 1 14 2 22 2c66 0 111 -31 168 -31c62 0 88 34 88 73c0 40 -31 79 -101 87l39 118c124 -14 203 -94 203 -199c0 -120 -88 -204 -214 -204c-92 0 -133 34 -214 34c-28 0 -52 -6 -73 -17l-52 35v35v46h-2
c-33 -76 -109 -117 -191 -117c-111 0 -194 72 -194 201c0 91 38 159 97 204c65 50 155 73 253 73h20v23h-167zM256 121c72 0 149 79 149 211v11h-20c-64 0 -123 -15 -160 -49c-25 -23 -39 -54 -39 -94c0 -50 29 -79 70 -79z" />
    <glyph glyph-name="egrave" unicode="&#xe8;" horiz-adv-x="577" 
d="M318 -10c-169 0 -283 95 -283 247c0 165 126 270 297 270c123 0 208 -57 208 -157c0 -107 -95 -164 -256 -164c-27 0 -71 3 -95 8c18 -60 83 -78 135 -78c58 0 119 15 168 42l46 -113c-63 -36 -140 -55 -220 -55zM192 302c21 -3 51 -5 74 -5c93 0 123 28 123 51
c0 21 -24 33 -65 33c-57 0 -112 -26 -132 -79zM171 725h168l41 -186h-126z" />
    <glyph glyph-name="eacute" unicode="&#xe9;" horiz-adv-x="577" 
d="M318 -10c-169 0 -283 95 -283 247c0 165 126 270 297 270c123 0 208 -57 208 -157c0 -107 -95 -164 -256 -164c-27 0 -71 3 -95 8c18 -60 83 -78 135 -78c58 0 119 15 168 42l46 -113c-63 -36 -140 -55 -220 -55zM192 302c21 -3 51 -5 74 -5c93 0 123 28 123 51
c0 21 -24 33 -65 33c-57 0 -112 -26 -132 -79zM234 539l41 186h168l-83 -186h-126z" />
    <glyph glyph-name="ecircumflex" unicode="&#xea;" horiz-adv-x="577" 
d="M318 -10c-169 0 -283 95 -283 247c0 165 126 270 297 270c123 0 208 -57 208 -157c0 -107 -95 -164 -256 -164c-27 0 -71 3 -95 8c18 -60 83 -78 135 -78c58 0 119 15 168 42l46 -113c-63 -36 -140 -55 -220 -55zM192 302c21 -3 51 -5 74 -5c93 0 123 28 123 51
c0 21 -24 33 -65 33c-57 0 -112 -26 -132 -79zM146 539l81 186h162l81 -186h-128l-34 99l-34 -99h-128z" />
    <glyph glyph-name="ecaron" unicode="&#x11b;" horiz-adv-x="577" 
d="M318 -10c-169 0 -283 95 -283 247c0 165 126 270 297 270c123 0 208 -57 208 -157c0 -107 -95 -164 -256 -164c-27 0 -71 3 -95 8c18 -60 83 -78 135 -78c58 0 119 15 168 42l46 -113c-63 -36 -140 -55 -220 -55zM192 302c21 -3 51 -5 74 -5c93 0 123 28 123 51
c0 21 -24 33 -65 33c-57 0 -112 -26 -132 -79zM239 539l-81 186h128l34 -99l34 99h128l-81 -186h-162z" />
    <glyph glyph-name="edieresis" unicode="&#xeb;" horiz-adv-x="577" 
d="M318 -10c-169 0 -283 95 -283 247c0 165 126 270 297 270c123 0 208 -57 208 -157c0 -107 -95 -164 -256 -164c-27 0 -71 3 -95 8c18 -60 83 -78 135 -78c58 0 119 15 168 42l46 -113c-63 -36 -140 -55 -220 -55zM192 302c21 -3 51 -5 74 -5c93 0 123 28 123 51
c0 21 -24 33 -65 33c-57 0 -112 -26 -132 -79zM204 544c-48 0 -83 36 -83 83s36 83 83 83c48 0 83 -36 83 -83s-36 -83 -83 -83zM404 544c-47 0 -82 36 -82 83s36 83 82 83c48 0 83 -36 83 -83s-36 -83 -83 -83z" />
    <glyph glyph-name="emacron" unicode="&#x113;" horiz-adv-x="577" 
d="M318 -10c-169 0 -283 95 -283 247c0 165 126 270 297 270c123 0 208 -57 208 -157c0 -107 -95 -164 -256 -164c-27 0 -71 3 -95 8c18 -60 83 -78 135 -78c58 0 119 15 168 42l46 -113c-63 -36 -140 -55 -220 -55zM192 302c21 -3 51 -5 74 -5c93 0 123 28 123 51
c0 21 -24 33 -65 33c-57 0 -112 -26 -132 -79zM135 569v123h344v-123h-344z" />
    <glyph glyph-name="ebreve" unicode="&#x115;" horiz-adv-x="577" 
d="M318 -10c-169 0 -283 95 -283 247c0 165 126 270 297 270c123 0 208 -57 208 -157c0 -107 -95 -164 -256 -164c-27 0 -71 3 -95 8c18 -60 83 -78 135 -78c58 0 119 15 168 42l46 -113c-63 -36 -140 -55 -220 -55zM192 302c21 -3 51 -5 74 -5c93 0 123 28 123 51
c0 21 -24 33 -65 33c-57 0 -112 -26 -132 -79zM305 544c-86 0 -175 47 -175 165v16h126v-12c0 -47 18 -64 49 -64s49 17 49 64v12h126v-16c0 -118 -89 -165 -175 -165z" />
    <glyph glyph-name="edotaccent" unicode="&#x117;" horiz-adv-x="577" 
d="M318 -10c-169 0 -283 95 -283 247c0 165 126 270 297 270c123 0 208 -57 208 -157c0 -107 -95 -164 -256 -164c-27 0 -71 3 -95 8c18 -60 83 -78 135 -78c58 0 119 15 168 42l46 -113c-63 -36 -140 -55 -220 -55zM192 302c21 -3 51 -5 74 -5c93 0 123 28 123 51
c0 21 -24 33 -65 33c-57 0 -112 -26 -132 -79zM309 537c-52 0 -90 39 -90 90s39 90 90 90c52 0 90 -39 90 -90s-39 -90 -90 -90z" />
    <glyph glyph-name="eogonek" unicode="&#x119;" horiz-adv-x="577" 
d="M35 237c0 165 126 270 297 270c123 0 208 -57 208 -157c0 -107 -95 -164 -256 -164c-27 0 -71 3 -95 8c18 -60 83 -78 135 -78c58 0 119 15 168 42l46 -113c-123 -49 -177 -90 -177 -137c0 -26 18 -39 43 -39c23 0 46 7 69 17l45 -117c-40 -20 -105 -29 -137 -29
c-107 0 -172 46 -172 130c0 54 27 91 66 120v2c-145 14 -240 106 -240 245zM192 302c21 -3 51 -5 74 -5c93 0 123 28 123 51c0 21 -24 33 -65 33c-57 0 -112 -26 -132 -79z" />
    <glyph glyph-name="egrave.salt" unicode="&#xe0dc;" horiz-adv-x="586" 
d="M158 725h168l41 -186h-126zM321 -10c-173 0 -286 93 -286 258c0 160 113 259 255 259c146 0 252 -91 252 -246c0 -22 -3 -52 -6 -69h-348c20 -62 86 -76 143 -76c55 0 107 10 155 33l45 -114c-65 -31 -134 -45 -210 -45zM188 307h201c-8 51 -50 74 -99 74
c-46 0 -88 -21 -102 -74z" />
    <glyph glyph-name="eacute.salt" unicode="&#xe0db;" horiz-adv-x="586" 
d="M233 539l41 186h168l-83 -186h-126zM321 -10c-173 0 -286 93 -286 258c0 160 113 259 255 259c146 0 252 -91 252 -246c0 -22 -3 -52 -6 -69h-348c20 -62 86 -76 143 -76c55 0 107 10 155 33l45 -114c-65 -31 -134 -45 -210 -45zM188 307h201c-8 51 -50 74 -99 74
c-46 0 -88 -21 -102 -74z" />
    <glyph glyph-name="ecircumflex.salt" unicode="&#xe0dd;" horiz-adv-x="586" 
d="M321 -10c-173 0 -286 93 -286 258c0 160 113 259 255 259c146 0 252 -91 252 -246c0 -22 -3 -52 -6 -69h-348c20 -62 86 -76 143 -76c55 0 107 10 155 33l45 -114c-65 -31 -134 -45 -210 -45zM188 307h201c-8 51 -50 74 -99 74c-46 0 -88 -21 -102 -74zM137 539l81 186
h162l81 -186h-128l-34 99l-34 -99h-128z" />
    <glyph glyph-name="ecaron.salt" horiz-adv-x="586" 
d="M215 539l-81 186h128l34 -99l34 99h128l-81 -186h-162zM321 -10c-173 0 -286 93 -286 258c0 160 113 259 255 259c146 0 252 -91 252 -246c0 -22 -3 -52 -6 -69h-348c20 -62 86 -76 143 -76c55 0 107 10 155 33l45 -114c-65 -31 -134 -45 -210 -45zM188 307h201
c-8 51 -50 74 -99 74c-46 0 -88 -21 -102 -74z" />
    <glyph glyph-name="edieresis.salt" unicode="&#xe0de;" horiz-adv-x="586" 
d="M321 -10c-173 0 -286 93 -286 258c0 160 113 259 255 259c146 0 252 -91 252 -246c0 -22 -3 -52 -6 -69h-348c20 -62 86 -76 143 -76c55 0 107 10 155 33l45 -114c-65 -31 -134 -45 -210 -45zM188 307h201c-8 51 -50 74 -99 74c-46 0 -88 -21 -102 -74zM197 544
c-48 0 -83 36 -83 83s36 83 83 83c48 0 83 -36 83 -83s-36 -83 -83 -83zM397 544c-47 0 -82 36 -82 83s36 83 82 83c48 0 83 -36 83 -83s-36 -83 -83 -83z" />
    <glyph glyph-name="emacron.salt" unicode="&#xe0df;" horiz-adv-x="586" 
d="M321 -10c-173 0 -286 93 -286 258c0 160 113 259 255 259c146 0 252 -91 252 -246c0 -22 -3 -52 -6 -69h-348c20 -62 86 -76 143 -76c55 0 107 10 155 33l45 -114c-65 -31 -134 -45 -210 -45zM188 307h201c-8 51 -50 74 -99 74c-46 0 -88 -21 -102 -74zM122 569v123h344
v-123h-344z" />
    <glyph glyph-name="ebreve.salt" horiz-adv-x="586" 
d="M296 544c-86 0 -175 47 -175 165v16h126v-12c0 -47 18 -64 49 -64s49 17 49 64v12h126v-16c0 -118 -89 -165 -175 -165zM321 -10c-173 0 -286 93 -286 258c0 160 113 259 255 259c146 0 252 -91 252 -246c0 -22 -3 -52 -6 -69h-348c20 -62 86 -76 143 -76
c55 0 107 10 155 33l45 -114c-65 -31 -134 -45 -210 -45zM188 307h201c-8 51 -50 74 -99 74c-46 0 -88 -21 -102 -74z" />
    <glyph glyph-name="edotaccent.salt" horiz-adv-x="586" 
d="M321 -10c-173 0 -286 93 -286 258c0 160 113 259 255 259c146 0 252 -91 252 -246c0 -22 -3 -52 -6 -69h-348c20 -62 86 -76 143 -76c55 0 107 10 155 33l45 -114c-65 -31 -134 -45 -210 -45zM188 307h201c-8 51 -50 74 -99 74c-46 0 -88 -21 -102 -74zM293 537
c-52 0 -90 39 -90 90s39 90 90 90c52 0 90 -39 90 -90s-39 -90 -90 -90z" />
    <glyph glyph-name="eogonek.salt" horiz-adv-x="586" 
d="M35 248c0 160 113 259 255 259c146 0 252 -91 252 -246c0 -22 -3 -52 -6 -69h-348c20 -62 86 -76 143 -76c55 0 107 10 155 33l45 -114c-116 -42 -170 -80 -170 -127c0 -26 18 -39 43 -39c23 0 46 7 69 17l45 -117c-40 -20 -105 -29 -137 -29c-107 0 -172 46 -172 130
c0 54 27 91 66 120v2c-147 16 -240 106 -240 256zM188 307h201c-8 51 -50 74 -99 74c-46 0 -88 -21 -102 -74z" />
    <glyph glyph-name="gcircumflex" unicode="&#x11d;" horiz-adv-x="632" 
d="M220 238c0 -57 33 -79 70 -79c68 0 126 78 126 203v12c-9 1 -19 1 -22 1c-116 0 -174 -56 -174 -137zM69 245c0 158 142 262 331 262c54 0 122 -6 167 -13v-284c0 -103 20 -156 20 -236c0 -128 -109 -211 -313 -211c-166 0 -279 58 -279 169c0 52 25 92 69 117
c28 16 62 28 101 38v3c-70 23 -96 87 -96 155zM277 -114c106 0 161 40 161 96c0 41 -12 79 -13 107h-2c-31 -33 -83 -52 -132 -67c-75 -22 -145 -36 -145 -79c0 -37 57 -57 131 -57zM183 539l81 186h162l81 -186h-128l-34 99l-34 -99h-128z" />
    <glyph glyph-name="gbreve" unicode="&#x11f;" horiz-adv-x="632" 
d="M220 238c0 -57 33 -79 70 -79c68 0 126 78 126 203v12c-9 1 -19 1 -22 1c-116 0 -174 -56 -174 -137zM69 245c0 158 142 262 331 262c54 0 122 -6 167 -13v-284c0 -103 20 -156 20 -236c0 -128 -109 -211 -313 -211c-166 0 -279 58 -279 169c0 52 25 92 69 117
c28 16 62 28 101 38v3c-70 23 -96 87 -96 155zM277 -114c106 0 161 40 161 96c0 41 -12 79 -13 107h-2c-31 -33 -83 -52 -132 -67c-75 -22 -145 -36 -145 -79c0 -37 57 -57 131 -57zM350 544c-86 0 -175 47 -175 165v16h126v-12c0 -47 18 -64 49 -64s49 17 49 64v12h126v-16
c0 -118 -89 -165 -175 -165z" />
    <glyph glyph-name="gdotaccent" unicode="&#x121;" horiz-adv-x="632" 
d="M220 238c0 -57 33 -79 70 -79c68 0 126 78 126 203v12c-9 1 -19 1 -22 1c-116 0 -174 -56 -174 -137zM69 245c0 158 142 262 331 262c54 0 122 -6 167 -13v-284c0 -103 20 -156 20 -236c0 -128 -109 -211 -313 -211c-166 0 -279 58 -279 169c0 52 25 92 69 117
c28 16 62 28 101 38v3c-70 23 -96 87 -96 155zM277 -114c106 0 161 40 161 96c0 41 -12 79 -13 107h-2c-31 -33 -83 -52 -132 -67c-75 -22 -145 -36 -145 -79c0 -37 57 -57 131 -57zM348 537c-52 0 -90 39 -90 90s39 90 90 90c52 0 90 -39 90 -90s-39 -90 -90 -90z" />
    <glyph glyph-name="gcommaaccent" unicode="&#x123;" horiz-adv-x="632" 
d="M220 238c0 -57 33 -79 70 -79c68 0 126 78 126 203v12c-9 1 -19 1 -22 1c-116 0 -174 -56 -174 -137zM69 245c0 158 142 262 331 262c54 0 122 -6 167 -13v-284c0 -103 20 -156 20 -236c0 -128 -109 -211 -313 -211c-166 0 -279 58 -279 169c0 52 25 92 69 117
c28 16 62 28 101 38v3c-70 23 -96 87 -96 155zM277 -114c106 0 161 40 161 96c0 41 -12 79 -13 107h-2c-31 -33 -83 -52 -132 -67c-75 -22 -145 -36 -145 -79c0 -37 57 -57 131 -57zM365 792l108 -62c-46 -51 -61 -119 -49 -191h-154c-18 119 24 199 95 253z" />
    <glyph glyph-name="gcircumflex.salt" horiz-adv-x="609" 
d="M238 -10c-116 0 -204 76 -204 211c0 111 56 193 131 244c55 37 131 62 226 62c49 0 117 -5 164 -13v-267c0 -97 3 -139 3 -174c0 -43 -2 -76 -9 -105c-26 -111 -123 -185 -291 -185c-90 0 -161 18 -228 50l48 119c49 -23 106 -40 172 -40c93 0 139 27 157 87
c6 21 7 50 7 79v35h-2c-30 -64 -94 -103 -174 -103zM255 121c72 0 149 80 149 243v9c-7 1 -20 2 -33 2c-50 0 -96 -14 -129 -41c-35 -28 -57 -70 -57 -124s25 -89 70 -89zM180 539l81 186h162l81 -186h-128l-34 99l-34 -99h-128z" />
    <glyph glyph-name="gbreve.salt" unicode="&#xe0e0;" horiz-adv-x="609" 
d="M334 544c-86 0 -175 47 -175 165v16h126v-12c0 -47 18 -64 49 -64s49 17 49 64v12h126v-16c0 -118 -89 -165 -175 -165zM238 -10c-116 0 -204 76 -204 211c0 111 56 193 131 244c55 37 131 62 226 62c49 0 117 -5 164 -13v-267c0 -97 3 -139 3 -174c0 -43 -2 -76 -9 -105
c-26 -111 -123 -185 -291 -185c-90 0 -161 18 -228 50l48 119c49 -23 106 -40 172 -40c93 0 139 27 157 87c6 21 7 50 7 79v35h-2c-30 -64 -94 -103 -174 -103zM255 121c72 0 149 80 149 243v9c-7 1 -20 2 -33 2c-50 0 -96 -14 -129 -41c-35 -28 -57 -70 -57 -124
s25 -89 70 -89z" />
    <glyph glyph-name="gdotaccent.salt" horiz-adv-x="609" 
d="M238 -10c-116 0 -204 76 -204 211c0 111 56 193 131 244c55 37 131 62 226 62c49 0 117 -5 164 -13v-267c0 -97 3 -139 3 -174c0 -43 -2 -76 -9 -105c-26 -111 -123 -185 -291 -185c-90 0 -161 18 -228 50l48 119c49 -23 106 -40 172 -40c93 0 139 27 157 87
c6 21 7 50 7 79v35h-2c-30 -64 -94 -103 -174 -103zM255 121c72 0 149 80 149 243v9c-7 1 -20 2 -33 2c-50 0 -96 -14 -129 -41c-35 -28 -57 -70 -57 -124s25 -89 70 -89zM336 537c-52 0 -90 39 -90 90s39 90 90 90c52 0 90 -39 90 -90s-39 -90 -90 -90z" />
    <glyph glyph-name="gcommaaccent.salt" horiz-adv-x="609" 
d="M238 -10c-116 0 -204 76 -204 211c0 111 56 193 131 244c55 37 131 62 226 62c49 0 117 -5 164 -13v-267c0 -97 3 -139 3 -174c0 -43 -2 -76 -9 -105c-26 -111 -123 -185 -291 -185c-90 0 -161 18 -228 50l48 119c49 -23 106 -40 172 -40c93 0 139 27 157 87
c6 21 7 50 7 79v35h-2c-30 -64 -94 -103 -174 -103zM255 121c72 0 149 80 149 243v9c-7 1 -20 2 -33 2c-50 0 -96 -14 -129 -41c-35 -28 -57 -70 -57 -124s25 -89 70 -89zM360 792l108 -62c-46 -51 -61 -119 -49 -191h-154c-18 119 24 199 95 253z" />
    <glyph glyph-name="hcircumflex" unicode="&#x125;" horiz-adv-x="718" 
d="M93 0v589h-101v129h252v-336h2c43 71 115 125 204 125c109 0 164 -65 164 -166v-185c0 -26 15 -32 30 -32c14 0 28 4 39 9l25 -118c-30 -12 -65 -20 -103 -20c-78 0 -142 37 -142 138v174c0 38 -18 57 -49 57c-68 0 -135 -79 -158 -168c-13 -51 -12 -98 -12 -166v-30
h-151zM5 749l81 186h162l81 -186h-128l-34 99l-34 -99h-128z" />
    <glyph glyph-name="hbar" unicode="&#x127;" horiz-adv-x="718" 
d="M-8 491v98h101v24h-101v105h252v-129h143v-98h-143v-148h2c43 71 115 125 204 125c109 0 164 -65 164 -166v-146c0 -26 15 -32 30 -32c14 0 28 4 39 9l25 -118c-30 -12 -65 -20 -103 -20c-78 0 -142 37 -142 138v135c0 38 -18 57 -49 57c-68 0 -135 -79 -158 -168
c-13 -51 -12 -91 -12 -141v-16h-151v491h-101z" />
    <glyph glyph-name="hcircumflex.fina" horiz-adv-x="1057" 
d="M93 0v589h-101v129h252v-336h2c43 71 115 125 204 125c109 0 164 -65 164 -166v-213c6 1 18 2 27 2c62 0 116 -31 173 -31c62 0 88 34 88 73c0 40 -31 79 -101 87l39 118c124 -14 203 -94 203 -199c0 -120 -88 -204 -214 -204c-92 0 -133 34 -223 34
c-30 0 -66 -7 -91 -17l-52 35v281c0 38 -18 57 -49 57c-68 0 -135 -79 -158 -168c-13 -51 -12 -98 -12 -166v-30h-151zM5 749l81 186h162l81 -186h-128l-34 99l-34 -99h-128z" />
    <glyph glyph-name="hbar.fina" horiz-adv-x="1057" 
d="M614 302v-174c6 1 18 2 27 2c62 0 116 -31 173 -31c62 0 88 34 88 73c0 40 -31 79 -101 87l39 118c124 -14 203 -94 203 -199c0 -120 -88 -204 -214 -204c-92 0 -133 34 -223 34c-30 0 -66 -7 -91 -17l-52 35v242c0 38 -18 57 -49 57c-68 0 -135 -79 -158 -168
c-13 -51 -12 -91 -12 -141v-16h-151v491h-101v98h101v24h-101v105h252v-129h143v-98h-143v-148h2c43 71 115 125 204 125c109 0 164 -65 164 -166z" />
    <glyph glyph-name="hcircumflex.salt" horiz-adv-x="742" 
d="M93 0v589h-101v129h252v-221h423l60 -98c-108 -111 -190 -238 -190 -382c0 -131 71 -201 186 -203c59 -1 121 14 189 56l61 -110c-71 -48 -160 -76 -264 -75c-190 2 -319 134 -319 314c0 144 59 273 142 369h-288v-368h-151zM5 749l81 186h162l81 -186h-128l-34 99
l-34 -99h-128z" />
    <glyph glyph-name="hbar.salt" horiz-adv-x="742" 
d="M-8 491v98h101v24h-101v105h252v-129h143v-98h-143v-33h423l59 -95c-111 -111 -189 -210 -189 -352c0 -127 73 -195 186 -197c59 -1 121 14 189 56l61 -110c-71 -48 -160 -76 -264 -75c-188 2 -319 132 -319 310c0 131 49 237 129 334h-275v-329h-151v491h-101z" />
    <glyph glyph-name="igrave" unicode="&#xec;" horiz-adv-x="346" 
d="M31 725h168l41 -186h-126zM4 368v129h238v-341c0 -26 15 -32 30 -32c14 0 28 4 39 9l25 -118c-30 -12 -65 -20 -103 -20c-78 0 -142 37 -142 138v235h-87z" />
    <glyph glyph-name="iacute" unicode="&#xed;" horiz-adv-x="346" 
d="M75 539l41 186h168l-83 -186h-126zM4 368v129h238v-341c0 -26 15 -32 30 -32c14 0 28 4 39 9l25 -118c-30 -12 -65 -20 -103 -20c-78 0 -142 37 -142 138v235h-87z" />
    <glyph glyph-name="icircumflex" unicode="&#xee;" horiz-adv-x="346" 
d="M4 368v129h238v-341c0 -26 15 -32 30 -32c14 0 28 4 39 9l25 -118c-30 -12 -65 -20 -103 -20c-78 0 -142 37 -142 138v235h-87zM4 539l81 186h162l81 -186h-128l-34 99l-34 -99h-128z" />
    <glyph glyph-name="itilde" unicode="&#x129;" horiz-adv-x="346" 
d="M-31 559c-10 28 -13 53 -13 73c0 56 34 105 110 105c82 0 151 -64 183 -64c14 0 22 9 22 24c0 7 -1 15 -7 32h113c10 -28 13 -53 13 -73c0 -56 -34 -105 -110 -105c-82 0 -151 64 -183 64c-14 0 -22 -9 -22 -24c0 -7 1 -15 7 -32h-113zM4 368v129h238v-341
c0 -26 15 -32 30 -32c14 0 28 4 39 9l25 -118c-30 -12 -65 -20 -103 -20c-78 0 -142 37 -142 138v235h-87z" />
    <glyph glyph-name="idieresis" unicode="&#xef;" horiz-adv-x="346" 
d="M4 368v129h238v-341c0 -26 15 -32 30 -32c14 0 28 4 39 9l25 -118c-30 -12 -65 -20 -103 -20c-78 0 -142 37 -142 138v235h-87zM72 544c-48 0 -83 36 -83 83s36 83 83 83c48 0 83 -36 83 -83s-36 -83 -83 -83zM262 544c-47 0 -82 36 -82 83s36 83 82 83
c48 0 83 -36 83 -83s-36 -83 -83 -83z" />
    <glyph glyph-name="imacron" unicode="&#x12b;" horiz-adv-x="346" 
d="M4 368v129h238v-341c0 -26 15 -32 30 -32c14 0 28 4 39 9l25 -118c-30 -12 -65 -20 -103 -20c-78 0 -142 37 -142 138v235h-87zM12 569v123h310v-123h-310z" />
    <glyph glyph-name="ibreve" horiz-adv-x="346" 
d="M168 544c-86 0 -175 47 -175 165v16h126v-12c0 -47 18 -64 49 -64s49 17 49 64v12h126v-16c0 -118 -89 -165 -175 -165zM4 368v129h238v-341c0 -26 15 -32 30 -32c14 0 28 4 39 9l25 -118c-30 -12 -65 -20 -103 -20c-78 0 -142 37 -142 138v235h-87z" />
    <glyph glyph-name="iogonek" unicode="&#x12f;" horiz-adv-x="346" 
d="M127 29v2c-22 22 -36 55 -36 102v235h-87v129h238v-341c0 -26 15 -32 30 -32c14 0 28 4 39 9l25 -118c-40 -15 -84 -21 -117 -46c-22 -17 -30 -40 -30 -58c0 -28 17 -43 41 -43c17 0 37 5 53 15l38 -117c-38 -20 -85 -27 -121 -27c-84 0 -163 43 -163 139
c0 66 38 118 90 151zM171 537c-52 0 -90 39 -90 90s39 90 90 90c52 0 90 -39 90 -90s-39 -90 -90 -90z" />
    <glyph glyph-name="dotlessi" unicode="&#x131;" horiz-adv-x="346" 
d="M4 368v129h238v-341c0 -26 15 -32 30 -32c14 0 28 4 39 9l25 -118c-30 -12 -65 -20 -103 -20c-78 0 -142 37 -142 138v235h-87z" />
    <glyph glyph-name="igrave.fina" unicode="&#xe111;" horiz-adv-x="675" 
d="M31 725h168l41 -186h-126zM91 368h-87v129h238v-369c4 1 14 2 22 2c66 0 111 -31 168 -31c62 0 88 34 88 73c0 40 -31 79 -101 87l39 118c124 -14 203 -94 203 -199c0 -120 -88 -204 -214 -204c-92 0 -133 34 -220 34c-30 0 -63 -6 -84 -17l-52 35v342z" />
    <glyph glyph-name="iacute.fina" unicode="&#xe10a;" horiz-adv-x="675" 
d="M75 539l41 186h168l-83 -186h-126zM91 368h-87v129h238v-369c4 1 14 2 22 2c66 0 111 -31 168 -31c62 0 88 34 88 73c0 40 -31 79 -101 87l39 118c124 -14 203 -94 203 -199c0 -120 -88 -204 -214 -204c-92 0 -133 34 -220 34c-30 0 -63 -6 -84 -17l-52 35v342z" />
    <glyph glyph-name="icircumflex.fina" unicode="&#xe112;" horiz-adv-x="675" 
d="M4 539l81 186h162l81 -186h-128l-34 99l-34 -99h-128zM91 368h-87v129h238v-369c4 1 14 2 22 2c66 0 111 -31 168 -31c62 0 88 34 88 73c0 40 -31 79 -101 87l39 118c124 -14 203 -94 203 -199c0 -120 -88 -204 -214 -204c-92 0 -133 34 -220 34c-30 0 -63 -6 -84 -17
l-52 35v342z" />
    <glyph glyph-name="itilde.fina" horiz-adv-x="675" 
d="M-31 559c-10 28 -13 53 -13 73c0 56 34 105 110 105c82 0 151 -64 183 -64c14 0 22 9 22 24c0 7 -1 15 -7 32h113c10 -28 13 -53 13 -73c0 -56 -34 -105 -110 -105c-82 0 -151 64 -183 64c-14 0 -22 -9 -22 -24c0 -7 1 -15 7 -32h-113zM91 368h-87v129h238v-369
c4 1 14 2 22 2c66 0 111 -31 168 -31c62 0 88 34 88 73c0 40 -31 79 -101 87l39 118c124 -14 203 -94 203 -199c0 -120 -88 -204 -214 -204c-92 0 -133 34 -220 34c-30 0 -63 -6 -84 -17l-52 35v342z" />
    <glyph glyph-name="idieresis.fina" unicode="&#xe113;" horiz-adv-x="675" 
d="M4 368v129h238v-369c4 1 14 2 22 2c66 0 111 -31 168 -31c62 0 88 34 88 73c0 40 -31 79 -101 87l39 118c124 -14 203 -94 203 -199c0 -120 -88 -204 -214 -204c-92 0 -133 34 -220 34c-30 0 -63 -6 -84 -17l-52 35v342h-87zM72 544c-48 0 -83 36 -83 83s36 83 83 83
c48 0 83 -36 83 -83s-36 -83 -83 -83zM262 544c-47 0 -82 36 -82 83s36 83 82 83c48 0 83 -36 83 -83s-36 -83 -83 -83z" />
    <glyph glyph-name="imacron.fina" unicode="&#xe114;" horiz-adv-x="675" 
d="M4 368v129h238v-369c4 1 14 2 22 2c66 0 111 -31 168 -31c62 0 88 34 88 73c0 40 -31 79 -101 87l39 118c124 -14 203 -94 203 -199c0 -120 -88 -204 -214 -204c-92 0 -133 34 -220 34c-30 0 -63 -6 -84 -17l-52 35v342h-87zM12 569v123h310v-123h-310z" />
    <glyph glyph-name="ibreve.fina" horiz-adv-x="675" 
d="M168 544c-86 0 -175 47 -175 165v16h126v-12c0 -47 18 -64 49 -64s49 17 49 64v12h126v-16c0 -118 -89 -165 -175 -165zM91 368h-87v129h238v-369c4 1 14 2 22 2c66 0 111 -31 168 -31c62 0 88 34 88 73c0 40 -31 79 -101 87l39 118c124 -14 203 -94 203 -199
c0 -120 -88 -204 -214 -204c-92 0 -133 34 -220 34c-30 0 -63 -6 -84 -17l-52 35v342z" />
    <glyph glyph-name="iogonek.fina" horiz-adv-x="675" 
d="M171 537c-52 0 -90 39 -90 90s39 90 90 90c52 0 90 -39 90 -90s-39 -90 -90 -90zM263 -19c-48 0 -74 -29 -74 -67c0 -31 19 -46 46 -46c14 0 33 5 49 13l37 -115c-38 -20 -85 -27 -121 -27c-84 0 -163 43 -163 139c0 66 34 126 100 163v2c-26 21 -46 58 -46 105v220h-87
v129h238v-309c0 -69 54 -92 147 -92c99 0 131 37 131 76c0 40 -31 79 -101 87l39 118c124 -14 203 -94 203 -199c0 -142 -114 -207 -261 -207c-61 0 -92 10 -137 10z" />
    <glyph glyph-name="dotlessi.fina" unicode="&#xe107;" horiz-adv-x="675" 
d="M91 368h-87v129h238v-369c4 1 14 2 22 2c66 0 111 -31 168 -31c62 0 88 34 88 73c0 40 -31 79 -101 87l39 118c124 -14 203 -94 203 -199c0 -120 -88 -204 -214 -204c-92 0 -133 34 -220 34c-30 0 -63 -6 -84 -17l-52 35v342z" />
    <glyph glyph-name="ij" unicode="&#x133;" horiz-adv-x="662" 
d="M4 368v129h238v-341c0 -26 15 -32 30 -32c14 0 28 4 39 9l25 -118c-30 -12 -65 -20 -103 -20c-78 0 -142 37 -142 138v235h-87zM171 537c-52 0 -90 39 -90 90s39 90 90 90c52 0 90 -39 90 -90s-39 -90 -90 -90zM350 368v129h238v-562c0 -106 -69 -172 -185 -172
c-49 0 -88 10 -127 29l46 117c20 -10 44 -17 67 -17c30 0 48 12 48 39v437h-87zM517 537c-52 0 -90 39 -90 90s39 90 90 90c52 0 90 -39 90 -90s-39 -90 -90 -90z" />
    <glyph glyph-name="jcircumflex" unicode="&#x135;" horiz-adv-x="316" 
d="M4 368v129h238v-562c0 -106 -69 -172 -185 -172c-49 0 -88 10 -127 29l46 117c20 -10 44 -17 67 -17c30 0 48 12 48 39v437h-87zM4 539l81 186h162l81 -186h-128l-34 99l-34 -99h-128z" />
    <glyph glyph-name="dotlessj" unicode="&#x237;" horiz-adv-x="316" 
d="M4 368v129h238v-562c0 -106 -69 -172 -185 -172c-49 0 -88 10 -127 29l46 117c20 -10 44 -17 67 -17c30 0 48 12 48 39v437h-87z" />
    <glyph glyph-name="dotlessj" unicode="&#xf6be;" horiz-adv-x="316" 
d="M4 368v129h238v-562c0 -106 -69 -172 -185 -172c-49 0 -88 10 -127 29l46 117c20 -10 44 -17 67 -17c30 0 48 12 48 39v437h-87z" />
    <glyph glyph-name="kcommaaccent" unicode="&#x137;" horiz-adv-x="636" 
d="M93 0v589h-101v129h252v-310h2c38 59 115 99 195 99c99 0 162 -54 162 -141c0 -93 -65 -146 -208 -166v-2c29 -13 54 -54 89 -69c10 -4 22 -7 34 -7c19 0 39 4 63 15l45 -117c-35 -19 -81 -27 -113 -27c-31 0 -58 6 -82 16c-92 38 -142 134 -172 156c-4 3 -8 5 -11 5
c-5 -30 -8 -64 -8 -101v-69h-147zM283 281c108 8 168 46 168 76c0 16 -14 24 -36 24c-39 0 -94 -28 -132 -100zM317 -306l-108 62c46 51 61 119 49 191h154c18 -119 -24 -199 -95 -253z" />
    <glyph glyph-name="kcommaaccent.calt" horiz-adv-x="636" 
d="M93 0v430c0 92 12 169 35 234c-67 26 -129 47 -182 47c-68 0 -118 -35 -140 -100l-124 41c36 137 153 185 266 185c86 0 165 -28 242 -59c70 90 172 133 291 133c152 0 241 -75 241 -165c0 -105 -87 -174 -239 -174c-75 0 -147 17 -215 40c-16 -47 -24 -101 -24 -179v-25
h2c38 59 115 99 195 99c99 0 162 -54 162 -141c0 -93 -65 -146 -208 -166v-2c29 -13 54 -54 89 -69c10 -4 22 -7 34 -7c19 0 39 4 63 15l45 -117c-35 -19 -81 -27 -113 -27c-31 0 -58 6 -82 16c-92 38 -142 134 -172 156c-4 3 -8 5 -11 5c-5 -30 -8 -64 -8 -101v-69h-147z
M332 722c48 -16 97 -27 148 -27c73 0 91 23 91 47c0 23 -26 45 -88 45s-113 -24 -151 -65zM283 281c108 8 168 46 168 76c0 16 -14 24 -36 24c-39 0 -94 -28 -132 -100zM317 -306l-108 62c46 51 61 119 49 191h154c18 -119 -24 -199 -95 -253z" />
    <glyph glyph-name="kcommaaccent.salt" horiz-adv-x="635" 
d="M93 0v589h-101v129h252v-310h2c38 59 115 99 195 99c99 0 162 -54 162 -141c0 -88 -68 -141 -184 -160v-2c140 -127 119 -333 326 -333c31 0 70 6 99 19l42 -120c-43 -17 -93 -28 -146 -28c-305 0 -332 323 -457 416c-11 8 -22 14 -34 19c-6 -32 -9 -68 -9 -108v-69h-147
zM283 281c108 8 168 46 168 76c0 16 -14 24 -36 24c-39 0 -94 -28 -132 -100zM270 -306l-108 62c46 51 61 119 49 191h154c18 -119 -24 -199 -95 -253z" />
    <glyph glyph-name="kcommaaccent.swsh" horiz-adv-x="635" 
d="M93 0v430c0 92 12 169 35 234c-67 26 -129 47 -182 47c-68 0 -118 -35 -140 -100l-124 41c36 137 153 185 266 185c86 0 165 -28 242 -59c70 90 172 133 291 133c152 0 241 -75 241 -165c0 -105 -87 -174 -239 -174c-75 0 -147 17 -215 40c-16 -47 -24 -101 -24 -179v-25
h2c38 59 115 99 195 99c99 0 162 -54 162 -141c0 -88 -68 -141 -184 -160v-2c140 -127 119 -333 326 -333c31 0 70 6 99 19l42 -120c-43 -17 -93 -28 -146 -28c-305 0 -332 323 -457 416c-11 8 -22 14 -34 19c-6 -32 -9 -68 -9 -108v-69h-147zM332 722
c48 -16 97 -27 148 -27c73 0 91 23 91 47c0 23 -26 45 -88 45s-113 -24 -151 -65zM283 281c108 8 168 46 168 76c0 16 -14 24 -36 24c-39 0 -94 -28 -132 -100zM270 -306l-108 62c46 51 61 119 49 191h154c18 -119 -24 -199 -95 -253z" />
    <glyph glyph-name="lacute" unicode="&#x13a;" horiz-adv-x="348" 
d="M-8 589v129h252v-562c0 -26 15 -32 30 -32c14 0 28 4 39 9l25 -118c-30 -12 -65 -20 -103 -20c-78 0 -142 37 -142 138v456h-101zM107 749l41 186h168l-83 -186h-126z" />
    <glyph glyph-name="lcaron" unicode="&#x13e;" horiz-adv-x="348" 
d="M-8 589v129h252v-562c0 -26 15 -32 30 -32c14 0 28 4 39 9l25 -118c-30 -12 -65 -20 -103 -20c-78 0 -142 37 -142 138v456h-101zM287 520l40 220h158l-70 -220h-128z" />
    <glyph glyph-name="ldot" unicode="&#x140;" horiz-adv-x="427" 
d="M-8 589v129h252v-562c0 -26 15 -32 30 -32c14 0 28 4 39 9l25 -118c-30 -12 -65 -20 -103 -20c-78 0 -142 37 -142 138v456h-101zM384 272c-52 0 -90 39 -90 90s39 90 90 90c52 0 90 -39 90 -90s-39 -90 -90 -90z" />
    <glyph glyph-name="lcommaaccent" unicode="&#x13c;" horiz-adv-x="348" 
d="M-8 589v129h252v-562c0 -26 15 -32 30 -32c14 0 28 4 39 9l25 -118c-30 -12 -65 -20 -103 -20c-78 0 -142 37 -142 138v456h-101zM191 -306l-108 62c46 51 61 119 49 191h154c18 -119 -24 -199 -95 -253z" />
    <glyph glyph-name="lcommaaccent.swsh" horiz-adv-x="348" 
d="M93 133v284c0 95 13 178 38 247c-65 26 -124 47 -171 47c-58 0 -108 -35 -130 -100l-124 41c36 137 153 185 252 185c81 0 157 -29 232 -61c66 88 162 135 278 135c145 0 225 -80 225 -169c0 -100 -75 -170 -221 -170c-70 0 -139 17 -205 39c-15 -53 -23 -117 -23 -192
v-263c0 -26 15 -32 30 -32c14 0 28 4 39 9l25 -118c-30 -12 -65 -20 -103 -20c-78 0 -142 37 -142 138zM323 722c47 -16 95 -27 143 -27c54 0 76 20 76 45s-27 47 -76 47c-59 0 -107 -22 -143 -65zM191 -306l-108 62c46 51 61 119 49 191h154c18 -119 -24 -199 -95 -253z
" />
    <glyph glyph-name="lslash" unicode="&#x142;" horiz-adv-x="384" 
d="M57 181l-67 106l118 75v227h-101v129h252v-262l58 37l67 -108l-125 -79v-150c0 -26 15 -32 30 -32c14 0 28 4 39 9l25 -118c-30 -12 -65 -20 -103 -20c-78 0 -142 37 -142 138v80z" />
    <glyph glyph-name="lslash.swsh" horiz-adv-x="384" 
d="M250 -5c-78 0 -142 37 -142 138v80l-51 -32l-67 106l118 75v55c0 95 13 178 38 247c-65 26 -124 47 -171 47c-58 0 -108 -35 -130 -100l-124 41c36 137 153 185 252 185c81 0 157 -29 232 -61c66 88 162 135 278 135c145 0 225 -80 225 -169c0 -100 -75 -170 -221 -170
c-70 0 -139 17 -205 39c-13 -43 -23 -95 -23 -153v-2l58 37l67 -108l-125 -79v-150c0 -26 15 -32 30 -32c14 0 28 4 39 9l25 -118c-30 -12 -65 -20 -103 -20zM481 695c54 0 76 20 76 45s-27 47 -76 47c-59 0 -107 -22 -143 -65c47 -16 95 -27 143 -27z" />
    <glyph glyph-name="lslash.fina" horiz-adv-x="702" 
d="M108 362v227h-101v129h252v-262l58 37l67 -108l-125 -79v-178c6 1 18 2 27 2c62 0 116 -31 173 -31c62 0 88 34 88 73c0 40 -31 79 -101 87l39 118c124 -14 203 -94 203 -199c0 -120 -88 -204 -214 -204c-92 0 -133 34 -223 34c-30 0 -66 -7 -91 -17l-52 35v187l-51 -32
l-67 106z" />
    <glyph glyph-name="lslash.finaswsh" horiz-adv-x="709" 
d="M57 181l-67 106l118 75v55c0 95 13 178 38 247c-65 26 -124 47 -171 47c-58 0 -108 -35 -130 -100l-124 41c36 137 153 185 252 185c81 0 157 -29 232 -61c66 88 162 135 278 135c145 0 225 -80 225 -169c0 -100 -75 -170 -221 -170c-70 0 -139 17 -205 39
c-13 -43 -23 -95 -23 -153v-2l58 37l67 -108l-125 -79v-178c6 1 18 2 27 2c62 0 116 -31 173 -31c62 0 88 34 88 73c0 40 -31 79 -101 87l39 118c124 -14 203 -94 203 -199c0 -120 -88 -204 -214 -204c-92 0 -133 34 -223 34c-30 0 -66 -7 -91 -17l-52 35v187zM481 695
c54 0 76 20 76 45s-27 47 -76 47c-59 0 -107 -22 -143 -65c47 -16 95 -27 143 -27z" />
    <glyph glyph-name="nacute" unicode="&#x144;" horiz-adv-x="726" 
d="M0 368v129h252v-115h2c43 71 115 125 204 125c109 0 164 -65 164 -166v-185c0 -26 15 -32 30 -32c14 0 28 4 39 9l25 -118c-30 -12 -65 -20 -103 -20c-78 0 -142 37 -142 138v174c0 38 -18 57 -49 57c-68 0 -135 -79 -158 -168c-13 -51 -12 -98 -12 -166v-30h-151v368
h-101zM321 539l41 186h168l-83 -186h-126z" />
    <glyph glyph-name="ncaron" unicode="&#x148;" horiz-adv-x="726" 
d="M0 368v129h252v-115h2c43 71 115 125 204 125c109 0 164 -65 164 -166v-185c0 -26 15 -32 30 -32c14 0 28 4 39 9l25 -118c-30 -12 -65 -20 -103 -20c-78 0 -142 37 -142 138v174c0 38 -18 57 -49 57c-68 0 -135 -79 -158 -168c-13 -51 -12 -98 -12 -166v-30h-151v368
h-101zM282 539l-81 186h128l34 -99l34 99h128l-81 -186h-162z" />
    <glyph glyph-name="ntilde" unicode="&#xf1;" horiz-adv-x="726" 
d="M0 368v129h252v-115h2c43 71 115 125 204 125c109 0 164 -65 164 -166v-185c0 -26 15 -32 30 -32c14 0 28 4 39 9l25 -118c-30 -12 -65 -20 -103 -20c-78 0 -142 37 -142 138v174c0 38 -18 57 -49 57c-68 0 -135 -79 -158 -168c-13 -51 -12 -98 -12 -166v-30h-151v368
h-101zM161 559c-10 28 -13 53 -13 73c0 56 34 105 110 105c82 0 151 -64 183 -64c14 0 22 9 22 24c0 7 -1 15 -7 32h113c10 -28 13 -53 13 -73c0 -56 -34 -105 -110 -105c-82 0 -151 64 -183 64c-14 0 -22 -9 -22 -24c0 -7 1 -15 7 -32h-113z" />
    <glyph glyph-name="ncommaaccent" unicode="&#x146;" horiz-adv-x="726" 
d="M0 368v129h252v-115h2c43 71 115 125 204 125c109 0 164 -65 164 -166v-185c0 -26 15 -32 30 -32c14 0 28 4 39 9l25 -118c-30 -12 -65 -20 -103 -20c-78 0 -142 37 -142 138v174c0 38 -18 57 -49 57c-68 0 -135 -79 -158 -168c-13 -51 -12 -98 -12 -166v-30h-151v368
h-101zM358 -306l-108 62c46 51 61 119 49 191h154c18 -119 -24 -199 -95 -253z" />
    <glyph glyph-name="nacute.fina" horiz-adv-x="1065" 
d="M321 539l41 186h168l-83 -186h-126zM101 0v368h-101v129h252v-115h2c43 71 115 125 204 125c109 0 164 -65 164 -166v-213c6 1 18 2 27 2c62 0 116 -31 173 -31c62 0 88 34 88 73c0 40 -31 79 -101 87l39 118c124 -14 203 -94 203 -199c0 -120 -88 -204 -214 -204
c-92 0 -133 34 -223 34c-30 0 -66 -7 -91 -17l-52 35v281c0 38 -18 57 -49 57c-68 0 -135 -79 -158 -168c-13 -51 -12 -98 -12 -166v-30h-151z" />
    <glyph glyph-name="ncaron.fina" horiz-adv-x="1065" 
d="M282 539l-81 186h128l34 -99l34 99h128l-81 -186h-162zM101 0v368h-101v129h252v-115h2c43 71 115 125 204 125c109 0 164 -65 164 -166v-213c6 1 18 2 27 2c62 0 116 -31 173 -31c62 0 88 34 88 73c0 40 -31 79 -101 87l39 118c124 -14 203 -94 203 -199
c0 -120 -88 -204 -214 -204c-92 0 -133 34 -223 34c-30 0 -66 -7 -91 -17l-52 35v281c0 38 -18 57 -49 57c-68 0 -135 -79 -158 -168c-13 -51 -12 -98 -12 -166v-30h-151z" />
    <glyph glyph-name="ntilde.fina" unicode="&#xe108;" horiz-adv-x="1075" 
d="M161 559c-10 28 -13 53 -13 73c0 56 34 105 110 105c82 0 151 -64 183 -64c14 0 22 9 22 24c0 7 -1 15 -7 32h113c10 -28 13 -53 13 -73c0 -56 -34 -105 -110 -105c-82 0 -151 64 -183 64c-14 0 -22 -9 -22 -24c0 -7 1 -15 7 -32h-113zM101 0v368h-101v129h252v-115h2
c43 71 115 125 204 125c109 0 164 -65 164 -166v-213c6 1 18 2 27 2c62 0 116 -31 173 -31c62 0 88 34 88 73c0 40 -31 79 -101 87l39 118c124 -14 203 -94 203 -199c0 -120 -88 -204 -214 -204c-92 0 -133 34 -223 34c-30 0 -66 -7 -91 -17l-52 35v281c0 38 -18 57 -49 57
c-68 0 -135 -79 -158 -168c-13 -51 -12 -98 -12 -166v-30h-151z" />
    <glyph glyph-name="ncommaaccent.fina" horiz-adv-x="1065" 
d="M101 0v368h-101v129h252v-115h2c43 71 115 125 204 125c109 0 164 -65 164 -166v-213c6 1 18 2 27 2c62 0 116 -31 173 -31c62 0 88 34 88 73c0 40 -31 79 -101 87l39 118c124 -14 203 -94 203 -199c0 -120 -88 -204 -214 -204c-92 0 -133 34 -223 34
c-30 0 -66 -7 -91 -17l-52 35v281c0 38 -18 57 -49 57c-68 0 -135 -79 -158 -168c-13 -51 -12 -98 -12 -166v-30h-151zM358 -306l-108 62c46 51 61 119 49 191h154c18 -119 -24 -199 -95 -253z" />
    <glyph glyph-name="ograve" unicode="&#xf2;" horiz-adv-x="626" 
d="M313 -10c-167 0 -278 112 -278 258s111 259 278 259s278 -112 278 -258s-111 -259 -278 -259zM313 119c78 0 127 59 127 130s-49 129 -127 129s-127 -59 -127 -130s49 -129 127 -129zM171 725h168l41 -186h-126z" />
    <glyph glyph-name="oacute" unicode="&#xf3;" horiz-adv-x="626" 
d="M313 -10c-167 0 -278 112 -278 258s111 259 278 259s278 -112 278 -258s-111 -259 -278 -259zM313 119c78 0 127 59 127 130s-49 129 -127 129s-127 -59 -127 -130s49 -129 127 -129zM258 539l41 186h168l-83 -186h-126z" />
    <glyph glyph-name="ocircumflex" unicode="&#xf4;" horiz-adv-x="626" 
d="M313 -10c-167 0 -278 112 -278 258s111 259 278 259s278 -112 278 -258s-111 -259 -278 -259zM313 119c78 0 127 59 127 130s-49 129 -127 129s-127 -59 -127 -130s49 -129 127 -129zM151 539l81 186h162l81 -186h-128l-34 99l-34 -99h-128z" />
    <glyph glyph-name="otilde" unicode="&#xf5;" horiz-adv-x="626" 
d="M313 -10c-167 0 -278 112 -278 258s111 259 278 259s278 -112 278 -258s-111 -259 -278 -259zM313 119c78 0 127 59 127 130s-49 129 -127 129s-127 -59 -127 -130s49 -129 127 -129zM117 559c-10 28 -13 53 -13 73c0 56 34 105 110 105c82 0 151 -64 183 -64
c14 0 22 9 22 24c0 7 -1 15 -7 32h113c10 -28 13 -53 13 -73c0 -56 -34 -105 -110 -105c-82 0 -151 64 -183 64c-14 0 -22 -9 -22 -24c0 -7 1 -15 7 -32h-113z" />
    <glyph glyph-name="odieresis" unicode="&#xf6;" horiz-adv-x="626" 
d="M313 -10c-167 0 -278 112 -278 258s111 259 278 259s278 -112 278 -258s-111 -259 -278 -259zM313 119c78 0 127 59 127 130s-49 129 -127 129s-127 -59 -127 -130s49 -129 127 -129zM214 544c-48 0 -83 36 -83 83s36 83 83 83c48 0 83 -36 83 -83s-36 -83 -83 -83z
M414 544c-47 0 -82 36 -82 83s36 83 82 83c48 0 83 -36 83 -83s-36 -83 -83 -83z" />
    <glyph glyph-name="omacron" unicode="&#x14d;" horiz-adv-x="626" 
d="M313 -10c-167 0 -278 112 -278 258s111 259 278 259s278 -112 278 -258s-111 -259 -278 -259zM313 119c78 0 127 59 127 130s-49 129 -127 129s-127 -59 -127 -130s49 -129 127 -129zM149 569v123h344v-123h-344z" />
    <glyph glyph-name="obreve" unicode="&#x14f;" horiz-adv-x="626" 
d="M313 -10c-167 0 -278 112 -278 258s111 259 278 259s278 -112 278 -258s-111 -259 -278 -259zM313 119c78 0 127 59 127 130s-49 129 -127 129s-127 -59 -127 -130s49 -129 127 -129zM315 544c-86 0 -175 47 -175 165v16h126v-12c0 -47 18 -64 49 -64s49 17 49 64v12h126
v-16c0 -118 -89 -165 -175 -165z" />
    <glyph glyph-name="ohungarumlaut" unicode="&#x151;" horiz-adv-x="626" 
d="M313 -10c-167 0 -278 112 -278 258s111 259 278 259s278 -112 278 -258s-111 -259 -278 -259zM313 119c78 0 127 59 127 130s-49 129 -127 129s-127 -59 -127 -130s49 -129 127 -129zM173 539l41 186h158l-83 -186h-116zM351 539l41 186h158l-83 -186h-116z" />
    <glyph glyph-name="oslash" unicode="&#xf8;" horiz-adv-x="633" 
d="M24 51l54 50c-29 41 -45 92 -45 147c0 146 116 259 283 259c60 0 113 -15 157 -40l65 60l72 -78l-57 -53c29 -41 46 -92 46 -147c0 -146 -116 -259 -283 -259c-61 0 -114 15 -158 40l-62 -57zM191 205l176 164c-16 6 -33 9 -51 9c-78 0 -132 -59 -132 -130
c0 -15 2 -29 7 -43zM264 128c15 -6 33 -9 52 -9c78 0 132 59 132 130c0 15 -3 30 -7 43z" />
    <glyph glyph-name="oslashacute" unicode="&#x1ff;" horiz-adv-x="633" 
d="M258 539l41 186h168l-83 -186h-126zM24 51l54 50c-29 41 -45 92 -45 147c0 146 116 259 283 259c60 0 113 -15 157 -40l65 60l72 -78l-57 -53c29 -41 46 -92 46 -147c0 -146 -116 -259 -283 -259c-61 0 -114 15 -158 40l-62 -57zM191 205l176 164c-16 6 -33 9 -51 9
c-78 0 -132 -59 -132 -130c0 -15 2 -29 7 -43zM264 128c15 -6 33 -9 52 -9c78 0 132 59 132 130c0 15 -3 30 -7 43z" />
    <glyph glyph-name="oe" unicode="&#x153;" horiz-adv-x="985" 
d="M313 -10c-167 0 -278 112 -278 258s111 259 278 259c88 0 159 -34 206 -89h2c52 56 128 89 219 89c123 0 208 -54 208 -157c0 -107 -95 -164 -256 -164c-27 0 -69 4 -93 8c15 -58 84 -78 141 -78c50 0 111 15 160 42l46 -113c-63 -36 -138 -55 -221 -55
c-91 0 -163 29 -211 81h-2c-47 -50 -115 -81 -199 -81zM313 119c78 0 127 59 127 130s-49 129 -127 129s-127 -59 -127 -130s49 -129 127 -129zM600 302c21 -3 51 -5 74 -5c93 0 123 28 123 51c0 21 -24 33 -65 33c-57 0 -112 -26 -132 -79z" />
    <glyph glyph-name="racute" unicode="&#x155;" horiz-adv-x="450" 
d="M0 368v129h252v-127h2c34 84 113 143 204 137l-21 -163c-79 0 -139 -45 -168 -133c-14 -43 -17 -88 -17 -152v-59h-151v368h-101zM176 539l41 186h168l-83 -186h-126z" />
    <glyph glyph-name="rcaron" unicode="&#x159;" horiz-adv-x="450" 
d="M0 368v129h252v-127h2c34 84 113 143 204 137l-21 -163c-79 0 -139 -45 -168 -133c-14 -43 -17 -88 -17 -152v-59h-151v368h-101zM149 539l-81 186h128l34 -99l34 99h128l-81 -186h-162z" />
    <glyph glyph-name="rcommaaccent" unicode="&#x157;" horiz-adv-x="450" 
d="M0 368v129h252v-127h2c34 84 113 143 204 137l-21 -163c-79 0 -139 -45 -168 -133c-14 -43 -17 -88 -17 -152v-59h-151v368h-101zM199 -306l-108 62c46 51 61 119 49 191h154c18 -119 -24 -199 -95 -253z" />
    <glyph glyph-name="racute.salt" horiz-adv-x="508" 
d="M183 539l41 186h168l-83 -186h-126zM101 0v368h-101v129h192c29 -52 61 -79 112 -79s86 29 121 79l112 -96c-68 -92 -134 -112 -198 -112c-30 0 -63 6 -85 18h-2v-307h-151z" />
    <glyph glyph-name="rcaron.salt" horiz-adv-x="508" 
d="M157 539l-81 186h128l34 -99l34 99h128l-81 -186h-162zM101 0v368h-101v129h192c29 -52 61 -79 112 -79s86 29 121 79l112 -96c-68 -92 -134 -112 -198 -112c-30 0 -63 6 -85 18h-2v-307h-151z" />
    <glyph glyph-name="rcommaaccent.salt" horiz-adv-x="508" 
d="M101 0v368h-101v129h192c29 -52 61 -79 112 -79s86 29 121 79l112 -96c-68 -92 -134 -112 -198 -112c-30 0 -63 6 -85 18h-2v-307h-151zM199 -306l-108 62c46 51 61 119 49 191h154c18 -119 -24 -199 -95 -253z" />
    <glyph glyph-name="sacute" unicode="&#x15b;" horiz-adv-x="533" 
d="M17 50l54 113c48 -29 122 -49 186 -49c53 0 84 10 84 32c0 7 -3 12 -8 16c-40 32 -214 13 -269 106c-11 19 -18 42 -18 71c0 117 105 168 215 168c79 0 155 -19 221 -46l-46 -114c-62 25 -128 36 -176 36c-40 0 -63 -12 -63 -32c0 -8 3 -14 9 -19c41 -34 203 -16 263 -96
c14 -19 23 -43 23 -75c0 -112 -100 -171 -236 -171c-76 0 -167 17 -239 60zM207 539l41 186h168l-83 -186h-126z" />
    <glyph glyph-name="scircumflex" unicode="&#x15d;" horiz-adv-x="533" 
d="M17 50l54 113c48 -29 122 -49 186 -49c53 0 84 10 84 32c0 7 -3 12 -8 16c-40 32 -214 13 -269 106c-11 19 -18 42 -18 71c0 117 105 168 215 168c79 0 155 -19 221 -46l-46 -114c-62 25 -128 36 -176 36c-40 0 -63 -12 -63 -32c0 -8 3 -14 9 -19c41 -34 203 -16 263 -96
c14 -19 23 -43 23 -75c0 -112 -100 -171 -236 -171c-76 0 -167 17 -239 60zM115 539l81 186h162l81 -186h-128l-34 99l-34 -99h-128z" />
    <glyph glyph-name="scaron" unicode="&#x161;" horiz-adv-x="533" 
d="M17 50l54 113c48 -29 122 -49 186 -49c53 0 84 10 84 32c0 7 -3 12 -8 16c-40 32 -214 13 -269 106c-11 19 -18 42 -18 71c0 117 105 168 215 168c79 0 155 -19 221 -46l-46 -114c-62 25 -128 36 -176 36c-40 0 -63 -12 -63 -32c0 -8 3 -14 9 -19c41 -34 203 -16 263 -96
c14 -19 23 -43 23 -75c0 -112 -100 -171 -236 -171c-76 0 -167 17 -239 60zM187 539l-81 186h128l34 -99l34 99h128l-81 -186h-162z" />
    <glyph glyph-name="scedilla" unicode="&#x15f;" horiz-adv-x="533" 
d="M17 50l54 113c48 -29 122 -49 186 -49c53 0 84 10 84 32c0 7 -3 12 -8 16c-40 32 -214 13 -269 106c-11 19 -18 42 -18 71c0 117 105 168 215 168c79 0 155 -19 221 -46l-46 -114c-62 25 -128 36 -176 36c-40 0 -63 -12 -63 -32c0 -8 3 -14 9 -19c41 -34 203 -16 263 -96
c14 -19 23 -43 23 -75c0 -87 -60 -142 -151 -162c13 -37 21 -74 21 -106c0 -80 -49 -126 -162 -126c-43 0 -96 10 -135 31l45 117c25 -13 52 -19 72 -19c24 0 39 7 39 32c0 16 -5 38 -13 64c-64 6 -134 23 -191 58z" />
    <glyph glyph-name="scedilla" unicode="&#xf6c2;" horiz-adv-x="533" 
d="M17 50l54 113c48 -29 122 -49 186 -49c53 0 84 10 84 32c0 7 -3 12 -8 16c-40 32 -214 13 -269 106c-11 19 -18 42 -18 71c0 117 105 168 215 168c79 0 155 -19 221 -46l-46 -114c-62 25 -128 36 -176 36c-40 0 -63 -12 -63 -32c0 -8 3 -14 9 -19c41 -34 203 -16 263 -96
c14 -19 23 -43 23 -75c0 -87 -60 -142 -151 -162c13 -37 21 -74 21 -106c0 -80 -49 -126 -162 -126c-43 0 -96 10 -135 31l45 117c25 -13 52 -19 72 -19c24 0 39 7 39 32c0 16 -5 38 -13 64c-64 6 -134 23 -191 58z" />
    <glyph glyph-name="scommaaccent" unicode="&#x219;" horiz-adv-x="533" 
d="M17 50l54 113c48 -29 122 -49 186 -49c53 0 84 10 84 32c0 7 -3 12 -8 16c-40 32 -214 13 -269 106c-11 19 -18 42 -18 71c0 117 105 168 215 168c79 0 155 -19 221 -46l-46 -114c-62 25 -128 36 -176 36c-40 0 -63 -12 -63 -32c0 -8 3 -14 9 -19c41 -34 203 -16 263 -96
c14 -19 23 -43 23 -75c0 -112 -100 -171 -236 -171c-76 0 -167 17 -239 60zM241 -306l-108 62c46 51 61 119 49 191h154c18 -119 -24 -199 -95 -253z" />
    <glyph glyph-name="germandbls" unicode="&#xdf;" horiz-adv-x="805" 
d="M93 -38v439c0 265 196 323 340 323c157 0 236 -69 236 -164c0 -154 -197 -132 -197 -192c0 -71 295 2 295 -209c0 -103 -100 -169 -236 -169c-76 0 -167 17 -239 60l54 113c48 -29 119 -49 181 -49c55 0 89 13 89 42c0 71 -295 14 -295 204c0 155 197 152 197 198
c0 20 -25 37 -85 37c-128 0 -189 -77 -189 -193v-430c0 -151 -98 -209 -215 -209c-53 0 -103 9 -143 29l39 119c42 -16 71 -19 90 -19c45 0 78 11 78 70z" />
    <glyph glyph-name="tcaron" unicode="&#x165;" horiz-adv-x="473" 
d="M-8 368v129h124v133h151v-133h166v-129h-166v-198c0 -35 25 -51 61 -51c29 0 63 11 95 29l50 -109c-50 -31 -109 -49 -173 -49c-94 0 -184 43 -184 160v218h-124zM308 570l40 220h158l-70 -220h-128z" />
    <glyph glyph-name="tcommaaccent" unicode="&#x163;" horiz-adv-x="473" 
d="M-8 368v129h124v133h151v-133h166v-129h-166v-198c0 -35 25 -51 61 -51c29 0 63 11 95 29l50 -109c-50 -31 -109 -49 -173 -49c-94 0 -184 43 -184 160v218h-124zM265 -306l-108 62c46 51 61 119 49 191h154c18 -119 -24 -199 -95 -253z" />
    <glyph glyph-name="tcommaaccent" unicode="&#x21b;" horiz-adv-x="473" 
d="M-8 368v129h124v133h151v-133h166v-129h-166v-198c0 -35 25 -51 61 -51c29 0 63 11 95 29l50 -109c-50 -31 -109 -49 -173 -49c-94 0 -184 43 -184 160v218h-124zM265 -306l-108 62c46 51 61 119 49 191h154c18 -119 -24 -199 -95 -253z" />
    <glyph glyph-name="tbar" unicode="&#x167;" horiz-adv-x="473" 
d="M11 205v98h105v65h-124v129h124v133h151v-133h166v-129h-166v-65h139v-98h-139v-35c0 -35 25 -51 61 -51c29 0 63 11 95 29l50 -109c-50 -31 -109 -49 -173 -49c-94 0 -184 43 -184 160v55h-105z" />
    <glyph glyph-name="tcommaaccent.swsh" horiz-adv-x="473" 
d="M116 150v218h-124v129h125c2 67 13 118 32 167c-64 26 -121 47 -168 47c-58 0 -108 -35 -130 -100l-124 41c36 137 153 185 252 185c80 0 154 -28 229 -60c66 88 164 134 281 134c145 0 225 -80 225 -169c0 -100 -75 -170 -221 -170c-70 0 -140 17 -207 40
c-10 -34 -16 -72 -17 -115h164v-129h-166v-198c0 -35 25 -51 61 -51c29 0 63 11 95 29l50 -109c-50 -31 -109 -49 -173 -49c-94 0 -184 43 -184 160zM343 723c47 -16 95 -28 144 -28c54 0 76 20 76 45s-27 47 -76 47c-60 0 -108 -22 -144 -64zM265 -306l-108 62
c46 51 61 119 49 191h154c18 -119 -24 -199 -95 -253z" />
    <glyph glyph-name="tbar.swsh" horiz-adv-x="473" 
d="M116 150v55h-105v98h105v65h-124v129h125c2 67 13 118 32 167c-64 26 -121 47 -168 47c-58 0 -108 -35 -130 -100l-124 41c36 137 153 185 252 185c80 0 154 -28 229 -60c66 88 164 134 281 134c145 0 225 -80 225 -169c0 -100 -75 -170 -221 -170c-70 0 -140 17 -207 40
c-10 -34 -16 -72 -17 -115h164v-129h-166v-65h139v-98h-139v-35c0 -35 25 -51 61 -51c29 0 63 11 95 29l50 -109c-50 -31 -109 -49 -173 -49c-94 0 -184 43 -184 160zM487 695c54 0 76 20 76 45s-27 47 -76 47c-60 0 -108 -22 -144 -64c47 -16 95 -28 144 -28z" />
    <glyph glyph-name="tcommaaccent.fina" horiz-adv-x="473" 
d="M116 368h-124v129h124v133h151v-133h166v-129h-166v-240c6 1 23 2 30 2c69 0 140 -31 218 -31c82 0 110 37 110 80c0 40 -31 72 -96 80l39 118c124 -14 198 -94 198 -199c0 -120 -99 -204 -239 -204c-109 0 -162 34 -252 34c-30 0 -82 -7 -107 -17l-52 35v342zM265 -306
l-108 62c46 51 61 119 49 191h154c18 -119 -24 -199 -95 -253z" />
    <glyph glyph-name="tbar.fina" horiz-adv-x="780" 
d="M267 205v-77c6 1 23 2 30 2c69 0 140 -31 218 -31c82 0 110 37 110 80c0 40 -31 72 -96 80l39 118c124 -14 198 -94 198 -199c0 -120 -99 -204 -239 -204c-109 0 -162 34 -252 34c-30 0 -82 -7 -107 -17l-52 35v179h-105v98h105v65h-124v129h124v133h151v-133h166v-129
h-166v-65h139v-98h-139z" />
    <glyph glyph-name="tcommaaccent.finaswsh" horiz-adv-x="780" 
d="M265 -306l-108 62c46 51 61 119 49 191h154c18 -119 -24 -199 -95 -253zM-8 368v129h125c2 67 13 118 32 167c-64 26 -121 47 -168 47c-58 0 -108 -35 -130 -100l-124 41c36 137 153 185 252 185c80 0 154 -28 229 -60c66 88 164 134 281 134c145 0 225 -80 225 -169
c0 -100 -75 -170 -221 -170c-70 0 -140 17 -207 40c-10 -34 -16 -72 -17 -115h164v-129h-166v-240c6 1 23 2 30 2c69 0 140 -31 218 -31c82 0 110 37 110 80c0 40 -31 72 -96 80l39 118c124 -14 198 -94 198 -199c0 -120 -99 -204 -239 -204c-109 0 -162 34 -252 34
c-30 0 -82 -7 -107 -17l-52 35v342h-124zM343 723c47 -16 95 -28 144 -28c54 0 76 20 76 45s-27 47 -76 47c-60 0 -108 -22 -144 -64z" />
    <glyph glyph-name="tbar.finaswsh" horiz-adv-x="780" 
d="M267 205v-77c6 1 23 2 30 2c69 0 140 -31 218 -31c82 0 110 37 110 80c0 40 -31 72 -96 80l39 118c124 -14 198 -94 198 -199c0 -120 -99 -204 -239 -204c-109 0 -162 34 -252 34c-30 0 -82 -7 -107 -17l-52 35v179h-105v98h105v65h-124v129h125c2 67 13 118 32 167
c-64 26 -121 47 -168 47c-58 0 -108 -35 -130 -100l-124 41c36 137 153 185 252 185c80 0 154 -28 229 -60c66 88 164 134 281 134c145 0 225 -80 225 -169c0 -100 -75 -170 -221 -170c-70 0 -140 17 -207 40c-10 -34 -16 -72 -17 -115h164v-129h-166v-65h139v-98h-139z
M343 723c47 -16 95 -28 144 -28c54 0 76 20 76 45s-27 47 -76 47c-60 0 -108 -22 -144 -64z" />
    <glyph glyph-name="ugrave" unicode="&#xf9;" horiz-adv-x="644" 
d="M336 -10c-173 0 -255 91 -255 223v155h-87v129h238v-278c0 -58 26 -97 104 -97s104 39 104 97v278h151v-284c0 -132 -82 -223 -255 -223zM197 725h168l41 -186h-126z" />
    <glyph glyph-name="uacute" unicode="&#xfa;" horiz-adv-x="644" 
d="M336 -10c-173 0 -255 91 -255 223v155h-87v129h238v-278c0 -58 26 -97 104 -97s104 39 104 97v278h151v-284c0 -132 -82 -223 -255 -223zM270 539l41 186h168l-83 -186h-126z" />
    <glyph glyph-name="ucircumflex" unicode="&#xfb;" horiz-adv-x="644" 
d="M336 -10c-173 0 -255 91 -255 223v155h-87v129h238v-278c0 -58 26 -97 104 -97s104 39 104 97v278h151v-284c0 -132 -82 -223 -255 -223zM174 539l81 186h162l81 -186h-128l-34 99l-34 -99h-128z" />
    <glyph glyph-name="utilde" unicode="&#x169;" horiz-adv-x="644" 
d="M336 -10c-173 0 -255 91 -255 223v155h-87v129h238v-278c0 -58 26 -97 104 -97s104 39 104 97v278h151v-284c0 -132 -82 -223 -255 -223zM120 559c-10 28 -13 53 -13 73c0 56 34 105 110 105c82 0 151 -64 183 -64c14 0 22 9 22 24c0 7 -1 15 -7 32h113
c10 -28 13 -53 13 -73c0 -56 -34 -105 -110 -105c-82 0 -151 64 -183 64c-14 0 -22 -9 -22 -24c0 -7 1 -15 7 -32h-113z" />
    <glyph glyph-name="udieresis" unicode="&#xfc;" horiz-adv-x="644" 
d="M336 -10c-173 0 -255 91 -255 223v155h-87v129h238v-278c0 -58 26 -97 104 -97s104 39 104 97v278h151v-284c0 -132 -82 -223 -255 -223zM233 544c-48 0 -83 36 -83 83s36 83 83 83c48 0 83 -36 83 -83s-36 -83 -83 -83zM433 544c-47 0 -82 36 -82 83s36 83 82 83
c48 0 83 -36 83 -83s-36 -83 -83 -83z" />
    <glyph glyph-name="umacron" unicode="&#x16b;" horiz-adv-x="644" 
d="M336 -10c-173 0 -255 91 -255 223v155h-87v129h238v-278c0 -58 26 -97 104 -97s104 39 104 97v278h151v-284c0 -132 -82 -223 -255 -223zM158 569v123h344v-123h-344z" />
    <glyph glyph-name="ubreve" unicode="&#x16d;" horiz-adv-x="644" 
d="M336 -10c-173 0 -255 91 -255 223v155h-87v129h238v-278c0 -58 26 -97 104 -97s104 39 104 97v278h151v-284c0 -132 -82 -223 -255 -223zM330 544c-86 0 -175 47 -175 165v16h126v-12c0 -47 18 -64 49 -64s49 17 49 64v12h126v-16c0 -118 -89 -165 -175 -165z" />
    <glyph glyph-name="uring" unicode="&#x16f;" horiz-adv-x="644" 
d="M336 -10c-173 0 -255 91 -255 223v155h-87v129h238v-278c0 -58 26 -97 104 -97s104 39 104 97v278h151v-284c0 -132 -82 -223 -255 -223zM336 550c-81 0 -146 40 -146 109c0 68 65 108 146 108s146 -40 146 -108c0 -69 -65 -109 -146 -109zM336 628c22 0 38 12 38 31
s-16 31 -38 31s-38 -12 -38 -31s16 -31 38 -31z" />
    <glyph glyph-name="uhungarumlaut" unicode="&#x171;" horiz-adv-x="644" 
d="M336 -10c-173 0 -255 91 -255 223v155h-87v129h238v-278c0 -58 26 -97 104 -97s104 39 104 97v278h151v-284c0 -132 -82 -223 -255 -223zM181 539l41 186h158l-83 -186h-116zM359 539l41 186h158l-83 -186h-116z" />
    <glyph glyph-name="uogonek" unicode="&#x173;" horiz-adv-x="644" 
d="M254 -4v2c-117 25 -173 106 -173 215v155h-87v129h238v-278c0 -58 26 -97 104 -97s104 39 104 97v278h151v-284c0 -138 -77 -173 -184 -227c-48 -24 -74 -50 -74 -81c0 -18 12 -36 43 -36c21 0 46 7 69 17l45 -117c-40 -20 -105 -29 -137 -29c-107 0 -172 46 -172 130
c0 56 30 96 73 126z" />
    <glyph glyph-name="wgrave" unicode="&#x1e81;" horiz-adv-x="881" 
d="M-10 497h165l112 -308h2l113 308h117l120 -309h2l106 309h164l-218 -500h-119l-114 292h-2l-107 -292h-119zM292 725h168l41 -186h-126z" />
    <glyph glyph-name="wacute" unicode="&#x1e83;" horiz-adv-x="881" 
d="M-10 497h165l112 -308h2l113 308h117l120 -309h2l106 309h164l-218 -500h-119l-114 292h-2l-107 -292h-119zM380 539l41 186h168l-83 -186h-126z" />
    <glyph glyph-name="wcircumflex" unicode="&#x175;" horiz-adv-x="881" 
d="M-10 497h165l112 -308h2l113 308h117l120 -309h2l106 309h164l-218 -500h-119l-114 292h-2l-107 -292h-119zM278 539l81 186h162l81 -186h-128l-34 99l-34 -99h-128z" />
    <glyph glyph-name="wdieresis" unicode="&#x1e85;" horiz-adv-x="881" 
d="M-10 497h165l112 -308h2l113 308h117l120 -309h2l106 309h164l-218 -500h-119l-114 292h-2l-107 -292h-119zM339 544c-48 0 -83 36 -83 83s36 83 83 83c48 0 83 -36 83 -83s-36 -83 -83 -83zM539 544c-47 0 -82 36 -82 83s36 83 82 83c48 0 83 -36 83 -83
s-36 -83 -83 -83z" />
    <glyph glyph-name="wgrave.swsh" horiz-adv-x="898" 
d="M309 791h168l41 -186h-126zM-10 497h165l127 -328h2c23 36 50 66 77 91c-52 47 -90 89 -90 161c0 90 73 150 180 150s180 -60 180 -150c0 -72 -39 -114 -91 -161c27 -25 54 -55 78 -91h2l123 328h165l-215 -500h-119c-36 81 -79 137 -122 181h-2
c-44 -44 -87 -100 -122 -181h-119zM451 451c-26 0 -40 -17 -40 -44c0 -24 13 -45 39 -68h2c26 23 39 44 39 68c0 27 -14 44 -40 44z" />
    <glyph glyph-name="wacute.swsh" horiz-adv-x="898" 
d="M387 605l41 186h168l-83 -186h-126zM-10 497h165l127 -328h2c23 36 50 66 77 91c-52 47 -90 89 -90 161c0 90 73 150 180 150s180 -60 180 -150c0 -72 -39 -114 -91 -161c27 -25 54 -55 78 -91h2l123 328h165l-215 -500h-119c-36 81 -79 137 -122 181h-2
c-44 -44 -87 -100 -122 -181h-119zM451 451c-26 0 -40 -17 -40 -44c0 -24 13 -45 39 -68h2c26 23 39 44 39 68c0 27 -14 44 -40 44z" />
    <glyph glyph-name="wcircumflex.swsh" unicode="&#xe0ea;" horiz-adv-x="898" 
d="M-10 497h165l127 -328h2c23 36 50 66 77 91c-52 47 -90 89 -90 161c0 90 73 150 180 150s180 -60 180 -150c0 -72 -39 -114 -91 -161c27 -25 54 -55 78 -91h2l123 328h165l-215 -500h-119c-36 81 -79 137 -122 181h-2c-44 -44 -87 -100 -122 -181h-119zM451 451
c-26 0 -40 -17 -40 -44c0 -24 13 -45 39 -68h2c26 23 39 44 39 68c0 27 -14 44 -40 44zM292 605l81 186h162l81 -186h-128l-34 99l-34 -99h-128z" />
    <glyph glyph-name="wdieresis.swsh" horiz-adv-x="898" 
d="M-10 497h165l127 -328h2c23 36 50 66 77 91c-52 47 -90 89 -90 161c0 90 73 150 180 150s180 -60 180 -150c0 -72 -39 -114 -91 -161c27 -25 54 -55 78 -91h2l123 328h165l-215 -500h-119c-36 81 -79 137 -122 181h-2c-44 -44 -87 -100 -122 -181h-119zM451 451
c-26 0 -40 -17 -40 -44c0 -24 13 -45 39 -68h2c26 23 39 44 39 68c0 27 -14 44 -40 44zM352 599c-48 0 -83 36 -83 83s36 83 83 83c48 0 83 -36 83 -83s-36 -83 -83 -83zM552 599c-47 0 -82 36 -82 83s36 83 82 83c48 0 83 -36 83 -83s-36 -83 -83 -83z" />
    <glyph glyph-name="ygrave" unicode="&#x1ef3;" horiz-adv-x="594" 
d="M63 -237l164 311l-237 423h166l149 -281h2l133 281h164l-381 -734h-160zM154 725h168l41 -186h-126z" />
    <glyph glyph-name="yacute" unicode="&#xfd;" horiz-adv-x="594" 
d="M63 -237l164 311l-237 423h166l149 -281h2l133 281h164l-381 -734h-160zM232 539l41 186h168l-83 -186h-126z" />
    <glyph glyph-name="ycircumflex" unicode="&#x177;" horiz-adv-x="594" 
d="M63 -237l164 311l-237 423h166l149 -281h2l133 281h164l-381 -734h-160zM141 539l81 186h162l81 -186h-128l-34 99l-34 -99h-128z" />
    <glyph glyph-name="ydieresis" unicode="&#xff;" horiz-adv-x="594" 
d="M63 -237l164 311l-237 423h166l149 -281h2l133 281h164l-381 -734h-160zM203 544c-48 0 -83 36 -83 83s36 83 83 83c48 0 83 -36 83 -83s-36 -83 -83 -83zM403 544c-47 0 -82 36 -82 83s36 83 82 83c48 0 83 -36 83 -83s-36 -83 -83 -83z" />
    <glyph glyph-name="ygrave.salt" horiz-adv-x="613" 
d="M159 725h168l41 -186h-126zM-23 497h184c68 -85 143 -261 159 -376h3c38 96 88 258 122 376h168c-236 -633 -304 -855 -618 -855c-64 0 -148 17 -215 53l54 118c53 -29 113 -42 163 -42c124 0 206 69 206 205c0 147 -74 305 -226 521z" />
    <glyph glyph-name="yacute.salt" unicode="&#xe0eb;" horiz-adv-x="613" 
d="M238 539l41 186h168l-83 -186h-126zM-23 497h184c68 -85 143 -261 159 -376h3c38 96 88 258 122 376h168c-236 -633 -304 -855 -618 -855c-64 0 -148 17 -215 53l54 118c53 -29 113 -42 163 -42c124 0 206 69 206 205c0 147 -74 305 -226 521z" />
    <glyph glyph-name="ycircumflex.salt" unicode="&#xe0ed;" horiz-adv-x="613" 
d="M-23 497h184c68 -85 143 -261 159 -376h3c38 96 88 258 122 376h168c-236 -633 -304 -855 -618 -855c-64 0 -148 17 -215 53l54 118c53 -29 113 -42 163 -42c124 0 206 69 206 205c0 147 -74 305 -226 521zM151 539l81 186h162l81 -186h-128l-34 99l-34 -99h-128z" />
    <glyph glyph-name="ydieresis.salt" unicode="&#xe0ec;" horiz-adv-x="613" 
d="M-23 497h184c68 -85 143 -261 159 -376h3c38 96 88 258 122 376h168c-236 -633 -304 -855 -618 -855c-64 0 -148 17 -215 53l54 118c53 -29 113 -42 163 -42c124 0 206 69 206 205c0 147 -74 305 -226 521zM212 544c-48 0 -83 36 -83 83s36 83 83 83c48 0 83 -36 83 -83
s-36 -83 -83 -83zM412 544c-47 0 -82 36 -82 83s36 83 82 83c48 0 83 -36 83 -83s-36 -83 -83 -83z" />
    <glyph glyph-name="ygrave.swsh" horiz-adv-x="579" 
d="M140 725h168l41 -186h-126zM219 64l-240 433h166l148 -281h2c13 25 26 53 40 82l94 199h164l-120 -231c-105 -202 -183 -349 -257 -456c77 -42 152 -80 218 -80c63 0 104 27 145 70l95 -91c-63 -71 -146 -105 -245 -105c-110 0 -205 52 -295 103
c-75 -78 -154 -113 -261 -113c-133 0 -219 69 -219 168c0 97 80 171 214 171c82 0 160 -26 233 -62c35 49 73 111 118 193zM16 -228c-46 22 -94 37 -143 37c-52 0 -72 -23 -72 -46s23 -46 75 -46c47 0 91 12 140 55z" />
    <glyph glyph-name="yacute.swsh" unicode="&#xe0ee;" horiz-adv-x="579" 
d="M216 539l41 186h168l-83 -186h-126zM219 64l-240 433h166l148 -281h2c13 25 26 53 40 82l94 199h164l-120 -231c-105 -202 -183 -349 -257 -456c77 -42 152 -80 218 -80c63 0 104 27 145 70l95 -91c-63 -71 -146 -105 -245 -105c-110 0 -205 52 -295 103
c-75 -78 -154 -113 -261 -113c-133 0 -219 69 -219 168c0 97 80 171 214 171c82 0 160 -26 233 -62c35 49 73 111 118 193zM16 -228c-46 22 -94 37 -143 37c-52 0 -72 -23 -72 -46s23 -46 75 -46c47 0 91 12 140 55z" />
    <glyph glyph-name="ycircumflex.swsh" unicode="&#xe0f0;" horiz-adv-x="579" 
d="M219 64l-240 433h166l148 -281h2c13 25 26 53 40 82l94 199h164l-120 -231c-105 -202 -183 -349 -257 -456c77 -42 152 -80 218 -80c63 0 104 27 145 70l95 -91c-63 -71 -146 -105 -245 -105c-110 0 -205 52 -295 103c-75 -78 -154 -113 -261 -113
c-133 0 -219 69 -219 168c0 97 80 171 214 171c82 0 160 -26 233 -62c35 49 73 111 118 193zM16 -228c-46 22 -94 37 -143 37c-52 0 -72 -23 -72 -46s23 -46 75 -46c47 0 91 12 140 55zM129 539l81 186h162l81 -186h-128l-34 99l-34 -99h-128z" />
    <glyph glyph-name="ydieresis.swsh" unicode="&#xe0ef;" horiz-adv-x="579" 
d="M219 64l-240 433h166l148 -281h2c13 25 26 53 40 82l94 199h164l-120 -231c-105 -202 -183 -349 -257 -456c77 -42 152 -80 218 -80c63 0 104 27 145 70l95 -91c-63 -71 -146 -105 -245 -105c-110 0 -205 52 -295 103c-75 -78 -154 -113 -261 -113
c-133 0 -219 69 -219 168c0 97 80 171 214 171c82 0 160 -26 233 -62c35 49 73 111 118 193zM16 -228c-46 22 -94 37 -143 37c-52 0 -72 -23 -72 -46s23 -46 75 -46c47 0 91 12 140 55zM189 544c-48 0 -83 36 -83 83s36 83 83 83c48 0 83 -36 83 -83s-36 -83 -83 -83z
M389 544c-47 0 -82 36 -82 83s36 83 82 83c48 0 83 -36 83 -83s-36 -83 -83 -83z" />
    <glyph glyph-name="zacute" unicode="&#x17a;" horiz-adv-x="526" 
d="M34 86l243 282h-240v129h393l57 -86l-243 -282h260v-129h-413zM183 539l41 186h168l-83 -186h-126z" />
    <glyph glyph-name="zcaron" unicode="&#x17e;" horiz-adv-x="526" 
d="M34 86l243 282h-240v129h393l57 -86l-243 -282h260v-129h-413zM186 539l-81 186h128l34 -99l34 99h128l-81 -186h-162z" />
    <glyph glyph-name="zdotaccent" unicode="&#x17c;" horiz-adv-x="526" 
d="M34 86l243 282h-240v129h393l57 -86l-243 -282h260v-129h-413zM257 537c-52 0 -90 39 -90 90s39 90 90 90c52 0 90 -39 90 -90s-39 -90 -90 -90z" />
    <glyph glyph-name="eng" unicode="&#x14b;" horiz-adv-x="710" 
d="M622 341v-406c0 -106 -69 -172 -185 -172c-49 0 -88 10 -127 29l46 117c20 -10 44 -17 67 -17c30 0 48 12 48 39v376c0 38 -18 57 -49 57c-68 0 -135 -79 -158 -168c-13 -51 -12 -98 -12 -166v-30h-151v368h-101v129h252v-115h2c43 71 115 125 204 125
c109 0 164 -65 164 -166z" />
    <glyph glyph-name="eth" unicode="&#xf0;" horiz-adv-x="626" 
d="M313 -10c-175 0 -278 109 -278 251c0 135 108 238 263 238c24 0 61 -5 80 -11v2c-22 33 -46 63 -73 88l-149 -47l-27 85l87 28c-27 16 -57 30 -88 42l65 108c65 -22 127 -57 181 -99l122 39l27 -86l-72 -23c85 -92 140 -208 140 -327c0 -159 -99 -288 -278 -288zM308 119
c80 0 132 49 132 141c0 26 -2 47 -6 69c-35 13 -75 21 -115 21c-83 0 -133 -46 -133 -113c0 -66 45 -118 122 -118z" />
    <glyph glyph-name="thorn" unicode="&#xfe;" horiz-adv-x="646" 
d="M101 -237v826h-101v129h252v-265v-28h2c38 52 96 82 166 82c107 0 191 -78 191 -205c0 -187 -150 -312 -319 -312c-18 0 -32 2 -40 3v-230h-151zM290 120c88 0 170 63 170 166c0 57 -26 89 -70 89c-72 0 -138 -78 -138 -241v-9c8 -3 24 -5 38 -5z" />
    <glyph glyph-name="thorn.swsh" unicode="&#xe0fc;" horiz-adv-x="646" 
d="M-346 -238c0 97 80 171 214 171c76 0 146 -23 212 -55c13 42 21 92 21 154v557h-101v129h252v-265v-28h2c38 52 96 82 166 82c107 0 191 -78 191 -205c0 -187 -150 -312 -319 -312c-18 0 -32 2 -40 3c-7 -71 -24 -132 -47 -183c82 -47 158 -90 229 -90
c63 0 104 27 145 70l95 -91c-63 -71 -146 -105 -245 -105c-110 0 -205 55 -295 109c-70 -75 -163 -109 -261 -109c-133 0 -219 69 -219 168zM-199 -237c0 -23 23 -46 75 -46c51 0 101 15 140 53c-47 23 -94 39 -143 39c-52 0 -72 -23 -72 -46zM252 125c8 -3 24 -5 38 -5
c88 0 170 63 170 166c0 57 -26 89 -70 89c-72 0 -138 -78 -138 -241v-9z" />
    <glyph glyph-name="L_L" unicode="&#xe03b;" horiz-adv-x="742" 
d="M88 0v659h167v-517h443v-142h-610zM352 232v427h167v-285h179v-142h-346z" />
    <glyph glyph-name="N_N" unicode="&#xe043;" horiz-adv-x="1409" 
d="M88 0v659h145l386 -401h2v401h145l386 -401h2v401h167v-659h-138l-393 411h-2v-411h-138l-393 411h-2v-411h-167z" />
    <glyph glyph-name="O_O" unicode="&#xe03f;" horiz-adv-x="1246" 
d="M623 25c-55 -23 -117 -35 -182 -35c-225 0 -388 128 -388 337s163 337 388 337c65 0 127 -13 182 -37c55 24 117 37 182 37c225 0 388 -128 388 -337s-163 -337 -388 -337c-66 0 -128 12 -182 35zM769 134c7 -1 22 -2 34 -2c140 0 219 83 219 195s-79 195 -219 195
c-12 0 -24 -1 -35 -2c41 -52 65 -119 65 -193s-24 -140 -64 -193zM623 196c30 32 47 80 47 131s-17 98 -47 131c-31 -33 -47 -80 -47 -131s16 -99 47 -131zM477 134c-41 53 -64 119 -64 193s24 141 65 193c-5 1 -23 2 -35 2c-140 0 -219 -83 -219 -195s79 -195 219 -195
c11 0 27 1 34 2z" />
    <glyph glyph-name="T_T" unicode="&#xe03a;" horiz-adv-x="1119" 
d="M229 0v517h-227v142h1115v-142h-227v-517h-167v517h-327v-517h-167z" />
    <glyph glyph-name="T_h" unicode="&#xe039;" horiz-adv-x="1382" 
d="M366 0v516c-29 8 -56 13 -81 13c-74 0 -114 -43 -114 -94c0 -48 32 -78 109 -106l-58 -117c-145 50 -202 125 -202 224c0 122 91 234 256 234c133 0 228 -66 330 -66c78 0 142 49 163 114h139v-336h2c43 71 115 125 204 125c109 0 164 -65 164 -166v-185
c0 -26 15 -32 30 -32c14 0 28 4 39 9l25 -118c-30 -12 -65 -20 -103 -20c-78 0 -142 37 -142 138v174c0 38 -18 57 -49 57c-68 0 -135 -79 -158 -168c-13 -51 -12 -98 -12 -166v-30h-151v506h-2c-26 -23 -90 -43 -140 -43c-32 0 -57 3 -82 8v-471h-167z" />
    <glyph glyph-name="T_h.salt" unicode="&#xe0f7;" horiz-adv-x="1406" 
d="M366 0v516c-29 8 -56 13 -81 13c-74 0 -114 -43 -114 -94c0 -48 32 -78 109 -106l-58 -117c-145 50 -202 125 -202 224c0 122 91 234 256 234c133 0 228 -66 330 -66c78 0 142 49 163 114h139v-221h423l60 -98c-108 -111 -190 -238 -190 -382c0 -131 71 -201 186 -203
c59 -1 121 14 189 56l61 -110c-71 -48 -160 -76 -264 -75c-190 2 -319 134 -319 314c0 144 59 273 142 369h-288v-368h-151v506h-2c-26 -23 -90 -43 -140 -43c-32 0 -57 3 -82 8v-471h-167z" />
    <glyph glyph-name="c_h" unicode="&#xe040;" horiz-adv-x="1268" 
d="M315 -10c-179 0 -280 114 -280 252c0 133 90 240 238 261c7 1 19 2 22 2v2c-23 20 -36 50 -36 83c0 70 64 128 175 128h360v-336h2c43 71 115 125 204 125c109 0 164 -65 164 -166v-185c0 -26 15 -32 30 -32c14 0 28 4 39 9l25 -118c-30 -12 -65 -20 -103 -20
c-78 0 -142 37 -142 138v174c0 38 -18 57 -49 57c-68 0 -135 -79 -158 -168c-13 -51 -12 -98 -12 -166v-30h-151v589h-194c-35 0 -52 -15 -52 -40c0 -35 38 -61 128 -90l-48 -114c-50 22 -89 33 -142 33c-87 0 -149 -46 -149 -132c0 -88 62 -127 148 -127c50 0 99 12 148 34
l45 -115c-67 -33 -142 -48 -212 -48z" />
    <glyph glyph-name="c_h.swsh" unicode="&#xe0a8;" horiz-adv-x="1268" 
d="M315 -10c-179 0 -280 114 -280 252c0 133 90 240 238 261c7 1 19 2 22 2v2c-23 21 -36 59 -36 92c0 95 85 174 232 174c80 0 156 -16 233 -35c68 101 177 161 316 161c150 0 233 -81 233 -171c0 -104 -97 -168 -244 -168c-72 0 -145 12 -215 27c-13 -44 -20 -95 -20 -151
v-54h2c43 71 115 125 204 125c109 0 164 -65 164 -166v-185c0 -26 15 -32 30 -32c14 0 28 4 39 9l25 -118c-30 -12 -65 -20 -103 -20c-78 0 -142 37 -142 138v174c0 38 -18 57 -49 57c-68 0 -135 -79 -158 -168c-13 -51 -12 -98 -12 -166v-30h-151v433c0 68 7 132 25 189
c-60 15 -113 25 -158 25c-71 0 -113 -33 -113 -80c0 -48 35 -78 128 -108l-48 -114c-50 22 -89 33 -142 33c-87 0 -149 -46 -149 -132c0 -88 62 -127 148 -127c50 0 99 12 148 34l45 -115c-67 -33 -142 -48 -212 -48zM874 701c50 -11 100 -18 150 -18c63 0 98 16 98 48
c0 22 -28 44 -83 44c-68 0 -124 -26 -165 -74z" />
    <glyph glyph-name="c_h.fina" unicode="&#xe028;" horiz-adv-x="1607" 
d="M315 -10c-179 0 -280 114 -280 252c0 133 90 240 238 261c7 1 19 2 22 2v2c-23 20 -36 50 -36 83c0 70 64 128 175 128h360v-336h2c43 71 115 125 204 125c109 0 164 -65 164 -166v-213c6 1 18 2 27 2c62 0 116 -31 173 -31c62 0 88 34 88 73c0 40 -31 79 -101 87l39 118
c124 -14 203 -94 203 -199c0 -120 -88 -204 -214 -204c-92 0 -133 34 -223 34c-30 0 -66 -7 -91 -17l-52 35v281c0 38 -18 57 -49 57c-68 0 -135 -79 -158 -168c-13 -51 -12 -98 -12 -166v-30h-151v589h-194c-35 0 -52 -15 -52 -40c0 -35 38 -61 128 -90l-48 -114
c-50 22 -89 33 -142 33c-87 0 -149 -46 -149 -132c0 -88 62 -127 148 -127c50 0 99 12 148 34l45 -115c-67 -33 -142 -48 -212 -48z" />
    <glyph glyph-name="c_h.finaswsh" unicode="&#xe096;" horiz-adv-x="1607" 
d="M315 -10c-179 0 -280 114 -280 252c0 133 90 240 238 261c7 1 19 2 22 2v2c-23 21 -36 59 -36 92c0 95 85 174 232 174c80 0 156 -16 233 -35c68 101 177 161 316 161c150 0 233 -81 233 -171c0 -104 -97 -168 -244 -168c-72 0 -145 12 -215 27c-13 -44 -20 -95 -20 -151
v-54h2c43 71 115 125 204 125c109 0 164 -65 164 -166v-213c6 1 18 2 27 2c62 0 116 -31 173 -31c62 0 88 34 88 73c0 40 -31 79 -101 87l39 118c124 -14 203 -94 203 -199c0 -120 -88 -204 -214 -204c-92 0 -133 34 -223 34c-30 0 -66 -7 -91 -17l-52 35v281
c0 38 -18 57 -49 57c-68 0 -135 -79 -158 -168c-13 -51 -12 -98 -12 -166v-30h-151v433c0 68 7 132 25 189c-60 15 -113 25 -158 25c-71 0 -113 -33 -113 -80c0 -48 35 -78 128 -108l-48 -114c-50 22 -89 33 -142 33c-87 0 -149 -46 -149 -132c0 -88 62 -127 148 -127
c50 0 99 12 148 34l45 -115c-67 -33 -142 -48 -212 -48zM874 701c50 -11 100 -18 150 -18c63 0 98 16 98 48c0 22 -28 44 -83 44c-68 0 -124 -26 -165 -74z" />
    <glyph glyph-name="c_h.salt" unicode="&#xe027;" horiz-adv-x="1292" 
d="M315 -10c-179 0 -280 114 -280 252c0 133 90 240 238 261c7 1 19 2 22 2v2c-23 20 -36 50 -36 83c0 70 64 128 175 128h360v-221h423l60 -98c-108 -111 -190 -238 -190 -382c0 -131 71 -201 186 -203c59 -1 121 14 189 56l61 -110c-71 -48 -160 -76 -264 -75
c-190 2 -319 134 -319 314c0 144 59 273 142 369h-288v-368h-151v589h-194c-35 0 -52 -15 -52 -40c0 -35 38 -61 128 -90l-48 -114c-50 22 -89 33 -142 33c-87 0 -149 -46 -149 -132c0 -88 62 -127 148 -127c50 0 99 12 148 34l45 -115c-67 -33 -142 -48 -212 -48z" />
    <glyph glyph-name="c_h.saltswsh" unicode="&#xe095;" horiz-adv-x="1292" 
d="M315 -10c-179 0 -280 114 -280 252c0 133 90 240 238 261c7 1 19 2 22 2v2c-23 21 -36 59 -36 92c0 95 85 174 232 174c78 0 153 -16 228 -34c64 97 169 160 309 160c163 0 245 -80 245 -171c0 -104 -97 -168 -244 -168c-74 0 -149 13 -221 29c-10 -34 -14 -66 -14 -87
v-5h423l60 -98c-108 -111 -190 -238 -190 -382c0 -131 71 -201 186 -203c59 -1 121 14 189 56l61 -110c-71 -48 -160 -76 -264 -75c-190 2 -319 134 -319 314c0 144 59 273 142 369h-288v-368h-151v465c0 55 8 108 22 157c-56 14 -112 25 -155 25c-71 0 -113 -33 -113 -80
c0 -48 35 -78 128 -108l-48 -114c-50 22 -89 33 -142 33c-87 0 -149 -46 -149 -132c0 -88 62 -127 148 -127c50 0 99 12 148 34l45 -115c-67 -33 -142 -48 -212 -48zM869 702c52 -11 104 -19 155 -19c63 0 98 16 98 48c0 22 -28 44 -88 44c-75 0 -128 -31 -165 -73z" />
    <glyph glyph-name="c_k" unicode="&#xe02f;" horiz-adv-x="1186" 
d="M315 -10c-179 0 -280 114 -280 252c0 133 90 240 238 261c7 1 19 2 22 2v2c-23 20 -36 50 -36 83c0 70 64 128 175 128h360v-310h2c38 59 115 99 195 99c99 0 162 -54 162 -141c0 -93 -65 -146 -208 -166v-2c29 -13 54 -54 89 -69c10 -4 22 -7 34 -7c19 0 39 4 63 15
l45 -117c-35 -19 -81 -27 -113 -27c-31 0 -58 6 -82 16c-92 38 -142 134 -172 156c-4 3 -8 5 -11 5c-5 -30 -8 -64 -8 -101v-69h-147v589h-194c-35 0 -52 -15 -52 -40c0 -35 38 -61 128 -90l-48 -114c-50 22 -89 33 -142 33c-87 0 -149 -46 -149 -132
c0 -88 62 -127 148 -127c50 0 99 12 148 34l45 -115c-67 -33 -142 -48 -212 -48zM833 281c108 8 168 46 168 76c0 16 -14 24 -36 24c-39 0 -94 -28 -132 -100z" />
    <glyph glyph-name="c_k.calt" unicode="&#xe0d0;" horiz-adv-x="1186" 
d="M315 -10c-179 0 -280 114 -280 252c0 133 90 240 238 261c7 1 19 2 22 2v2c-23 21 -36 59 -36 92c0 95 85 174 232 174c80 0 156 -16 233 -35c68 101 177 161 316 161c150 0 233 -81 233 -171c0 -104 -97 -168 -244 -168c-72 0 -145 12 -215 27c-13 -44 -20 -95 -20 -151
v-28h2c38 59 115 99 195 99c99 0 162 -54 162 -141c0 -93 -65 -146 -208 -166v-2c29 -13 54 -54 89 -69c10 -4 22 -7 34 -7c19 0 39 4 63 15l45 -117c-35 -19 -81 -27 -113 -27c-31 0 -58 6 -82 16c-92 38 -142 134 -172 156c-4 3 -8 5 -11 5c-5 -30 -8 -64 -8 -101v-69
h-147v431c0 68 7 134 25 191c-60 15 -113 25 -158 25c-71 0 -113 -33 -113 -80c0 -48 35 -78 128 -108l-48 -114c-50 22 -89 33 -142 33c-87 0 -149 -46 -149 -132c0 -88 62 -127 148 -127c50 0 99 12 148 34l45 -115c-67 -33 -142 -48 -212 -48zM874 701
c50 -11 100 -18 150 -18c63 0 98 16 98 48c0 22 -28 44 -83 44c-68 0 -124 -26 -165 -74zM833 281c108 8 168 46 168 76c0 16 -14 24 -36 24c-39 0 -94 -28 -132 -100z" />
    <glyph glyph-name="c_k.salt" unicode="&#xe033;" horiz-adv-x="1185" 
d="M315 -10c-179 0 -280 114 -280 252c0 133 90 240 238 261c7 1 19 2 22 2v2c-23 20 -36 50 -36 83c0 70 64 128 175 128h360v-310h2c38 59 115 99 195 99c99 0 162 -54 162 -141c0 -88 -68 -141 -184 -160v-2c140 -127 119 -333 326 -333c31 0 70 6 99 19l42 -120
c-43 -17 -93 -28 -146 -28c-305 0 -332 323 -457 416c-11 8 -22 14 -34 19c-6 -32 -9 -68 -9 -108v-69h-147v589h-194c-35 0 -52 -15 -52 -40c0 -35 38 -61 128 -90l-48 -114c-50 22 -89 33 -142 33c-87 0 -149 -46 -149 -132c0 -88 62 -127 148 -127c50 0 99 12 148 34
l45 -115c-67 -33 -142 -48 -212 -48zM833 281c108 8 168 46 168 76c0 16 -14 24 -36 24c-39 0 -94 -28 -132 -100z" />
    <glyph glyph-name="c_k.swsh" unicode="&#xe0a1;" horiz-adv-x="1185" 
d="M315 -10c-179 0 -280 114 -280 252c0 133 90 240 238 261c7 1 19 2 22 2v2c-23 21 -36 59 -36 92c0 95 85 174 232 174c80 0 156 -16 233 -35c68 101 177 161 316 161c150 0 233 -81 233 -171c0 -104 -97 -168 -244 -168c-72 0 -145 12 -215 27c-13 -44 -20 -95 -20 -151
v-28h2c38 59 115 99 195 99c99 0 162 -54 162 -141c0 -88 -68 -141 -184 -160v-2c140 -127 119 -333 326 -333c31 0 70 6 99 19l42 -120c-43 -17 -93 -28 -146 -28c-305 0 -332 323 -457 416c-11 8 -22 14 -34 19c-6 -32 -9 -68 -9 -108v-69h-147v431c0 68 7 134 25 191
c-60 15 -113 25 -158 25c-71 0 -113 -33 -113 -80c0 -48 35 -78 128 -108l-48 -114c-50 22 -89 33 -142 33c-87 0 -149 -46 -149 -132c0 -88 62 -127 148 -127c50 0 99 12 148 34l45 -115c-67 -33 -142 -48 -212 -48zM874 701c50 -11 100 -18 150 -18c63 0 98 16 98 48
c0 22 -28 44 -83 44c-68 0 -124 -26 -165 -74zM833 281c108 8 168 46 168 76c0 16 -14 24 -36 24c-39 0 -94 -28 -132 -100z" />
    <glyph glyph-name="c_k_o" unicode="&#xe031;" horiz-adv-x="1810" 
d="M315 -10c-179 0 -280 114 -280 252c0 133 90 240 238 261c7 1 19 2 22 2v2c-23 20 -36 50 -36 83c0 70 64 128 175 128h360v-310h2c38 59 115 99 195 99c99 0 162 -54 162 -141c0 -88 -68 -141 -184 -160v-2c122 -88 182 -221 387 -221c191 0 268 120 268 235
c0 97 -60 160 -145 160c-69 0 -106 -40 -106 -86c0 -44 30 -60 65 -60c16 0 32 3 47 8l34 -118c-34 -13 -68 -19 -101 -19c-108 0 -193 68 -193 180c0 133 97 224 252 224c179 0 298 -116 298 -290c0 -235 -194 -363 -419 -363c-313 0 -392 207 -523 304
c-11 8 -22 14 -34 19c-6 -32 -9 -67 -9 -107v-70h-147v589h-194c-35 0 -52 -15 -52 -40c0 -35 38 -61 128 -90l-48 -114c-50 22 -89 33 -142 33c-87 0 -149 -46 -149 -132c0 -88 62 -127 148 -127c50 0 99 12 148 34l45 -115c-67 -33 -142 -48 -212 -48zM833 281
c108 8 168 46 168 76c0 16 -14 24 -36 24c-39 0 -94 -28 -132 -100z" />
    <glyph glyph-name="c_k_o.swsh" unicode="&#xe09f;" horiz-adv-x="1810" 
d="M315 -10c-179 0 -280 114 -280 252c0 133 90 240 238 261c7 1 19 2 22 2v2c-23 21 -36 59 -36 92c0 95 85 174 232 174c80 0 156 -16 233 -35c68 101 177 161 316 161c150 0 233 -81 233 -171c0 -104 -97 -168 -244 -168c-72 0 -145 12 -215 27c-13 -44 -20 -95 -20 -151
v-28h2c38 59 115 99 195 99c99 0 162 -54 162 -141c0 -88 -68 -141 -184 -160v-2c122 -88 182 -221 387 -221c191 0 268 120 268 235c0 97 -60 160 -145 160c-69 0 -106 -40 -106 -86c0 -44 30 -60 65 -60c16 0 32 3 47 8l34 -118c-34 -13 -68 -19 -101 -19
c-108 0 -193 68 -193 180c0 133 97 224 252 224c179 0 298 -116 298 -290c0 -235 -194 -363 -419 -363c-313 0 -392 207 -523 304c-11 8 -22 14 -34 19c-6 -32 -9 -67 -9 -107v-70h-147v431c0 68 7 134 25 191c-60 15 -113 25 -158 25c-71 0 -113 -33 -113 -80
c0 -48 35 -78 128 -108l-48 -114c-50 22 -89 33 -142 33c-87 0 -149 -46 -149 -132c0 -88 62 -127 148 -127c50 0 99 12 148 34l45 -115c-67 -33 -142 -48 -212 -48zM874 701c50 -11 100 -18 150 -18c63 0 98 16 98 48c0 22 -28 44 -83 44c-68 0 -124 -26 -165 -74zM833 281
c108 8 168 46 168 76c0 16 -14 24 -36 24c-39 0 -94 -28 -132 -100z" />
    <glyph glyph-name="c_l" unicode="&#xe02b;" horiz-adv-x="898" 
d="M315 -10c-179 0 -280 114 -280 252c0 133 90 240 238 261c7 1 19 2 22 2v2c-23 20 -36 50 -36 83c0 70 64 128 175 128h360v-562c0 -26 15 -32 30 -32c14 0 28 4 39 9l25 -118c-30 -12 -65 -20 -103 -20c-78 0 -142 37 -142 138v456h-194c-35 0 -52 -15 -52 -40
c0 -35 38 -61 128 -90l-48 -114c-50 22 -89 33 -142 33c-87 0 -149 -46 -149 -132c0 -88 62 -127 148 -127c50 0 99 12 148 34l45 -115c-67 -33 -142 -48 -212 -48z" />
    <glyph glyph-name="c_l.swsh" unicode="&#xe099;" horiz-adv-x="898" 
d="M315 -10c-179 0 -280 114 -280 252c0 133 90 240 238 261c7 1 19 2 22 2v2c-23 21 -36 59 -36 92c0 95 77 174 224 174c82 0 153 -18 222 -37c57 104 153 163 283 163c142 0 227 -81 227 -171c0 -104 -91 -168 -238 -168c-60 0 -117 8 -171 20c-8 -43 -12 -90 -12 -141
v-283c0 -26 15 -32 30 -32c14 0 28 4 39 9l25 -118c-30 -12 -65 -20 -103 -20c-78 0 -142 37 -142 138v312c0 63 6 121 19 173c-57 16 -109 29 -154 29c-56 0 -111 -19 -111 -80c0 -48 35 -78 128 -108l-48 -114c-50 22 -89 33 -142 33c-87 0 -149 -46 -149 -132
c0 -88 62 -127 148 -127c50 0 99 12 148 34l45 -115c-67 -33 -142 -48 -212 -48zM849 697c40 -9 80 -14 123 -14c55 0 92 16 92 48c0 23 -30 44 -78 44c-61 0 -106 -29 -137 -78z" />
    <glyph glyph-name="c_l.fina" unicode="&#xe03c;" horiz-adv-x="1237" 
d="M315 -10c-179 0 -280 114 -280 252c0 133 90 240 238 261c7 1 19 2 22 2v2c-23 20 -36 50 -36 83c0 70 64 128 175 128h360v-590c6 1 18 2 27 2c62 0 116 -31 173 -31c62 0 88 34 88 73c0 40 -31 79 -101 87l39 118c124 -14 203 -94 203 -199c0 -120 -88 -204 -214 -204
c-92 0 -133 34 -223 34c-30 0 -66 -7 -91 -17l-52 35v563h-194c-35 0 -52 -15 -52 -40c0 -35 38 -61 128 -90l-48 -114c-50 22 -89 33 -142 33c-87 0 -149 -46 -149 -132c0 -88 62 -127 148 -127c50 0 99 12 148 34l45 -115c-67 -33 -142 -48 -212 -48z" />
    <glyph glyph-name="c_l.finaswsh" unicode="&#xe0a7;" horiz-adv-x="1237" 
d="M315 -10c-179 0 -280 114 -280 252c0 133 90 240 238 261c7 1 19 2 22 2v2c-23 21 -36 59 -36 92c0 95 77 174 224 174c82 0 153 -18 222 -37c57 104 153 163 283 163c142 0 227 -81 227 -171c0 -104 -91 -168 -238 -168c-60 0 -117 8 -171 20c-8 -43 -12 -90 -12 -141
v-311c6 1 18 2 27 2c62 0 116 -31 173 -31c62 0 88 34 88 73c0 40 -31 79 -101 87l39 118c124 -14 203 -94 203 -199c0 -120 -88 -204 -214 -204c-92 0 -133 34 -223 34c-30 0 -66 -7 -91 -17l-52 35v419c0 63 6 121 19 173c-57 16 -109 29 -154 29c-56 0 -111 -19 -111 -80
c0 -48 35 -78 128 -108l-48 -114c-50 22 -89 33 -142 33c-87 0 -149 -46 -149 -132c0 -88 62 -127 148 -127c50 0 99 12 148 34l45 -115c-67 -33 -142 -48 -212 -48zM849 697c40 -9 80 -14 123 -14c55 0 92 16 92 48c0 23 -30 44 -78 44c-61 0 -106 -29 -137 -78z" />
    <glyph glyph-name="c_l_o" unicode="&#xe02d;" horiz-adv-x="1504" 
d="M315 -10c-179 0 -280 114 -280 252c0 133 90 240 238 261c7 1 19 2 22 2v2c-23 20 -36 50 -36 83c0 70 64 128 175 128h360v-477c0 -166 79 -247 262 -247c160 0 262 81 262 220c0 97 -59 164 -145 164c-69 0 -106 -40 -106 -86c0 -44 30 -60 65 -60c16 0 32 3 47 8
l34 -118c-34 -13 -68 -19 -101 -19c-108 0 -193 68 -193 180c0 133 97 224 252 224c180 0 298 -119 298 -295c0 -215 -179 -347 -424 -347c-241 0 -402 122 -402 349v375h-194c-35 0 -52 -15 -52 -40c0 -35 38 -61 128 -90l-48 -114c-50 22 -89 33 -142 33
c-87 0 -149 -46 -149 -132c0 -88 62 -127 148 -127c50 0 99 12 148 34l45 -115c-67 -33 -142 -48 -212 -48z" />
    <glyph glyph-name="c_l_o.swsh" unicode="&#xe09b;" horiz-adv-x="1504" 
d="M315 -10c-179 0 -280 114 -280 252c0 133 90 240 238 261c7 1 19 2 22 2v2c-23 21 -36 59 -36 92c0 95 77 174 224 174c82 0 153 -18 222 -37c57 104 153 163 283 163c142 0 227 -81 227 -171c0 -104 -91 -168 -238 -168c-60 0 -117 8 -171 20c-8 -43 -12 -90 -12 -141
v-198c0 -166 79 -247 262 -247c160 0 262 81 262 220c0 97 -59 164 -145 164c-69 0 -106 -40 -106 -86c0 -44 30 -60 65 -60c16 0 32 3 47 8l34 -118c-34 -13 -68 -19 -101 -19c-108 0 -193 68 -193 180c0 133 97 224 252 224c180 0 298 -119 298 -295
c0 -215 -179 -347 -424 -347c-241 0 -402 122 -402 349v231c0 63 6 121 19 173c-57 16 -109 29 -154 29c-56 0 -111 -19 -111 -80c0 -48 35 -78 128 -108l-48 -114c-50 22 -89 33 -142 33c-87 0 -149 -46 -149 -132c0 -88 62 -127 148 -127c50 0 99 12 148 34l45 -115
c-67 -33 -142 -48 -212 -48zM849 697c40 -9 80 -14 123 -14c55 0 92 16 92 48c0 23 -30 44 -78 44c-61 0 -106 -29 -137 -78z" />
    <glyph glyph-name="c_o" unicode="&#xe048;" horiz-adv-x="1164" 
d="M571 -135c-340 0 -536 126 -536 357c0 160 113 285 289 285c71 0 136 -16 201 -48l-48 -114c-50 22 -89 33 -142 33c-85 0 -149 -55 -149 -153c0 -147 144 -231 387 -231c211 0 405 48 405 229c0 95 -62 155 -145 155c-69 0 -106 -40 -106 -86c0 -44 30 -60 65 -60
c16 0 32 3 47 8l34 -118c-34 -13 -68 -19 -101 -19c-108 0 -193 68 -193 180c0 133 97 224 252 224c176 0 298 -113 298 -284c0 -259 -238 -358 -558 -358z" />
    <glyph glyph-name="c_t" unicode="&#xe035;" horiz-adv-x="1000" 
d="M315 -10c-179 0 -280 114 -280 252c0 133 90 240 238 261c7 1 19 2 22 2v2c-23 20 -36 50 -36 83c0 70 64 128 175 128h360v-221h166v-129h-166v-198c0 -35 25 -51 61 -51c29 0 63 11 95 29l50 -109c-50 -31 -109 -49 -173 -49c-94 0 -184 43 -184 160v439h-194
c-35 0 -52 -15 -52 -40c0 -35 38 -61 128 -90l-48 -114c-50 22 -89 33 -142 33c-87 0 -149 -46 -149 -132c0 -88 62 -127 148 -127c50 0 99 12 148 34l45 -115c-67 -33 -142 -48 -212 -48z" />
    <glyph glyph-name="c_t.swsh" unicode="&#xe0a3;" horiz-adv-x="1000" 
d="M315 -10c-179 0 -280 114 -280 252c0 133 90 240 238 261c7 1 19 2 22 2v2c-23 21 -36 59 -36 92c0 95 77 174 224 174c81 0 152 -17 221 -37c57 105 153 163 284 163c142 0 227 -81 227 -171c0 -104 -91 -168 -238 -168c-61 0 -119 9 -174 21c-7 -34 -9 -65 -9 -82v-2
h166v-129h-166v-198c0 -35 25 -51 61 -51c29 0 63 11 95 29l50 -109c-50 -31 -109 -49 -173 -49c-94 0 -184 43 -184 160v300c0 62 6 118 18 169c-57 15 -108 28 -153 28c-56 0 -111 -19 -111 -80c0 -48 35 -78 128 -108l-48 -114c-50 22 -89 33 -142 33
c-87 0 -149 -46 -149 -132c0 -88 62 -127 148 -127c50 0 99 12 148 34l45 -115c-67 -33 -142 -48 -212 -48zM849 697c39 -9 80 -14 123 -14c55 0 92 16 92 48c0 23 -30 44 -78 44c-65 0 -108 -34 -137 -78z" />
    <glyph glyph-name="c_t.fina" unicode="&#xe0f4;" horiz-adv-x="1307" 
d="M315 -10c-179 0 -280 114 -280 252c0 133 90 240 238 261c7 1 19 2 22 2v2c-23 20 -36 50 -36 83c0 70 64 128 175 128h360v-221h166v-129h-166v-240c6 1 23 2 30 2c69 0 140 -31 218 -31c82 0 110 37 110 80c0 40 -31 72 -96 80l39 118c124 -14 198 -94 198 -199
c0 -120 -99 -204 -239 -204c-109 0 -162 34 -252 34c-30 0 -82 -7 -107 -17l-52 35v563h-194c-35 0 -52 -15 -52 -40c0 -35 38 -61 128 -90l-48 -114c-50 22 -89 33 -142 33c-87 0 -149 -46 -149 -132c0 -88 62 -127 148 -127c50 0 99 12 148 34l45 -115
c-67 -33 -142 -48 -212 -48z" />
    <glyph glyph-name="c_t.finaswsh" unicode="&#xe0ad;" horiz-adv-x="1307" 
d="M315 -10c-179 0 -280 114 -280 252c0 133 90 240 238 261c7 1 19 2 22 2v2c-23 21 -36 59 -36 92c0 95 77 174 224 174c81 0 152 -17 221 -37c57 105 153 163 284 163c142 0 227 -81 227 -171c0 -104 -91 -168 -238 -168c-61 0 -119 9 -174 21c-7 -34 -9 -65 -9 -82v-2
h166v-129h-166v-240c6 1 23 2 30 2c69 0 140 -31 218 -31c82 0 110 37 110 80c0 40 -31 72 -96 80l39 118c124 -14 198 -94 198 -199c0 -120 -99 -204 -239 -204c-109 0 -162 34 -252 34c-30 0 -82 -7 -107 -17l-52 35v424c0 62 6 118 18 169c-57 15 -108 28 -153 28
c-56 0 -111 -19 -111 -80c0 -48 35 -78 128 -108l-48 -114c-50 22 -89 33 -142 33c-87 0 -149 -46 -149 -132c0 -88 62 -127 148 -127c50 0 99 12 148 34l45 -115c-67 -33 -142 -48 -212 -48zM849 697c39 -9 80 -14 123 -14c55 0 92 16 92 48c0 23 -30 44 -78 44
c-65 0 -108 -34 -137 -78z" />
    <glyph glyph-name="c_t_o" unicode="&#xe037;" horiz-adv-x="1618" 
d="M315 -10c-179 0 -280 114 -280 252c0 133 90 240 238 261c7 1 19 2 22 2v2c-23 20 -36 50 -36 83c0 70 64 128 175 128h360v-221h166v-129h-166v-122c0 -169 76 -252 296 -252c176 0 342 57 342 229c0 95 -62 155 -145 155c-69 0 -106 -40 -106 -86c0 -44 30 -60 65 -60
c16 0 32 3 47 8l34 -118c-34 -13 -68 -19 -101 -19c-108 0 -193 68 -193 180c0 133 97 224 252 224c176 0 298 -113 298 -284c0 -250 -221 -358 -498 -358c-300 0 -442 122 -442 367v357h-194c-35 0 -52 -15 -52 -40c0 -35 38 -61 128 -90l-48 -114c-50 22 -89 33 -142 33
c-87 0 -149 -46 -149 -132c0 -88 62 -127 148 -127c50 0 99 12 148 34l45 -115c-67 -33 -142 -48 -212 -48z" />
    <glyph glyph-name="c_t_o.swsh" unicode="&#xe0a5;" horiz-adv-x="1618" 
d="M315 -10c-179 0 -280 114 -280 252c0 133 90 240 238 261c7 1 19 2 22 2v2c-23 21 -36 59 -36 92c0 95 77 174 224 174c81 0 152 -17 221 -37c57 105 153 163 284 163c142 0 227 -81 227 -171c0 -104 -91 -168 -238 -168c-61 0 -119 9 -174 21c-7 -34 -9 -65 -9 -82v-2
h166v-129h-166v-122c0 -169 76 -252 296 -252c176 0 342 57 342 229c0 95 -62 155 -145 155c-69 0 -106 -40 -106 -86c0 -44 30 -60 65 -60c16 0 32 3 47 8l34 -118c-34 -13 -68 -19 -101 -19c-108 0 -193 68 -193 180c0 133 97 224 252 224c176 0 298 -113 298 -284
c0 -250 -221 -358 -498 -358c-300 0 -442 122 -442 367v218c0 62 6 118 18 169c-57 15 -108 28 -153 28c-56 0 -111 -19 -111 -80c0 -48 35 -78 128 -108l-48 -114c-50 22 -89 33 -142 33c-87 0 -149 -46 -149 -132c0 -88 62 -127 148 -127c50 0 99 12 148 34l45 -115
c-67 -33 -142 -48 -212 -48zM849 697c39 -9 80 -14 123 -14c55 0 92 16 92 48c0 23 -30 44 -78 44c-65 0 -108 -34 -137 -78z" />
    <glyph glyph-name="e_o" unicode="&#xe041;" horiz-adv-x="1213" 
d="M589 -135c-346 0 -554 133 -554 358c0 181 126 284 297 284c122 0 208 -54 208 -157c0 -107 -95 -164 -256 -164c-27 0 -71 3 -95 8c19 -133 182 -200 401 -200c211 0 428 48 428 229c0 95 -62 155 -145 155c-69 0 -106 -40 -106 -86c0 -44 30 -60 65 -60c16 0 32 3 47 8
l34 -118c-34 -13 -68 -19 -101 -19c-108 0 -193 68 -193 180c0 133 97 224 252 224c176 0 298 -113 298 -284c0 -259 -258 -358 -580 -358zM192 302c21 -3 51 -5 74 -5c93 0 123 28 123 51c0 21 -24 33 -65 33c-57 0 -112 -26 -132 -79z" />
    <glyph glyph-name="f_b.swsh" unicode="&#xe06e;" horiz-adv-x="1003" 
d="M108 -38v406h-107v129h107v26c0 164 108 240 251 240c62 0 124 -12 179 -26c65 100 171 162 317 162c152 0 233 -79 233 -167c0 -107 -95 -172 -244 -172c-77 0 -149 12 -215 26c-13 -44 -20 -95 -20 -150v-2v-9h2c38 52 96 82 166 82c107 0 191 -78 191 -205
c0 -184 -150 -312 -337 -312c-52 0 -118 10 -173 35v408c0 67 9 131 26 188c-40 9 -77 16 -109 16c-82 0 -116 -47 -116 -117v-23h122v-129h-122v-404c0 -143 -98 -201 -215 -201c-53 0 -103 9 -143 29l39 119c42 -16 71 -19 90 -19c45 0 78 11 78 70zM689 700
c48 -10 97 -17 150 -17c63 0 98 16 98 48c0 22 -28 44 -83 44c-68 0 -124 -27 -165 -75zM605 126c6 -3 21 -6 39 -6c89 0 173 64 173 166c0 57 -26 89 -70 89c-72 0 -142 -77 -142 -240v-9z" />
    <glyph glyph-name="f_b.saltswsh" unicode="&#xe07b;" horiz-adv-x="994" 
d="M108 -38v406h-107v129h107v26c0 164 108 240 251 240c62 0 124 -12 179 -26c65 100 171 162 317 162c152 0 233 -79 233 -167c0 -107 -95 -172 -244 -172c-77 0 -149 12 -215 26c-13 -44 -20 -95 -20 -150v-11h2c38 51 100 82 164 82c113 0 193 -78 193 -205
c0 -181 -146 -312 -302 -312c-137 0 -208 88 -208 206v237c0 67 9 131 26 188c-40 9 -77 16 -109 16c-82 0 -116 -47 -116 -117v-23h122v-129h-122v-404c0 -143 -98 -201 -215 -201c-53 0 -103 9 -143 29l39 119c42 -16 71 -19 90 -19c45 0 78 11 78 70zM676 120
c68 0 141 67 141 169c0 55 -27 86 -70 86c-71 0 -142 -76 -142 -173c0 -45 20 -82 71 -82zM689 700c48 -10 97 -17 150 -17c63 0 98 16 98 48c0 22 -28 44 -83 44c-68 0 -124 -27 -165 -75z" />
    <glyph glyph-name="f_f_b.calt" unicode="&#xe104;" horiz-adv-x="1353" 
d="M-347 -228c0 106 95 172 238 172c73 0 144 -13 209 -29c5 30 8 64 8 102v351h-107v129h107v14c0 130 103 215 253 215c60 0 117 -12 175 -35c45 33 108 51 183 51s161 -15 240 -38v-235v-44h2c38 52 96 82 166 82c107 0 191 -78 191 -205c0 -184 -150 -312 -337 -312
c-52 0 -118 10 -173 35v577c-28 7 -58 11 -87 11c-62 0 -112 -23 -112 -86v-30h122v-129h-122v-357c0 -184 -116 -271 -273 -271c-49 0 -95 8 -140 19c-61 -95 -166 -154 -318 -154c-156 0 -225 80 -225 167zM-200 -227c0 -22 20 -45 85 -45c76 0 131 23 168 70
c-50 13 -100 23 -154 23c-55 0 -99 -13 -99 -48zM259 497h199v31c0 20 2 39 7 56c-28 10 -57 15 -88 15c-66 0 -118 -26 -118 -88v-14zM246 -122c30 -6 57 -11 81 -11c88 0 131 46 131 146v355h-199v-372c0 -41 -5 -81 -13 -118zM955 126c6 -3 21 -6 39 -6
c89 0 173 64 173 166c0 57 -26 89 -70 89c-72 0 -142 -77 -142 -240v-9z" />
    <glyph glyph-name="f_f_b.swsh" unicode="&#xe078;" horiz-adv-x="1353" 
d="M108 17v351h-107v129h107v14c0 130 103 215 253 215c55 0 107 -10 160 -30c46 45 112 67 188 67c62 0 124 -12 179 -26c65 100 171 162 317 162c152 0 233 -79 233 -167c0 -107 -95 -172 -244 -172c-77 0 -149 12 -215 26c-13 -44 -20 -95 -20 -150v-5v-6h2
c38 52 96 82 166 82c107 0 191 -78 191 -205c0 -184 -150 -312 -337 -312c-52 0 -118 10 -173 35v408c0 67 9 131 26 188c-40 9 -77 16 -109 16c-82 0 -116 -47 -116 -117v-23h122v-129h-122v-357c0 -184 -116 -271 -273 -271c-49 0 -95 8 -140 19
c-61 -95 -166 -154 -318 -154c-156 0 -225 80 -225 167c0 106 95 172 238 172c73 0 144 -13 209 -29c5 30 8 64 8 102zM53 -202c-50 13 -100 23 -154 23c-55 0 -99 -13 -99 -48c0 -22 20 -45 85 -45c76 0 131 23 168 70zM259 497h199v26c0 22 2 42 6 61
c-28 10 -57 15 -87 15c-66 0 -118 -26 -118 -88v-14zM246 -122c30 -6 57 -11 81 -11c88 0 131 46 131 146v355h-199v-372c0 -41 -5 -81 -13 -118zM1039 700c48 -10 97 -17 150 -17c63 0 98 16 98 48c0 22 -28 44 -83 44c-68 0 -124 -27 -165 -75zM955 126c6 -3 21 -6 39 -6
c89 0 173 64 173 166c0 57 -26 89 -70 89c-72 0 -142 -77 -142 -240v-9z" />
    <glyph glyph-name="f_f_b.saltcalt" unicode="&#xe105;" horiz-adv-x="1353" 
d="M-347 -228c0 106 95 172 238 172c73 0 144 -13 209 -29c5 30 8 64 8 102v351h-107v129h107v14c0 130 103 215 253 215c60 0 117 -12 175 -35c45 33 108 51 183 51s161 -15 240 -38v-279h2c38 51 100 82 164 82c113 0 193 -78 193 -205c0 -181 -146 -312 -302 -312
c-137 0 -208 88 -208 206v406c-28 7 -58 11 -87 11c-62 0 -112 -23 -112 -86v-30h122v-129h-122v-357c0 -184 -116 -271 -273 -271c-49 0 -95 8 -140 19c-61 -95 -166 -154 -318 -154c-156 0 -225 80 -225 167zM-200 -227c0 -22 20 -45 85 -45c76 0 131 23 168 70
c-50 13 -100 23 -154 23c-55 0 -99 -13 -99 -48zM259 497h199v31c0 20 2 39 7 56c-28 10 -57 15 -88 15c-66 0 -118 -26 -118 -88v-14zM246 -122c30 -6 57 -11 81 -11c88 0 131 46 131 146v355h-199v-372c0 -41 -5 -81 -13 -118zM955 202c0 -45 20 -82 71 -82
c68 0 141 67 141 169c0 55 -27 86 -70 86c-71 0 -142 -76 -142 -173z" />
    <glyph glyph-name="f_f_b.saltswsh" unicode="&#xe07c;" horiz-adv-x="1354" 
d="M108 17v351h-107v129h107v14c0 130 103 215 253 215c55 0 107 -10 160 -30c46 45 112 67 188 67c62 0 124 -12 179 -26c65 100 171 162 317 162c152 0 233 -79 233 -167c0 -107 -95 -172 -244 -172c-77 0 -149 12 -215 26c-13 -44 -20 -95 -20 -150v-11h2
c38 51 100 82 164 82c113 0 193 -78 193 -205c0 -181 -146 -312 -302 -312c-137 0 -208 88 -208 206v237c0 67 9 131 26 188c-40 9 -77 16 -109 16c-82 0 -116 -47 -116 -117v-23h122v-129h-122v-357c0 -184 -116 -271 -273 -271c-49 0 -95 8 -140 19
c-61 -95 -166 -154 -318 -154c-156 0 -225 80 -225 167c0 106 95 172 238 172c73 0 144 -13 209 -29c5 30 8 64 8 102zM53 -202c-50 13 -100 23 -154 23c-55 0 -99 -13 -99 -48c0 -22 20 -45 85 -45c76 0 131 23 168 70zM259 497h199v26c0 22 2 42 6 61
c-28 10 -57 15 -87 15c-66 0 -118 -26 -118 -88v-14zM246 -122c30 -6 57 -11 81 -11c88 0 131 46 131 146v355h-199v-372c0 -41 -5 -81 -13 -118zM1039 700c48 -10 97 -17 150 -17c63 0 98 16 98 48c0 22 -28 44 -83 44c-68 0 -124 -27 -165 -75zM1026 120
c68 0 141 67 141 169c0 55 -27 86 -70 86c-71 0 -142 -76 -142 -173c0 -45 20 -82 71 -82z" />
    <glyph glyph-name="ff.calt" unicode="&#xe0d1;" horiz-adv-x="718" 
d="M108 17v351h-107v129h107v14c0 130 103 215 253 215c59 0 115 -11 172 -33c40 32 96 49 163 49c72 0 141 -19 182 -37l-34 -119c-27 10 -80 27 -131 27c-64 0 -104 -27 -104 -87v-29h122v-129h-122v-357c0 -184 -116 -271 -273 -271c-49 0 -95 8 -140 19
c-61 -95 -166 -154 -318 -154c-156 0 -225 80 -225 167c0 106 95 172 238 172c73 0 144 -13 209 -29c5 30 8 64 8 102zM259 497h199v24c0 22 2 44 7 63c-28 10 -57 15 -88 15c-66 0 -118 -26 -118 -88v-14zM53 -202c-50 13 -100 23 -154 23c-55 0 -99 -13 -99 -48
c0 -22 20 -45 85 -45c76 0 131 23 168 70zM246 -122c30 -6 57 -11 81 -11c88 0 131 46 131 146v355h-199v-372c0 -41 -5 -81 -13 -118z" />
    <glyph glyph-name="ff.swsh" unicode="&#xe08c;" horiz-adv-x="718" 
d="M108 17v351h-107v129h107v8c0 176 119 259 273 259c49 0 93 -8 136 -18c57 93 156 153 300 153c158 0 241 -75 241 -167c0 -106 -99 -172 -242 -172c-71 0 -139 12 -201 28c-4 -26 -6 -54 -6 -83v-8h122v-129h-122v-357c0 -184 -116 -271 -273 -271c-49 0 -95 8 -140 19
c-61 -95 -166 -154 -318 -154c-156 0 -225 80 -225 167c0 106 95 172 238 172c73 0 144 -13 209 -29c5 30 8 64 8 102zM53 -202c-50 13 -100 23 -154 23c-55 0 -99 -13 -99 -48c0 -22 20 -45 85 -45c76 0 131 23 168 70zM246 -122c30 -6 57 -11 81 -11c88 0 131 46 131 146
v355h-199v-372c0 -41 -5 -81 -13 -118zM259 497h199v11c0 41 4 81 12 118c-29 6 -56 11 -80 11c-84 0 -131 -41 -131 -131v-9zM661 705c46 -13 94 -22 147 -22c55 0 99 13 99 48c0 26 -30 44 -95 44c-68 0 -118 -26 -151 -70z" />
    <glyph glyph-name="f_h.swsh" unicode="&#xe06f;" horiz-adv-x="1083" 
d="M108 -38v406h-107v129h107v26c0 164 108 240 251 240c62 0 124 -12 179 -26c65 100 171 162 317 162c152 0 233 -79 233 -167c0 -107 -95 -172 -244 -172c-77 0 -149 12 -215 26c-13 -44 -20 -95 -20 -150v-54h2c43 71 115 125 204 125c109 0 164 -65 164 -166v-185
c0 -26 15 -32 30 -32c14 0 28 4 39 9l25 -118c-30 -12 -65 -20 -103 -20c-78 0 -142 37 -142 138v174c0 38 -18 57 -49 57c-68 0 -135 -79 -158 -168c-13 -51 -12 -98 -12 -166v-30h-151v433c0 67 9 131 26 188c-40 9 -77 16 -109 16c-82 0 -116 -47 -116 -117v-23h122v-129
h-122v-404c0 -143 -98 -201 -215 -201c-53 0 -103 9 -143 29l39 119c42 -16 71 -19 90 -19c45 0 78 11 78 70zM689 700c48 -10 97 -17 150 -17c63 0 98 16 98 48c0 22 -28 44 -83 44c-68 0 -124 -27 -165 -75z" />
    <glyph glyph-name="f_h.fina" unicode="&#xe115;" horiz-adv-x="1422" 
d="M-99 -208l39 119c42 -16 71 -19 90 -19c45 0 78 11 78 70v406h-107v129h107v13c0 136 104 214 261 214c75 0 161 -15 240 -38v-304h2c43 71 115 125 204 125c109 0 164 -65 164 -166v-213c6 1 18 2 27 2c62 0 116 -31 173 -31c62 0 88 34 88 73c0 40 -31 79 -101 87
l39 118c124 -14 203 -94 203 -199c0 -120 -88 -204 -214 -204c-92 0 -133 34 -223 34c-30 0 -66 -7 -91 -17l-52 35v281c0 38 -18 57 -49 57c-68 0 -135 -79 -158 -168c-13 -51 -12 -98 -12 -166v-30h-151v584c-28 7 -58 11 -87 11c-62 0 -112 -23 -112 -86v-12h122v-129
h-122v-404c0 -143 -98 -201 -215 -201c-53 0 -103 9 -143 29z" />
    <glyph glyph-name="f_h.finaswsh" unicode="&#xe071;" horiz-adv-x="1422" 
d="M108 -38v406h-107v129h107v26c0 164 108 240 251 240c62 0 124 -12 179 -26c65 100 171 162 317 162c152 0 233 -79 233 -167c0 -107 -95 -172 -244 -172c-77 0 -149 12 -215 26c-13 -44 -20 -95 -20 -150v-54h2c43 71 115 125 204 125c109 0 164 -65 164 -166v-213
c6 1 18 2 27 2c62 0 116 -31 173 -31c62 0 88 34 88 73c0 40 -31 79 -101 87l39 118c124 -14 203 -94 203 -199c0 -120 -88 -204 -214 -204c-92 0 -133 34 -223 34c-30 0 -66 -7 -91 -17l-52 35v281c0 38 -18 57 -49 57c-68 0 -135 -79 -158 -168c-13 -51 -12 -98 -12 -166
v-30h-151v433c0 67 9 131 26 188c-40 9 -77 16 -109 16c-82 0 -116 -47 -116 -117v-23h122v-129h-122v-404c0 -143 -98 -201 -215 -201c-53 0 -103 9 -143 29l39 119c42 -16 71 -19 90 -19c45 0 78 11 78 70zM689 700c48 -10 97 -17 150 -17c63 0 98 16 98 48
c0 22 -28 44 -83 44c-68 0 -124 -27 -165 -75z" />
    <glyph glyph-name="f_h.saltswsh" unicode="&#xe07d;" horiz-adv-x="1107" 
d="M108 -38v406h-107v129h107v26c0 164 108 240 251 240c61 0 118 -12 174 -27c65 96 171 163 316 163c153 0 239 -77 239 -167c0 -113 -104 -172 -256 -172c-77 0 -147 11 -210 26c-9 -28 -13 -55 -13 -77v-12h423l60 -98c-108 -111 -190 -238 -190 -382
c0 -131 71 -201 186 -203c59 -1 121 14 189 56l61 -110c-71 -48 -160 -76 -264 -75c-190 2 -319 134 -319 314c0 144 59 273 142 369h-288v-368h-151v484c0 47 7 93 20 138c-38 9 -72 15 -103 15c-82 0 -116 -47 -116 -117v-23h122v-129h-122v-404
c0 -143 -98 -201 -215 -201c-53 0 -103 9 -143 29l39 119c42 -16 71 -19 90 -19c45 0 78 11 78 70zM684 698c42 -9 87 -15 136 -15c62 0 117 9 117 48c0 23 -32 44 -87 44c-72 0 -127 -33 -166 -77z" />
    </font>
</defs>
</svg>
